osu file format v5

[General]
AudioFilename: -Para Para Sakura ().mp3
AudioLeadIn: 0
PreviewTime: -1
Countdown: 1
SampleSet: Normal
StackLeniency: 0.4
Mode: 0
LetterboxInBreaks: 1
SkinPreference:Default
EditorDistanceSpacing: 0.5

[Metadata]
Title:Para Para Sakura
Artist:Aaron Kwok
Creator:antony11
Version:Normal
Source:
Tags:Aaron Kwok,Para Para Sakura

[Difficulty]
HPDrainRate:5
CircleSize:5
OverallDifficulty:7
SliderMultiplier:1.4
SliderTickRate:1

[Events]
//Background and Video events
0,0,"wallpaper01.jpg"
//Break Periods
2,130849,147234
2,171965,185517
//Storyboard Layer 0 (Background)
//Storyboard Layer 1 (Failing)
//Storyboard Layer 2 (Passing)
//Storyboard Layer 3 (Foreground)
//Storyboard Sound Samples
//Background Colour Transformations
3,100,163,162,255

[TimingPoints]
11444.5920811603,397.350993377483,4,1,0,100,1,0
25749,-100,4,1,0,100,0,1
28530,-100,4,1,0,100,0,0
53563,-100,4,1,0,100,0,1
65284,-100,4,1,0,100,0,0
104423,-100,4,1,0,100,0,1
116144,-100,4,1,0,100,0,0
198594,-100,4,1,0,100,0,1

[Colours]
Combo1 : 207,88,132
Combo2 : 184,30,81
Combo3 : 250,232,238
Combo4 : 250,156,180

[HitObjects]
224,96,24159,5,2
224,96,24557,1,2
288,96,24954,1,2
288,96,25352,1,2
256,192,25749,12,4,28530
64,64,29325,5,0
128,64,29722,1,0
192,64,30120,1,8
192,64,30318,1,0
192,64,30517,1,8
192,64,30716,1,0
256,64,31113,2,0,B|384:64,1,70,8|0
384,64,31709,5,8
384,64,31908,1,0
384,64,32107,1,8
384,128,32504,1,8
384,192,32901,1,8
320,192,33299,1,8
320,192,33497,1,0
320,192,33696,1,8
256,224,34093,1,8
192,192,34491,1,8
64,256,35285,5,0
128,224,35683,1,8
64,192,36080,1,0
64,128,36477,1,8
64,128,36676,1,0
64,128,36875,1,8
64,128,37073,1,0
128,160,37471,1,8
128,224,37868,6,0,B|224:224,2,70,0|0|0
192,288,38663,2,0,B|320:288,2,70,0|0|0
192,288,39259,1,8
192,288,39458,1,0
192,288,39656,1,8
192,288,39855,2,0,B|352:288,1,140
333,288,40451,1,8
333,288,40650,1,2
64,96,41643,5,2
128,128,42040,1,10
192,96,42438,1,2
256,128,42835,1,10
320,96,43232,1,2
384,128,43630,1,10
448,96,44027,1,2
384,224,44623,5,0
384,224,44822,1,8
384,224,45021,1,0
384,224,45219,1,8
384,224,45418,1,0
384,224,45617,2,0,B|288:224,5,70,8|0|8|0|0|8
320,224,46809,1,0
320,224,47007,1,8
256,32,48001,5,2
256,96,48398,1,2
256,160,48795,1,2
256,224,49193,1,2
256,288,49590,1,2
256,352,49987,1,2
320,352,50385,1,2
416,352,50981,5,0
416,352,51179,1,8
416,352,51378,1,0
416,352,51577,1,8
416,352,51776,1,0
416,256,52372,1,0
416,256,52570,1,8
416,256,52769,1,0
416,256,52968,1,8
416,256,53166,1,0
416,256,53365,1,2
96,320,54358,6,0,B|224:320,7,70
160,320,55948,1,0
224,288,56345,1,0
288,320,56743,1,0
288,256,57140,1,0
320,192,57537,5,0
288,128,57935,1,0
224,128,58332,1,0
192,192,58729,1,0
256,192,59127,5,0
192,256,59524,1,0
128,224,59921,1,0
128,160,60319,2,0,B|160:96|256:64,1,140
192,128,61113,5,0
224,192,61511,1,0
288,192,61908,1,0
352,192,62305,1,0
416,160,62703,1,0
352,128,63100,1,0
416,96,63498,2,0,B|480:128|480:192|480:256|416:320|384:320,1,280
320,320,64690,1,0
256,320,65087,1,0
256,320,65286,1,2
64,320,67074,6,8,B|64:160,1,140
96,256,67868,2,0,B|96:96,1,140
96,117,68464,1,2
256,192,68663,12,8,69855
416,288,70253,5,0
352,288,70650,2,0,B|256:288,4,70
352,288,71643,1,8
256,192,71842,12,10,73034
96,64,73431,5,0
160,64,73829,1,0
224,96,74226,1,0
256,160,74623,1,0
256,160,74822,1,8
256,192,75021,12,2,76213
416,64,76610,6,0,B|416:160,1,70
384,160,77008,2,0,B|384:32,1,70
352,128,77405,2,0,B|352:224,1,70
320,224,77802,2,0,B|320:128,1,70,0|2
256,192,78200,12,2,79392
448,320,80186,5,0
384,320,80584,1,0
320,320,80981,1,0
320,288,81180,1,8
320,256,81379,1,0
320,224,81577,1,8
320,160,81975,2,0,B|192:160,1,70
224,224,82571,5,0
192,256,82769,1,8
160,288,82968,1,0
96,256,83365,1,8
160,192,83763,1,8
224,128,84160,1,0
224,96,84359,1,0
256,96,84557,1,0
320,96,84955,1,2
384,96,85352,1,2
480,192,86147,5,0
416,224,86544,1,0
352,256,86941,1,0
416,288,87339,1,0
416,320,87538,1,0
384,320,87736,1,0
352,320,87935,1,0
288,320,88332,1,0
288,256,88730,6,8,B|192:256,2,70,0|0|0
256,192,89524,2,8,B|128:192,2,70,0|0|0
288,160,90120,1,0
320,128,90319,1,0
352,96,90518,1,0
320,96,90716,2,8,B|160:96,1,140
180,97,91312,1,0
180,97,91511,1,0
64,288,92504,5,2
128,256,92901,1,2
192,288,93299,1,2
256,256,93696,1,2
320,288,94094,1,2
384,256,94491,1,2
448,288,94888,1,2
128,128,95485,5,0
128,128,95683,1,0
128,128,95882,1,0
128,128,96081,1,0
128,128,96279,1,0
128,128,96478,2,0,B|256:128,5,70
197,129,97670,1,8
197,129,97869,1,8
256,352,98861,5,2
256,288,99259,1,2
256,224,99657,1,2
256,160,100054,1,2
256,96,100452,1,2
256,32,100849,1,2
192,32,101246,1,2
96,32,101842,5,0
96,32,102041,1,0
96,32,102240,1,0
96,32,102438,1,0
96,32,102637,1,0
416,112,103233,5,0
416,144,103432,1,0
416,176,103630,1,0
384,176,103829,1,0
352,176,104028,1,0
320,176,104226,1,0
288,176,104424,2,8,B|288:48,7,70,8|8|8|8|8|8|8|8
288,64,106014,5,8
288,64,106412,1,2
224,32,106809,1,0
176,80,107207,1,2
224,128,107604,1,0
192,192,108001,5,2
224,256,108399,1,0
288,256,108796,1,0
320,192,109193,1,0
256,192,109591,1,0
320,128,109988,5,0
384,160,110385,1,0
384,224,110783,2,0,B|352:288|256:320,1,140
320,256,111577,1,0
288,192,111975,1,0
224,192,112372,1,0
160,192,112770,1,0
96,224,113167,1,0
160,256,113564,1,0
96,288,113962,2,2,B|32:256|32:192|32:128|96:64|128:64,1,280
192,64,115154,1,0
256,64,115551,1,0
320,64,115948,1,2
320,64,116147,1,2
416,224,117538,6,0,B|416:64,1,140
384,128,118333,2,0,B|384:288,1,140,0|0
384,271,119127,1,2
384,271,119326,1,2
256,192,119525,12,0,120320
96,96,120717,5,0
160,96,121114,2,8,B|256:96,4,70
160,160,122306,1,2
160,160,122505,1,2
256,192,122703,12,8,123498
416,320,123895,5,8
352,320,124293,1,0
288,320,124690,1,0
224,320,125088,1,0
192,256,125485,1,2
192,256,125684,1,2
256,192,125881,12,8,127073
128,224,127471,6,8,B|128:352,1,70
160,272,127868,2,8,B|160:176,1,70,8|8
192,224,128265,2,8,B|192:320,1,70
224,272,128663,2,14,B|224:192,1,70,14|14
256,192,129060,12,0,130649
64,64,148134,5,0
128,96,148531,1,0
192,64,148929,1,0
256,96,149326,1,2
256,96,149525,1,2
320,64,149922,1,0
320,64,150121,1,0
352,96,150320,1,0
352,96,150518,1,0
416,96,150916,1,0
384,160,151313,1,0
320,192,151710,1,0
256,160,152108,1,0
192,192,152505,1,0
128,160,152902,5,2
64,192,153300,1,2
64,256,153697,1,2
128,288,154094,1,2
192,256,154492,5,0
256,288,154889,1,0
320,256,155286,1,0
384,288,155684,1,8
384,288,155883,1,8
448,256,156280,1,0
448,256,156479,1,0
448,256,156677,1,0
448,256,156876,1,2
448,192,157273,1,4
384,160,157671,5,0
320,192,158068,1,0
256,160,158465,1,0
192,192,158863,1,0
192,192,159061,1,4
256,192,159260,12,2,160452
416,128,160849,6,8,B|320:128,1,70
384,160,161247,2,8,B|288:160,1,70
352,192,161644,2,8,B|256:192,1,70,0|0
320,224,162042,2,8,B|224:224,1,70,0|0
256,224,162439,5,0
256,224,162638,1,8
256,224,162836,1,0
256,224,163035,1,8
256,224,163234,1,0
256,224,163631,1,2
448,96,164028,5,0
416,160,164426,1,0
448,224,164823,1,0
384,256,165220,1,0
384,256,165419,1,0
352,224,165618,5,8
352,224,165816,1,0
352,224,166015,1,8
352,224,166214,1,0
352,224,166412,1,8
288,224,166810,5,0
224,224,167207,1,0
160,224,167604,1,0
160,160,168002,1,0
224,128,168399,1,0
256,128,168598,1,0
256,192,168797,12,2,169989
176,304,170386,5,0
176,240,170783,1,0
112,272,171181,1,0
48,272,171578,1,2
48,272,171777,1,6
448,320,186280,5,0
384,288,186678,1,0
320,320,187075,1,0
256,288,187472,1,0
256,288,187671,1,0
192,320,188068,1,0
192,320,188267,1,0
160,288,188466,1,0
160,288,188664,1,0
96,288,189062,1,0
128,224,189459,1,0
192,192,189856,1,0
256,224,190254,1,0
320,192,190651,1,0
384,224,191048,5,0
448,192,191446,1,0
448,128,191843,1,0
384,96,192240,1,0
320,128,192638,5,0
256,96,193035,1,0
192,128,193433,1,0
128,96,193830,1,0
128,96,194029,1,0
64,128,194426,1,0
64,128,194625,1,0
64,128,194823,1,0
64,128,195022,1,0
64,192,195419,1,0
128,224,195817,1,0
192,192,196214,1,0
256,224,196611,1,0
320,192,197009,1,0
320,192,197207,1,0
256,192,197406,12,0,198598
96,256,198996,6,0,B|192:256,1,70
128,224,199393,2,0,B|224:224,1,70
160,192,199790,2,0,B|256:192,1,70,0|0
192,160,200188,2,0,B|288:160,1,70,0|0
256,160,200585,5,8
256,160,200784,1,8
256,160,200982,1,8
256,160,201181,1,8
256,160,201380,1,8
256,160,201777,1,2
64,288,202174,5,0
96,224,202572,1,0
64,160,202969,1,0
128,128,203366,1,0
128,128,203565,1,0
160,160,203764,5,8
160,160,203962,1,8
160,160,204161,1,8
160,160,204360,1,8
160,160,204558,1,8
224,160,204956,5,2
288,160,205353,1,0
352,160,205751,1,0
352,224,206148,1,0
288,256,206545,1,0
256,256,206744,1,0
256,192,206943,12,2,208135
160,224,208532,5,0
160,288,208929,1,0
224,256,209327,1,0
288,256,209724,1,0
288,256,209923,2,2,B|416:256|448:96|288:32|128:64|64:192,1,490
256,192,211711,12,14,213300
