osu file format v5

[General]
AudioFilename: -Para Para Sakura ().mp3
AudioLeadIn: 0
PreviewTime: -1
Countdown: 1
SampleSet: Normal
StackLeniency: 0.5
Mode: 0
LetterboxInBreaks: 1
EditorDistanceSpacing: 1

[Metadata]
Title:Para Para Sakura
Artist:Aaron Kwok
Creator:antony11
Version:Hard
Source:
Tags:Aaron Kwok,Para Para Sakura

[Difficulty]
HPDrainRate:5
CircleSize:5
OverallDifficulty:7
SliderMultiplier:1.4
SliderTickRate:2

[Events]
//Background and Video events
0,0,"wallpaper01.jpg"
//Break Periods
2,26722,28156
2,117710,129871
2,172958,185517
//Storyboard Layer 0 (Background)
//Storyboard Layer 1 (Failing)
//Storyboard Layer 2 (Passing)
//Storyboard Layer 3 (Foreground)
//Storyboard Sound Samples
//Background Colour Transformations
3,100,163,162,255

[TimingPoints]
11444.5920811603,397.350993377483,4,1,0,100,1,0
24557,-100,4,1,0,100,0,1
24755,-100,4,1,0,100,0,0
25351,-100,4,1,0,100,0,1
25549,-100,4,1,0,100,0,0
26543,-100,4,1,0,100,0,1
26742,-100,4,1,0,100,0,0
54358,-100,4,1,0,100,0,1
66874,-100,4,1,0,100,0,0
105020,-100,4,1,0,100,0,1
117735,-100,4,1,0,100,0,0
137007,-100,4,1,0,100,0,1
146146,-100,4,1,0,100,0,0
201775,-100,4,1,0,100,0,1

[Colours]
Combo1 : 207,88,132
Combo2 : 184,30,81
Combo3 : 250,232,238
Combo4 : 250,156,180

[HitObjects]
64,64,11454,1,0
160,96,11841,1,0
256,64,12239,1,0
352,96,12636,1,0
416,64,12835,2,0,B|416:192,1,70,0|0
416,192,13232,1,0
416,256,13431,1,0
352,288,13630,1,0
288,256,13828,2,0,B|256:320|160:256,1,140
160,128,14623,5,0
96,256,15020,1,0
64,128,15418,1,0
160,32,15815,2,0,B|320:32,1,140
352,64,16411,1,0
416,64,16610,5,0
416,128,16808,1,0
416,160,16908,1,0
416,224,17106,1,0
416,256,17206,1,0
352,256,17404,1,0
288,256,17603,1,0
224,224,17802,6,0,B|224:64,1,140
96,128,18596,2,0,B|192:128,1,70
224,128,18994,1,0
160,192,19193,1,0
32,192,19590,1,0
32,128,19789,1,0
32,64,19987,1,0
96,128,20186,1,0
96,256,20583,1,0
224,320,20981,5,4
352,320,21378,1,4
480,320,21775,1,4
416,192,22173,1,0
352,192,22371,2,0,B|352:32|224:32|96:64|96:192,1,350
256,192,23762,12,2,24557
256,192,24656,12,2,25351
256,192,25451,12,2,26510
64,288,28928,5,0
64,160,29325,1,0
192,160,29722,1,0
192,32,30120,1,0
192,96,30318,1,8
256,96,30517,1,0
256,160,30716,1,8
320,32,31113,2,0,B|416:32|448:128,1,140,8|0
480,192,31709,5,0
416,192,31908,1,0
352,192,32107,1,0
352,256,32305,1,0
224,256,32703,2,0,B|224:96,1,140
224,32,33299,1,0
224,96,33497,1,0
224,160,33696,1,0
160,160,33895,1,0
288,160,34292,1,0
416,160,34689,1,8
352,160,34888,1,8
352,224,35087,1,8
416,288,35285,6,0,B|256:288,1,140
160,352,36080,1,0
32,352,36477,1,0
32,288,36676,1,0
64,224,36875,1,0
128,224,37073,2,0,B|128:128,1,70
128,96,37471,2,0,B|224:96,1,70
256,96,37868,5,0
256,160,38067,1,0
192,160,38266,1,8
192,288,38663,1,8
192,224,38862,1,0
256,224,39060,1,0
384,224,39458,1,8
320,224,39656,1,8
320,288,39855,1,8
384,160,40252,1,2
384,160,40451,1,2
384,160,40650,1,2
96,320,41643,5,2
96,192,42040,1,2
96,64,42438,1,2
224,64,42835,1,0
224,128,43034,1,0
256,192,43232,1,0
288,128,43431,1,0
416,128,43828,2,0,B|416:288|320:320,1,210
288,256,44623,5,0
288,256,44822,1,0
256,320,45021,1,0
224,256,45219,1,0
224,256,45418,1,0
192,320,45617,2,0,B|96:320|128:256,1,70
128,224,46014,1,0
128,160,46213,1,0
128,96,46411,1,0
128,96,46610,2,0,B|224:96,1,70
256,96,47007,2,0,B|352:96,1,70
384,96,47405,1,8
384,160,47603,1,8
320,224,47802,6,0,B|320:160|256:128|256:128,1,70,8|0
288,288,48398,2,0,B|192:288,1,70
160,288,48795,2,0,B|160:192,1,70
160,160,49193,1,0
96,160,49391,1,0
160,96,49590,1,0
224,160,49789,2,0,B|288:96,1,70
320,64,50186,1,0
352,192,50981,5,0
352,192,51180,1,0
352,192,51378,1,0
352,192,51577,1,0
352,192,51776,2,2,B|288:256|160:192,1,140
224,224,52372,1,0
224,224,52570,1,0
224,224,52769,1,0
224,224,52968,1,0
224,224,53166,1,0
224,224,53365,2,2,B|160:160|320:96|384:160|416:224,1,280
416,288,54358,6,0,B|320:288,1,70,0|8
288,288,54756,2,0,B|192:288,1,70,0|8
160,288,55153,2,0,B|64:288,1,70,0|8
128,224,55550,1,0
160,160,55749,2,0,B|224:96,1,70,0|8
256,64,56146,1,0
288,128,56345,1,0
352,128,56544,1,0
352,64,56743,2,0,B|448:96,1,70,0|8
416,160,57140,6,0,B|416:256,1,70,0|8
416,288,57537,2,0,B|288:288,1,70,0|8
288,288,57935,2,0,B|160:288,1,70
224,224,58332,2,0,B|192:160|128:192,1,70
128,224,58729,1,0
96,160,58928,2,0,B|160:96,1,70,0|8
192,64,59325,5,0
224,128,59524,1,8
288,96,59723,1,0
320,96,59822,1,8
352,160,60021,1,0
384,128,60120,1,8
448,96,60319,1,2
448,160,60517,1,2
448,224,60716,6,0,B|384:320,1,70,0|8
409,282,61113,2,0,B|352:224,1,70,0|8
357,231,61511,2,0,B|286:287,1,70,0|8
304,275,61908,2,0,B|224:224,1,70,0|8
244,237,62305,1,0
192,192,62504,1,0
256,128,62703,1,0
192,128,62902,1,0
192,64,63100,2,0,B|96:32|96:128,1,140
128,256,63895,1,0
256,192,64292,1,0
128,192,64690,1,0
256,256,65087,1,2
256,256,65286,1,2
256,192,65484,12,0,66676
448,320,67074,5,0
320,320,67471,1,0
192,320,67868,1,0
64,320,68266,1,0
64,256,68464,1,0
64,192,68663,6,0,B|160:192,1,70
134,192,69061,2,0,B|160:96,1,70
152,124,69458,1,2
288,128,69855,1,2
416,128,70253,5,0
352,256,70650,1,0
480,256,71047,1,0
352,256,71445,1,0
288,256,71643,1,0
224,256,71842,5,0
224,256,72041,1,0
160,256,72239,1,0
160,256,72438,1,0
160,256,72637,1,2
32,256,73034,1,2
32,128,73431,5,0
160,64,73829,1,0
288,128,74226,1,0
416,64,74623,1,0
416,128,74822,1,0
416,128,75021,1,0
416,192,75220,1,0
416,192,75418,1,0
416,256,75617,1,0
416,256,75816,1,2
288,256,76213,2,0,B|288:160,1,70,2|0
224,192,76610,5,0
96,192,77008,1,0
224,128,77405,1,0
96,128,77802,1,0
160,96,78001,1,8
256,192,78200,12,0,78994
448,96,79789,5,0
384,224,80186,1,0
320,96,80584,1,0
288,224,80981,1,0
224,160,81180,1,0
160,224,81379,1,8
224,224,81577,1,0
224,96,81975,2,0,B|128:96|96:0,1,140,8|0
64,96,82571,5,0
96,160,82769,1,8
32,160,82968,1,0
64,224,83167,1,8
160,128,83564,2,0,B|160:288,1,140,0|8
160,352,84160,1,0
224,320,84359,1,8
160,288,84557,1,0
96,320,84756,1,8
160,192,85153,1,0
256,96,85551,1,2
288,160,85749,1,2
224,192,85948,1,2
288,256,86146,6,0,B|448:256,1,140,8|0
384,128,86941,1,0
480,32,87339,1,0
416,32,87538,1,8
352,32,87736,1,0
288,64,87935,2,0,B|288:160,1,70,8|0
320,192,88332,2,0,B|224:192,1,70,8|0
288,256,88730,5,8
224,256,88928,1,0
192,192,89127,1,8
256,320,89524,1,0
256,384,89723,1,8
192,352,89922,1,0
320,352,90319,1,8
352,288,90518,1,0
384,224,90716,1,8
384,96,91114,1,8
416,160,91312,1,0
352,160,91511,1,2
416,64,92504,5,0
320,160,92902,1,0
224,64,93299,1,0
352,64,93697,1,0
416,128,93895,1,0
352,128,94094,1,0
288,128,94293,1,0
192,224,94690,2,2,B|192:64|288:32,1,210,0|0
192,32,95485,5,0
160,96,95683,1,8
96,128,95882,1,0
32,160,96081,1,8
32,96,96279,1,0
96,128,96478,2,0,B|192:128|160:192,1,70,8|0
160,224,96875,1,8
224,192,97074,1,0
288,224,97273,1,8
288,288,97471,2,0,B|192:288,1,70,0|8
224,352,97869,2,0,B|128:352,1,70,0|8
160,288,98266,1,0
96,256,98465,1,8
32,256,98663,6,0,B|32:320|96:352|96:352,1,70,0|2
32,192,99259,2,0,B|128:192,1,70,2|0
160,160,99657,2,0,B|160:256,1,70,2|2
224,224,100054,1,2
160,224,100253,1,0
160,288,100452,1,2
224,288,100650,2,0,B|160:352,1,70,0|2
256,352,101048,1,0
160,192,101842,5,0
160,192,102041,1,0
160,192,102240,1,0
160,192,102438,1,0
160,192,102637,2,2,B|224:128|352:192,1,140
288,160,103233,1,0
288,160,103432,1,0
288,160,103630,1,0
288,160,103829,1,0
288,160,104028,1,0
288,160,104226,2,2,B|352:224|192:288|128:224|96:160,1,280
96,96,105220,6,0,B|192:96,1,70,8|0
224,96,105617,2,0,B|320:96,1,70,8|0
352,96,106015,2,8,B|448:96,1,70,0|0
384,160,106412,1,8
352,224,106611,2,0,B|288:288,1,70,0|8
256,320,107008,1,0
224,256,107207,1,8
160,256,107405,1,0
160,320,107604,2,0,B|64:288,1,70,8|0
96,224,108001,2,0,B|96:128,1,70,8|0
96,96,108399,2,0,B|224:96,1,70,8|0
224,96,108796,2,0,B|352:96,1,70,8|0
288,160,109193,2,0,B|320:224|384:192,1,70,8|0
384,160,109591,1,8
416,224,109789,2,0,B|352:288,1,70,0|8
288,288,110187,5,0
288,352,110385,1,2
224,320,110584,1,0
192,288,110683,1,2
160,224,110882,1,6
128,256,110981,1,0
64,288,111180,1,2
64,224,111379,1,4
64,160,111577,6,0,B|128:64,1,70
103,102,111975,2,0,B|160:160,1,70
153,152,112372,2,0,B|224:96,1,70
208,109,112770,2,0,B|288:160,1,70
268,147,113167,1,0
320,192,113366,1,0
256,256,113564,1,0
320,256,113763,1,0
320,320,113962,2,0,B|416:352|416:256,1,140
384,128,114756,5,0
256,192,115154,1,0
384,192,115551,1,0
256,128,115948,1,0
256,128,116147,1,0
256,192,116346,12,2,117538
64,64,130650,5,0
192,96,131048,1,0
320,64,131445,1,0
384,192,131843,1,0
448,128,132041,1,0
384,96,132240,1,0
320,64,132439,1,0
384,32,132637,1,0
384,96,132836,1,0
320,128,133035,1,0
256,128,133233,6,0,B|224:192,1,70
256,128,133631,1,0
192,96,133829,2,0,B|160:160,1,70
128,96,134227,2,0,B|160:160,1,70
159,158,134624,2,0,B|64:160|64:256|128:224,1,140
160,256,135220,1,0
224,288,135419,1,0
160,320,135617,1,0
160,256,135816,1,0
224,224,136015,1,0
288,256,136213,5,0
320,224,136313,1,0
288,192,136412,1,0
320,160,136511,1,0
288,128,136611,1,0
320,96,136710,1,0
288,64,136809,1,0
320,32,136909,1,0
288,0,137008,1,0
224,32,137207,5,0
160,32,137406,1,8
96,64,137604,1,0
96,64,137704,1,0
64,160,138002,5,0
128,160,138200,1,8
96,224,138399,1,0
160,256,138598,5,0
224,288,138796,1,0
224,224,138995,1,8
288,256,139194,1,0
288,256,139293,1,0
288,192,139492,1,0
288,192,139591,1,0
352,192,139790,1,0
352,128,139988,1,0
416,128,140187,5,0
416,192,140386,1,0
480,192,140584,1,8
480,128,140783,1,0
480,128,140882,1,0
480,32,141180,5,0
416,32,141379,1,0
352,32,141578,1,0
288,64,141776,5,0
224,96,141975,1,0
288,128,142174,1,8
224,160,142372,1,0
224,160,142472,1,0
288,192,142670,1,0
288,192,142770,1,0
224,224,142968,1,0
160,192,143167,1,0
160,128,143366,5,0
96,160,143565,1,0
160,192,143763,1,8
160,128,143962,1,0
160,128,144061,1,0
160,32,144359,5,0
224,32,144558,1,0
224,96,144757,1,0
256,192,144955,12,0,146147
128,96,146545,6,0,B|288:96,4,140,2|2|2|2|2
128,224,148531,5,0
128,352,148929,2,0,B|288:352,2,140,0|8|0
192,288,149922,1,0
192,224,150121,1,8
192,160,150320,1,0
192,96,150518,2,0,B|192:256,1,140,8|0
320,224,151313,6,0,B|320:128,1,70,0|8
320,96,151710,2,0,B|416:96,1,70,0|8
384,160,152108,2,0,B|384:256,1,70,0|8
352,288,152505,1,0
320,352,152704,1,8
288,288,152902,1,0
256,352,153101,1,8
224,288,153300,1,0
160,288,153498,1,8
160,288,153598,1,0
192,224,153796,1,8
192,224,153896,1,0
256,224,154094,1,8
320,192,154293,1,0
256,160,154492,5,0
192,32,154889,1,0
192,160,155286,1,0
128,32,155684,1,0
128,96,155883,1,0
256,96,156280,1,8
192,96,156479,1,0
128,160,156677,1,2
64,96,156876,1,2
64,224,157273,1,2
192,160,157671,5,0
64,160,158068,1,0
192,224,158465,1,0
128,96,158863,1,0
128,160,159061,1,0
192,160,159260,5,2
256,160,159459,1,0
320,160,159657,1,2
384,96,159856,1,2
384,128,159955,1,0
448,96,160154,1,2
448,128,160253,1,0
448,192,160452,1,2
384,224,160651,1,0
320,224,160849,6,0,B|224:224,5,70,0|0|0|0|0|0
192,224,162042,1,0
128,224,162240,1,0
64,224,162439,1,8
64,224,162638,1,0
64,224,162836,1,8
64,224,163035,1,0
64,224,163234,1,8
64,96,163631,5,0
64,96,163830,2,0,B|192:96,7,70
128,96,165419,1,0
192,96,165618,5,8
192,96,165816,1,0
256,96,166015,1,8
256,96,166214,1,0
320,96,166412,1,8
320,96,166810,1,2
448,160,167207,5,0
384,288,167604,1,0
320,160,168002,1,0
256,288,168399,1,0
192,288,168598,2,0,B|128:320|64:320|192:192|128:96|0:160|64:32,1,350,0|2
192,32,169989,1,2
320,32,170386,5,0
192,96,170783,1,0
320,96,171181,1,0
192,160,171578,1,0
256,160,171777,2,2,B|256:320|384:352|480:96,1,350
128,160,186280,5,0
128,32,186678,2,0,B|288:32,2,140
192,96,187671,1,0
192,160,187870,1,0
192,224,188068,1,0
192,288,188267,2,0,B|192:128,1,140
320,160,189062,2,0,B|320:256,1,70
320,288,189459,6,0,B|416:288,1,70
384,224,189856,2,0,B|384:128,1,70
352,96,190254,1,0
320,32,190452,1,0
288,96,190651,1,0
256,32,190850,1,0
224,96,191048,5,0
160,96,191247,1,8
160,160,191446,1,0
96,160,191644,1,8
96,192,191744,1,0
160,224,191942,1,8
192,224,192042,1,0
256,192,192240,1,8
320,160,192439,1,0
384,192,192638,5,8
320,320,193035,1,0
192,320,193433,1,0
64,320,193830,1,0
64,256,194029,1,0
96,128,194426,1,0
128,192,194625,1,0
128,192,194823,1,2
192,192,195022,1,2
320,192,195419,1,2
192,128,195817,5,0
320,128,196214,1,0
192,192,196611,1,0
320,192,197009,1,0
256,224,197207,1,0
320,256,197406,5,0
320,320,197603,1,8
256,320,197803,1,0
192,256,198002,1,8
192,288,198101,1,0
128,288,198300,1,8
128,320,198399,1,0
192,352,198598,1,8
192,288,198797,1,0
256,256,198996,5,0
480,256,199393,1,0
352,96,199790,1,0
128,96,200188,1,0
224,96,200386,1,0
256,192,200585,12,2,201777
96,96,202174,5,0
192,288,202572,1,0
288,96,202969,1,0
384,288,203366,1,0
288,288,203565,1,0
256,192,203764,12,2,204956
416,64,205353,5,2
320,256,205751,1,2
224,64,206148,1,2
128,256,206545,1,2
224,256,206744,1,2
256,192,206943,12,2,208532
256,192,208929,5,2
64,288,209327,1,2
64,64,209724,1,2
64,160,209923,1,2
256,192,210121,12,2,211711
256,192,212108,5,0
256,192,212506,1,0
256,192,212903,1,0
256,192,213102,1,2
