osu file format v5

[General]
AudioFilename: -Para Para Sakura ().mp3
AudioLeadIn: 0
PreviewTime: -1
Countdown: 1
SampleSet: Normal
StackLeniency: 0.8
Mode: 0
LetterboxInBreaks: 1
EditorDistanceSpacing: 0.5

[Metadata]
Title:Para Para Sakura
Artist:Aaron Kwok
Creator:antony11
Version:Easy
Source:
Tags:

[Difficulty]
HPDrainRate:2
CircleSize:3
OverallDifficulty:3
SliderMultiplier:1.4
SliderTickRate:1

[Events]
//Background and Video events
0,0,"wallpaper01.jpg"
//Break Periods
2,130849,146693
2,173763,184839
//Storyboard Layer 0 (Background)
//Storyboard Layer 1 (Failing)
//Storyboard Layer 2 (Passing)
//Storyboard Layer 3 (Foreground)
//Storyboard Sound Samples
//Background Colour Transformations
3,100,163,162,255

[TimingPoints]
11444.5920811603,397.350993377483,4,1,0,100,1,0
26146,-100,4,1,0,100,0,1
28530,-100,4,1,0,100,0,0
54357,-100,4,1,0,100,0,1
66674,-100,4,1,0,100,0,0
105217,-100,4,1,0,100,0,1
117534,-100,4,1,0,100,0,0
198593,-100,4,1,0,100,0,1

[Colours]
Combo1 : 207,88,132
Combo2 : 184,30,81
Combo3 : 250,232,238
Combo4 : 250,156,180

[HitObjects]
128,64,24159,5,2
256,64,24954,1,2
384,64,25749,1,2
256,192,26146,12,2,28530
96,64,29325,5,0
96,192,30120,2,2,B|128:320|352:288,2,280
224,128,32504,5,0
128,224,33298,2,0,B|160:96|32:64|64:64,2,140,0|0|0
192,224,34490,1,0
224,96,35683,5,8
160,96,36080,1,8
32,96,36875,1,0
32,224,37669,1,0
128,320,38464,2,0,B|128:128,2,140
268,322,40053,2,0,B|76:322,2,140
384,320,41643,5,2
384,192,42437,1,2
256,192,43232,1,2
384,192,44027,1,2
416,320,44822,5,0
352,320,45219,1,0
288,320,45616,2,0,B|128:320,2,140
288,192,47206,1,0
160,192,48000,5,0
160,128,48398,1,0
160,64,48795,1,0
224,64,49192,2,0,B|288:128|544:64,1,280,0|0
496,144,50384,1,0
464,304,51179,5,8
352,224,51974,1,8
224,224,52769,2,0,B|224:64,1,140
224,84,53365,1,8
128,192,54358,5,0
128,256,54755,2,0,B|288:256,1,140
352,256,55550,1,0
384,320,55947,1,0
416,256,56345,1,0
416,192,56742,2,8,B|160:192,2,140
384,256,57934,5,0
320,256,58332,1,0
256,256,58729,2,8,B|96:256,2,140
256,256,59921,1,0
256,192,60318,1,0
288,128,60716,6,8,B|160:64,2,140
352,128,61908,1,0
352,192,62305,1,0
288,160,62702,1,0
288,96,63100,1,0
224,96,63497,1,0
160,64,63894,6,8,B|128:224,1,140,0|0
192,192,64689,1,0
160,256,65086,1,0
224,256,65484,1,0
288,288,65881,2,2,B|416:288|416:64,1,280
352,64,67073,5,0
352,64,67471,1,0
288,64,67868,1,2
224,64,68265,1,0
224,64,68663,1,0
32,320,70252,5,0
32,320,70649,1,0
96,320,71047,1,2
160,320,71444,1,0
160,320,71841,1,0
64,64,73431,5,0
128,64,73828,1,0
128,64,74226,1,2
192,64,74623,1,0
192,64,75020,1,0
448,320,76610,5,0
448,320,77007,1,0
384,320,77404,1,2
384,320,77802,1,0
320,320,78199,1,0
256,192,78596,12,2,79391
416,320,80186,5,8
416,256,80583,1,8
416,192,80981,2,2,B|384:64|160:96,2,280
352,256,82967,1,0
288,256,83365,5,0
224,256,83762,1,8
160,192,84159,2,2,B|128:320|256:352|224:352,2,140,0|0|0
160,128,85351,1,0
288,128,86146,5,8
352,128,86544,1,8
416,128,86941,1,8
416,256,87736,1,0
288,256,88530,1,0
160,192,89325,6,8,B|160:384,2,140
160,64,90914,6,8,B|352:64,2,140,0|0|0
160,192,92504,6,0,B|320:192,1,140
352,224,93298,2,2,B|288:352,1,140
224,352,94093,2,2,B|64:352,1,140
128,288,94888,2,2,B|0:160,1,140,0|0
64,128,95683,5,0
128,96,96080,1,0
192,64,96477,2,8,B|352:64,2,140
288,160,98067,1,0
160,160,98861,5,0
192,224,99259,1,0
128,224,99656,1,0
96,160,100053,2,2,B|160:96|416:160,1,280
352,224,101245,1,4
224,224,102040,5,0
96,224,102835,1,0
0,96,103630,2,0,B|0:256,1,140
0,237,104226,1,0
128,320,105219,5,0
192,320,105616,2,8,B|352:320,1,140,0|0
416,320,106411,1,0
416,256,106808,1,0
416,192,107206,1,0
352,128,107603,2,8,B|608:128,2,140
288,128,108795,5,0
224,128,109193,1,0
160,64,109590,2,8,B|320:64,2,140
128,128,110782,1,0
128,192,111179,1,0
64,192,111577,2,8,B|160:320,2,140
64,128,112769,1,0
64,64,113166,1,2
128,64,113563,1,2
192,64,113961,1,2
256,64,114358,1,2
320,64,114755,6,8,B|352:224,1,140,0|0
352,256,115550,1,0
416,256,115947,1,0
416,320,116345,1,0
352,320,116742,2,2,B|224:320|224:96,1,280
160,96,117934,5,0
96,96,118332,1,8
128,160,118729,1,0
64,160,119126,1,8
96,224,119524,1,0
448,192,121113,5,0
448,192,121510,1,0
384,192,121908,1,10
320,192,122305,1,0
320,192,122702,1,0
32,192,124292,5,0
96,192,124689,1,0
96,192,125087,1,2
160,192,125484,1,0
160,192,125881,1,0
256,64,127471,5,0
256,64,127868,1,0
256,128,128265,1,2
256,128,128663,1,0
256,192,129060,12,4,130649
64,64,148133,6,8,B|224:64,1,140
288,64,148928,2,8,B|288:224,1,140
288,288,149722,1,0
352,288,150120,1,0
352,224,150517,1,0
288,224,150914,2,8,B|160:128,1,140
96,128,151709,1,8
96,192,152106,1,8
96,256,152504,1,8
96,320,152901,5,2
96,256,153298,1,2
96,192,153696,1,2
96,128,154093,1,2
96,64,154490,1,2
96,192,155285,5,0
160,192,155683,2,0,B|160:288,1,70
160,256,156080,1,0
224,256,156477,1,0
288,256,156875,1,0
288,320,157272,1,0
224,320,157669,1,0
224,256,158067,1,0
224,192,158464,1,0
224,128,158861,2,2,B|128:128,1,70,0|0
256,192,159259,12,8,160451
192,256,160848,5,0
224,192,161245,1,0
256,128,161643,1,0
288,64,162040,1,0
197,51,162437,6,8,B|101:83,1,70
130,73,162835,2,8,B|96:160,1,70
104,138,163232,2,8,B|224:128,1,70
173,132,163630,1,8
256,128,164027,5,2
320,128,164424,1,0
384,128,164822,1,2
448,128,165219,1,0
416,192,165616,6,8,B|384:256,1,70
384,254,166014,2,8,B|320:192,1,70
333,205,166411,2,8,B|288:288,1,70,0|0
300,266,166808,1,8
224,224,167206,5,0
192,160,167603,1,8
256,160,168000,1,0
224,96,168398,1,8
160,96,168795,6,2,B|160:0,1,70
160,32,169192,2,2,B|64:38,1,70
90,36,169590,2,2,B|64:128,3,70
72,97,170384,5,0
128,128,170782,1,0
128,192,171179,1,0
128,256,171577,1,2
128,320,171974,1,2
256,192,172173,12,12,173563
448,320,186279,6,8,B|288:320,1,140
224,320,187074,2,8,B|224:160,1,140
224,96,187868,1,0
160,96,188266,1,0
160,160,188663,1,0
224,160,189060,2,8,B|352:256,1,140
416,256,189855,5,0
416,192,190252,1,0
416,128,190650,1,0
416,64,191047,1,2
416,128,191444,1,2
416,192,191842,1,2
416,256,192239,1,2
416,320,192636,1,2
416,192,193431,5,0
352,192,193829,2,8,B|352:96,1,70
352,128,194226,1,4
288,128,194623,1,0
224,128,195021,1,0
224,64,195418,1,0
288,64,195815,1,0
288,128,196213,1,0
288,192,196610,1,0
288,256,197007,2,2,B|384:256,1,70,0|0
256,192,197405,12,8,198597
320,128,198994,5,8
288,192,199391,1,0
256,256,199789,1,8
224,320,200186,1,0
315,334,200583,6,0,B|411:302,1,70
382,311,200981,2,0,B|416:224,1,70
408,246,201378,2,0,B|288:256,1,70
339,252,201776,1,0
256,256,202173,5,0
192,256,202570,1,0
128,256,202968,1,0
64,256,203365,1,0
96,192,203762,2,0,B|128:128,1,70
128,130,204160,2,2,B|192:192,1,70
179,179,204557,2,2,B|224:96,1,70,0|0
212,118,204954,1,2
288,160,205352,5,0
320,224,205749,1,0
256,224,206146,1,0
288,288,206544,1,0
352,288,206941,2,2,B|352:384,1,70
352,358,207338,2,2,B|448:352,1,70
421,353,207735,2,2,B|448:256,3,70
440,287,208530,5,0
384,256,208928,1,0
384,192,209325,1,0
384,128,209723,1,0
384,64,210120,1,0
256,192,210319,12,2,211312
256,192,211709,5,0
256,192,212106,1,0
256,192,212504,1,0
256,192,212901,1,2
256,192,213100,1,6
