osu file format v14

[General]
AudioFilename: Crypteque (1-2 Remix) - A_Rival.mp3
AudioLeadIn: 0
PreviewTime: 29384
Countdown: 0
SampleSet: None
StackLeniency: 0.7
Mode: 0
LetterboxInBreaks: 1
WidescreenStoryboard: 1

[Editor]
DistanceSpacing: 0.8
BeatDivisor: 6
GridSize: 4
TimelineZoom: 1.6

[Metadata]
Title:Crypteque (1-2 Remix)
TitleUnicode:Crypteque (1-2 Remix)
Artist:A_Rival
ArtistUnicode:A_Rival
Creator:Spring Roll
Version:Insane
Source:Crypt of the Necrodancer OST
Tags:
BeatmapID:756599
BeatmapSetID:332519

[Difficulty]
HPDrainRate:6
CircleSize:4
OverallDifficulty:7
ApproachRate:8.5
SliderMultiplier:1.8
SliderTickRate:1

[Events]
//Background and Video events
0,0,"03.jpg",0,0
//Break Periods
//Storyboard Layer 0 (Background)
//Storyboard Layer 1 (Fail)
//Storyboard Layer 2 (Pass)
//Storyboard Layer 3 (Foreground)
//Storyboard Sound Samples

[TimingPoints]
0,461.538461538462,4,2,1,50,1,0
14307,-66.6666666666667,4,2,1,50,0,0
14769,-76.9230769230769,4,2,2,50,0,0
14846,-76.9230769230769,4,2,1,60,0,0
29538,-76.9230769230769,4,2,1,70,0,0
48000,-58.8235294117647,4,2,1,80,0,1
64615,-100,4,2,1,60,0,0
79384,-76.9230769230769,4,2,2,70,0,0
79461,-76.9230769230769,4,2,1,60,0,0
103384,-58.8235294117647,4,2,1,80,0,1
121846,-200,4,2,1,60,0,0
123692,-76.9230769230769,4,2,2,50,0,0
123769,-76.9230769230769,4,2,1,70,0,0

[HitObjects]
80,304,0,6,0,L|204:288,1,120
284,232,461,2,0,L|412:248,1,120
500,256,923,1,0,0:0:0:0:
444,72,1230,1,0,0:0:0:0:
352,116,1384,2,0,P|280:88|256:52,1,120
48,140,1846,2,0,L|168:124,1,120
112,224,2307,2,0,L|96:344,1,120
16,296,2769,1,0,0:0:0:0:
280,228,3076,1,0,0:0:0:0:
232,304,3230,2,0,P|308:316|352:276,1,120
404,88,3692,2,0,L|280:76,1,120
352,176,4153,2,0,L|471:187,1,120
360,268,4615,1,0,0:0:0:0:
160,224,4923,1,0,0:0:0:0:
252,208,5076,2,0,P|272:152|244:88,1,120
80,140,5538,2,0,B|40:208|40:208|64:252,1,120
139,328,6000,2,0,B|179:260|179:260|155:216,1,120
96,140,6461,1,0,0:0:0:0:
420,76,6769,1,0,0:0:0:0:
336,148,6923,2,0,L|328:292,1,120
220,188,7384,2,0,B|140:160|140:160|104:164,1,120
72,40,7846,2,0,B|152:68|152:68|188:64,1,120
296,64,8307,1,0,0:0:0:0:
448,296,8615,1,0,0:0:0:0:
336,276,8769,2,0,P|316:212|336:152,1,120
436,160,9230,2,0,L|284:180,1,120
232,96,9692,2,0,L|384:76,1,120
448,64,10153,1,0,0:0:0:0:
128,40,10461,1,0,0:0:0:0:
56,128,10615,2,0,L|76:264,1,120
316,296,11076,2,0,P|376:244|368:184,1,120
280,144,11538,2,0,P|220:196|228:256,1,120
300,220,12000,1,0,0:0:0:0:
64,152,12307,1,0,0:0:0:0:
120,60,12461,2,0,L|252:48,1,120
184,164,12923,2,0,P|188:244|176:288,1,120
96,328,13384,2,0,L|248:296,1,120
312,284,13846,1,0,0:0:0:0:
408,328,14153,1,0,0:0:0:0:
476,240,14307,2,0,B|456:184|492:116|492:116|436:152,1,180.000006866455
328,192,14769,2,0,P|276:208|236:208,2,77.9999964294435
264,108,15230,2,0,P|180:112|112:88,1,155.999992858887
28,256,15692,2,0,L|216:224,1,155.999992858887
396,320,16153,2,0,L|224:312,1,155.999992858887
384,80,16615,2,0,P|392:124|380:172,2,77.9999964294435
228,116,17076,2,0,B|148:100,2,77.9999964294435
272,248,17538,2,0,P|196:296|128:252,1,155.999992858887
304,148,18000,2,0,L|464:192,1,155.999992858887
392,304,18461,2,0,P|352:248|324:312,1,155.999992858887
280,96,18923,2,0,P|240:152|212:88,1,155.999992858887
152,288,19384,2,0,P|112:232|84:296,1,155.999992858887
128,144,19846,2,0,B|112:44|112:44|72:108,1,155.999992858887
224,216,20307,1,0,0:0:0:0:
296,112,20461,1,0,0:0:0:0:
296,112,20538,1,0,0:0:0:0:
296,112,20615,1,0,0:0:0:0:
392,164,20769,2,0,L|480:156,1,77.9999964294435
376,268,21076,1,0,0:0:0:0:
224,216,21230,2,0,L|236:300,2,77.9999964294435
124,172,21692,2,0,L|136:256,2,77.9999964294435
