osu file format v9

[General]
AudioFilename: Harinezumi.mp3
AudioLeadIn: 0
PreviewTime: 51874
Countdown: 0
SampleSet: Normal
StackLeniency: 0.7
Mode: 0
LetterboxInBreaks: 0

[Editor]
Bookmarks: 14374
DistanceSpacing: 1
BeatDivisor: 4
GridSize: 4

[Metadata]
Title:Harinezumi (TV Size)
Artist:AZUMA HITOMI
Creator:Piscis
Version:Normal
Source:Fractale
Tags:yamakan clain phryne nessa hidari opening darknessangel

[Difficulty]
HPDrainRate:3
CircleSize:3
OverallDifficulty:3
ApproachRate:4
SliderMultiplier:1.1
SliderTickRate:2

[Events]
//Background and Video events
Video,0,"fractale OP.avi"
0,0,"wallpaper.jpg"
//Break Periods
2,26292,28054
//Storyboard Layer 0 (Background)
//Storyboard Layer 1 (Fail)
//Storyboard Layer 2 (Pass)
//Storyboard Layer 3 (Foreground)
//Storyboard Sound Samples
//Background Colour Transformations
3,100,163,162,255

[TimingPoints]
6874,468.75,4,1,0,50,1,0
14842,-100,4,1,1,50,0,0
14959,-100,4,1,0,50,0,0
44374,-142.857142857143,4,2,0,50,0,0
44842,-142.857142857143,4,2,1,50,0,0
44959,-142.857142857143,4,2,0,50,0,0
47655,-142.857142857143,4,2,1,50,0,0
47772,-142.857142857143,4,2,0,50,0,0
49999,-133.333333333333,4,1,0,50,0,0
50936,-100,4,1,0,60,0,0
51874,-100,4,1,0,65,0,1
52342,-100,4,1,1,50,0,1
52459,-100,4,1,0,50,0,1
61717,-100,4,1,1,50,0,1
61834,-100,4,1,0,50,0,1
66756,-100,4,1,0,50,0,0
66874,-100,4,1,0,65,0,1
66991,-100,4,1,0,50,0,1
67342,-100,4,1,1,50,0,1
67459,-100,4,1,0,50,0,1
81874,612.244897959184,4,2,0,50,1,0
83665,681.818181818182,4,2,0,50,1,0
84517,-100,4,2,0,25,0,0

[Colours]
Combo1 : 255,128,255
Combo2 : 128,128,192
Combo3 : 128,0,255
Combo4 : 0,128,192

[HitObjects]
88,80,14374,2,0,B|200:64|312:84,1,220,4|0
404,132,15780,1,8
404,244,16249,1,0
308,192,16717,2,0,B|196:192,1,110,8|0
256,96,17655,6,0,B|140:96,1,110,8|0
56,160,18592,1,8
56,272,19061,1,0
144,340,19530,2,0,B|372:340,1,220,8|8
452,272,20936,1,4
256,168,21874,5,0
168,100,22342,1,8
80,168,22811,1,0
80,280,23280,2,0,B|128:300|192:280,1,110,8|0
232,180,24217,2,0,B|288:164|344:180,1,110,8|0
388,280,25155,5,8
440,180,25624,1,4
392,156,25858,1,0
340,180,26092,1,8
88,212,29374,6,0,B|144:200|200:212,1,110,4|8
276,288,30311,1,0
276,288,30545,1,0
324,256,30780,6,0,B|412:180|412:84,1,165,8|0
416,64,31717,1,8
360,48,31952,1,0
304,64,32186,2,0,B|252:32,2,55,0|0|8
260,164,33124,6,0,B|312:192|376:180,1,110,0|8
464,128,34061,2,0,B|504:180|460:244,1,110,0|8
392,312,34999,1,0
336,312,35233,1,0
280,312,35467,2,0,B|220:312,2,55,8|0|4
256,204,36405,5,8
256,204,36874,1,0
256,96,37342,2,0,B|188:96,1,55,8|0
108,40,38045,2,0,B|48:40,1,55,0|8
52,96,38514,1,0
52,152,38749,6,0,B|52:268,1,110,0|8
52,316,39452,1,0
52,316,39686,1,0
164,316,40155,1,8
276,316,40624,6,0,B|228:276|228:208,1,110,0|8
340,216,41561,2,0,B|324:148|284:124,1,110,0|8
204,48,42499,1,0
124,124,42967,1,8
44,48,43436,1,4
44,204,44374,6,0,B|208:204,1,153.999996328354,4|0
276,204,45780,1,8
308,272,46249,1,4
344,340,46717,1,8
420,340,47186,6,0,B|420:184,1,153.999996328354,0|4
420,108,48592,2,0,B|268:108,1,153.999996328354,8|8
196,60,49999,2,0,B|164:44|116:48,1,82.4999975413085,0|8
80,152,50936,2,0,B|132:176|204:172,1,110,0|8
116,256,51874,6,0,B|212:312|332:328,1,220,4|0
376,308,53045,1,0
428,284,53280,2,0,B|456:196|432:120,1,165,8|0
380,136,54217,2,0,B|308:172,1,55,8|0
284,184,54686,1,0
232,196,54920,1,0
180,184,55155,1,8
220,88,55624,6,2,B|276:68|332:88,1,110,6|10
380,104,56327,1,0
412,148,56561,2,2,B|428:192|412:260,1,110,6|10
380,300,57264,1,0
328,316,57499,2,2,B|276:328|220:316,1,110,6|10
120,264,58436,2,0,B|176:248,1,55,2|0
152,196,58905,2,0,B|208:180,1,55,14|0
256,164,59374,5,2
288,268,59842,2,0,B|372:232|424:160,1,165,8|0
448,124,60780,1,8
412,84,61014,1,0
360,64,61249,2,0,B|252:40|140:64,1,220,0|0
140,172,62655,1,8
244,136,63124,6,2,B|252:192|244:256,1,110,6|10
148,196,64061,2,2,B|140:244|148:308,1,110,6|10
252,344,64999,2,2,B|308:352|364:344,1,110,6|8
460,300,65936,1,0
460,300,66405,1,12
360,252,66874,6,0,B|256:260|136:252,1,220,4|0
120,200,68045,1,0
100,148,68280,2,0,B|188:152|276:148,1,165,8|0
320,148,69217,1,8
432,148,69686,2,0,B|432:84,2,55,0|0|8
432,260,70624,6,2,B|384:276|320:260,1,110,6|10
276,160,71561,2,2,B|216:164|172:208,1,110,6|10
220,304,72499,2,2,B|164:320|108:304,1,110,6|10
112,196,73436,1,2
112,196,73905,1,10
184,116,74374,5,6
236,104,74608,1,0
288,116,74842,2,0,B|352:140|384:196,1,110,8|0
444,268,75780,6,2,B|316:268,1,110,10|2
312,160,76717,2,2,B|256:152|200:160,1,110,10|2
148,172,77420,1,0
96,188,77655,1,10
96,300,78124,6,0,B|212:300,1,110,2|8
316,300,79061,1,0
360,268,79295,1,0
404,236,79530,2,0,B|404:156|324:156,1,110,8|0
256,224,80467,2,0,B|256:108,1,110,8|0
256,60,81170,1,0
256,60,81405,1,8
168,60,81874,6,2,B|108:100|108:160,1,110,2|2
100,204,82792,1,0
136,244,83098,1,2
208,188,83665,2,0,B|224:180|224:180|240:188|240:188|256:180|256:180|272:188|272:188|288:180|288:180|304:188|304:188|320:180,1,110,2|2
256,192,84517,12,0,86733
