osu file format v9

[General]
AudioFilename: AZU - For you (Full version) _-_Naruto_Shippuden - Ending 12.mp3
AudioLeadIn: 0
PreviewTime: 177227
Countdown: 0
SampleSet: Soft
StackLeniency: 0.7
Mode: 0
LetterboxInBreaks: 1

[Editor]
DistanceSpacing: 1.1
BeatDivisor: 4
GridSize: 4

[Metadata]
Title:For You
Artist:AZU
Creator:Guerra
Version:Normal
Source:Naruto Shippuden
Tags:Ignacio Ending

[Difficulty]
HPDrainRate:3
CircleSize:3
OverallDifficulty:3
ApproachRate:4
SliderMultiplier:1.5
SliderTickRate:1

[Events]
//Background and Video events
0,0,"1.jpg"
//Break Periods
2,81290,87270
2,179472,188861
//Storyboard Layer 0 (Background)
//Storyboard Layer 1 (Fail)
//Storyboard Layer 2 (Pass)
//Storyboard Layer 3 (Foreground)
//Storyboard Sound Samples
//Background Colour Transformations
3,100,163,162,255

[TimingPoints]
2000,681.818181818182,4,2,1,40,1,0
56545,-100,4,2,1,40,0,1
81090,-100,4,2,1,40,0,0
132909,-100,4,2,1,40,0,1
156772,-100,4,2,1,40,0,0
190181,-100,4,2,1,40,0,1
200409,-100,4,2,1,35,0,0

[Colours]
Combo1 : 255,206,255
Combo2 : 164,164,210
Combo3 : 221,187,255

[HitObjects]
256,192,12227,1,8
116,104,12909,2,0,B|60:152|52:184|44:224|44:256,1,150,2|8
92,296,13931,1,0
92,296,14272,1,2
256,300,14954,6,0,B|312:356|408:324,1,150,8|2
440,260,15977,2,0,B|488:188,1,75,0|8
416,148,16659,2,0,B|368:220,1,75,0|2
256,96,17681,1,8
152,224,18363,6,0,B|112:320|216:368,1,150,2|8
256,304,19386,1,0
321,354,19727,2,0,B|400:320|360:224,1,150,2|8
256,104,21090,6,0,B|208:72|168:48,2,75,2|0|8
336,80,22113,1,0
360,160,22454,2,0,B|312:232|368:312,1,150,2|8
240,184,23818,6,0,B|168:120|88:168,1,150,2|8
148,228,24840,1,0
148,228,25181,2,0,B|188:148|164:60,1,150,2|8
344,56,26545,6,0,B|432:72|480:144,1,150,2|8
480,216,27568,1,0
440,288,27909,1,2
360,280,28250,1,0
341,197,28590,1,8
128,312,29272,6,0,B|152:280|176:208|176:160,1,150,2|8
176,88,30295,1,0
256,56,30636,1,2
336,88,30977,2,0,B|384:48|432:40,2,75,0|8|0
256,192,32000,12,8,34045
32,56,34727,6,0,B|120:88|200:8,1,150,2|8
344,40,36090,1,2
392,112,36431,1,0
392,112,36772,1,8
432,272,37454,6,0,B|344:240|264:320,1,150,2|8
120,288,38817,1,2
72,216,39158,1,0
72,216,39500,1,8
184,96,40181,6,0,B|240:40|344:72,1,150,2|8
400,96,41204,1,0
336,152,41545,2,0,B|384:240,1,75,2|0
432,272,42227,1,8
432,272,42568,1,0
376,336,42909,6,0,B|320:344|296:272|224:288,1,150,2|8
160,288,43931,1,0
104,344,44272,1,2
160,288,44613,2,0,B|160:192,1,75,0|8
256,80,45636,5,2
256,80,46318,1,8
424,80,47000,2,0,B|432:168|384:224,1,150,2|8
256,320,48363,5,2
256,320,49045,1,8
88,320,49727,2,0,B|80:232|128:176,1,150,2|8
256,80,51090,6,0,B|328:16,2,75,0|0|8
216,152,52113,1,0
256,224,52454,2,0,B|256:304,1,75
256,192,53136,12,0,55181
256,192,55863,5,2
256,192,56204,1,0
192,136,56545,6,0,B|224:88|288:88|320:136,1,150,4|8
376,192,57568,1,0
320,248,57909,2,0,B|288:296|224:296|192:248,1,150,2|8
136,192,58931,1,0
136,192,59272,1,2
188,36,59954,6,0,B|92:36,2,75,8|0|2
252,92,60977,1,0
316,36,61318,2,0,B|396:36,2,75,8|0|2
372,192,62681,5,8
256,308,63363,1,2
140,192,64045,1,8
212,44,64727,6,0,B|268:96|360:68,1,150,2|8
416,120,65750,1,0
372,188,66090,2,0,B|436:260,2,75,2|0|8
284,48,67454,1,4
120,80,68136,6,0,B|144:144|136:176|112:216|80:240,1,150,8|2
168,264,69159,1,0
248,280,69500,2,0,B|296:272|336:280|384:296|408:320,1,150,8|2
440,240,70522,6,0,B|472:200|464:152,1,75,0|8
384,168,71204,2,0,B|392:120|432:96,1,75,0|2
256,120,72227,1,8
256,120,72568,1,0
184,160,72909,6,0,B|104:120,2,75,0|0|8
256,200,73931,1,0
328,160,74272,2,0,B|400:120,2,75,2|0|8
256,200,75295,5,0
320,256,75636,2,0,B|300:296|256:308|200:296|192:240,2,150,2|8|2
256,192,77681,12,0,81090
256,192,88590,5,8
408,128,89272,2,0,B|352:72,2,75,2|0|8
464,192,90295,1,0
464,192,90636,1,2
408,256,90977,2,0,B|336:328,1,75,0|8
192,304,92000,6,0,B|112:320|48:264,1,150,2|8
16,192,93022,1,0
56,120,93363,2,0,B|56:80|16:40,2,75,2|0|8
208,48,94727,6,0,B|288:88|368:88,1,150,2|8
432,104,95750,2,0,B|488:160,1,75,0|2
416,200,96431,2,0,B|472:256,1,75,0|8
304,288,97454,6,0,B|224:248|224:328|128:272,1,150,2|8
88,240,98477,2,0,B|80:184|128:144,1,75,0|2
168,112,99159,1,0
104,56,99500,1,8
272,64,100181,5,2
352,80,100522,2,0,B|400:80|440:136,1,75,0|8
464,184,101204,1,0
464,184,101545,2,0,B|392:216|360:288,1,150,2|8
200,320,102909,6,0,B|232:240,1,75,2|0
144,248,103590,2,0,B|144:160,1,75,8|0
64,168,104272,2,0,B|40:88,1,75,2|0
42,96,104954,1,8
208,128,105636,6,0,B|208:72|256:72|304:72|304:144,1,150,2|8
256,192,106659,1,0
304,256,107000,2,0,B|304:312|256:312|208:312|208:240,1,150,2|8
256,192,108363,12,8,110408
192,112,111090,6,0,B|128:48,2,75,2|0|8
256,168,112113,1,0
320,112,112454,2,0,B|384:48,2,75,2|0|8
320,280,113818,6,0,B|384:344,2,75,2|0|8
256,224,114841,1,0
192,280,115182,2,0,B|128:344,2,75,2|0|8
56,192,116545,5,2
120,144,116886,1,0
104,64,117227,2,0,B|160:32|224:32|264:40,1,150,8|2
312,88,118250,1,0
376,40,118590,2,0,B|424:32|472:56,2,75,8|0|2
440,192,119954,6,0,B|464:280|392:328,1,150,8|2
328,280,120977,1,0
256,240,121318,1,8
184,280,121659,1,0
112,240,122000,6,0,B|56:160|128:88,2,150,2|8|2
256,152,124045,1,8
400,240,124727,2,0,B|459:182|403:102,2,150,2|8|2
256,152,126772,1,8
128,256,127454,6,0,B|168:280|200:328,1,75,2|0
256,264,128136,1,8
328,304,128477,2,0,B|352:272|408:240,1,75,0|2
256,192,129500,12,0,131545
256,192,132227,5,2
256,192,132568,1,0
320,248,132909,6,0,B|288:296|224:296|192:248,1,150,4|8
136,192,133932,1,0
192,136,134273,2,0,B|224:88|288:88|320:136,1,150,2|8
376,192,135295,1,0
376,192,135636,1,2
324,348,136318,6,0,B|420:348,2,75,8|0|2
260,292,137341,1,0
196,348,137682,2,0,B|116:348,2,75,8|0|2
140,192,139045,5,8
256,76,139727,1,2
372,192,140409,1,8
300,340,141091,6,0,B|244:288|152:316,1,150,2|8
96,264,142114,1,0
140,196,142454,2,0,B|76:124,2,75,2|0|8
228,336,143818,1,4
392,304,144500,6,0,B|368:240|376:208|400:168|432:144,1,150,8|2
344,120,145523,1,0
264,104,145864,2,0,B|216:112|176:104|128:88|104:64,1,150,8|2
72,144,146886,6,0,B|40:184|48:232,1,75,0|8
128,216,147568,2,0,B|120:264|80:288,1,75,0|2
256,264,148591,1,8
256,264,148932,1,0
328,224,149273,6,0,B|408:264,2,75,0|0|8
256,184,150295,1,0
184,224,150636,2,0,B|112:264,2,75,2|0|8
256,184,151659,5,0
192,128,152000,2,0,B|204:88|256:76|312:88|320:144,2,150,2|8|2
256,192,154045,12,0,156772
256,48,157454,6,0,B|208:128|96:96,1,150,2|8
48,136,158477,1,0
88,208,158818,2,0,B|80:248|16:272,2,75,2|0|8
168,192,159840,6,0,B|240:176|304:216|320:264,1,150
248,296,160863,1,8
320,328,161204,1,0
376,272,161545,2,0,B|448:312,2,75,2|0|8
376,104,162909,6,0,B|448:64,2,75,2|0|8
320,48,163931,1,0
256,104,164272,1,2
192,48,164613,1,0
256,104,164954,1,8
192,152,165295,6,0,B|136:232|208:312,1,150
256,240,166318,1,8
320,288,166659,2,0,B|376:229|320:149,1,150
256,104,167681,1,8
88,112,168363,6,0,B|152:184|152:272,1,150,2|8
64,248,169386,1,0
104,320,169727,2,0,B|148:340|200:360,2,75,2|0|8
256,256,171090,5,2
256,256,171772,1,8
392,160,172454,6,0,B|320:104,1,75,2|0
256,80,173136,1,8
184,120,173477,2,0,B|124:166,1,75,0|2
192,312,174500,6,0,B|256:368|328:312,2,150,8|2|8
256,256,176204,1,4
256,192,177227,12,0,179272
256,48,190181,6,0,B|184:96,1,75,4|0
120,128,190863,1,8
120,128,191204,1,0
72,200,191545,2,0,B|80:288|176:320,1,150,2|8
320,304,192909,6,0,B|368:288|400:256,1,75,2|0
328,208,193590,2,0,B|360:176|408:176,1,75,8|0
464,224,194272,1,2
384,80,194954,5,8
320,32,195295,1,0
248,72,195636,2,0,B|232:128|176:160|112:144,1,150,2|8
64,200,196659,1,0
88,280,197000,2,0,B|128:292|176:304,2,75,2|0|8
200,160,198363,6,0,B|232:112|304:112|328:160|328:160,1,150,2|8
264,208,199386,1,0
264,208,199727,1,2
256,192,200409,12,4,203818
