osu file format v9

[General]
AudioFilename: AZU - For you (Full version) _-_Naruto_Shippuden - Ending 12.mp3
AudioLeadIn: 0
PreviewTime: 177227
Countdown: 0
SampleSet: Soft
StackLeniency: 0.7
Mode: 0
LetterboxInBreaks: 1

[Editor]
Bookmarks: 203818
DistanceSpacing: 1.5
BeatDivisor: 4
GridSize: 8

[Metadata]
Title:For You
Artist:AZU
Creator:Guerra
Version:Ignacio
Source:Naruto Shippuden
Tags:Ignacio Ending

[Difficulty]
HPDrainRate:6
CircleSize:4
OverallDifficulty:8
ApproachRate:7
SliderMultiplier:1.6
SliderTickRate:1

[Events]
//Background and Video events
0,0,"1.jpg"
//Break Periods
2,80609,87690
//Storyboard Layer 0 (Background)
//Storyboard Layer 1 (Fail)
//Storyboard Layer 2 (Pass)
//Storyboard Layer 3 (Foreground)
//Storyboard Sound Samples
//Background Colour Transformations
3,100,163,162,255

[TimingPoints]
2000,681.818181818182,4,2,1,30,1,0
10181,-100,4,2,1,5,0,0
12227,-100,4,2,1,10,0,0
12397,-100,4,2,1,40,0,0
53477,-100,4,2,1,5,0,0
55181,-100,4,2,1,10,0,0
55352,-100,4,2,1,40,0,0
56545,-100,4,2,1,40,0,1
78022,-100,4,2,1,5,0,1
80409,-100,4,2,1,5,0,1
80579,-100,4,2,1,40,0,0
81090,681.818181818182,4,2,1,40,1,0
81090,-100,4,2,1,40,0,0
129840,-100,4,2,1,5,0,0
131886,-100,4,2,1,10,0,0
132056,-100,4,2,1,40,0,0
132909,-100,4,2,1,40,0,1
156772,-100,4,2,1,35,0,0
157454,-100,4,2,1,40,0,0
190181,-100,4,2,1,40,0,1
200409,-100,4,2,1,40,0,0
201090,-100,4,2,1,25,0,0

[Colours]
Combo1 : 255,206,255
Combo2 : 164,164,210
Combo3 : 221,187,255

[HitObjects]
64,272,2000,1,0
88,248,2170,1,0
112,224,2340,1,0
200,152,2681,2,0,B|288:152,1,80,2|0
384,216,3363,1,0
408,192,3534,1,0
432,168,3704,1,0
496,64,4045,2,0,B|392:64,1,80,2|0
304,112,4727,5,0
312,80,4897,1,0
304,48,5068,1,0
144,48,5409,1,2
136,80,5579,1,0
144,112,5750,1,0
224,24,6090,6,0,B|224:112,1,80,0|0
160,208,6772,1,2
128,208,6943,1,0
96,208,7113,1,0
64,208,7284,1,0
32,208,7454,6,0,B|16:256|32:304,1,80,0|0
168,360,8136,2,0,B|184:312|168:264,1,80,2|0
272,216,8818,1,0
376,160,9159,1,0
376,160,9329,1,0
376,160,9500,1,2
480,216,9840,1,0
256,192,10181,12,0,12227
144,48,12909,5,2
160,72,13079,1,0
176,96,13250,2,0,B|264:96,1,80,0|8
368,56,13931,1,0
464,128,14272,5,2
448,152,14443,1,0
432,176,14613,2,0,B|344:176,1,80,0|8
256,248,15295,1,0
336,336,15636,5,2
344,304,15806,1,0
336,272,15977,1,0
256,360,16318,1,8
160,312,16659,5,0
144,288,16829,1,0
112,280,17000,1,2
96,256,17170,1,0
72,240,17340,1,0
120,144,17681,5,8
80,32,18022,2,0,B|48:64|8:80,2,80,0|2|0
200,56,19045,1,8
320,56,19386,2,0,B|408:56,2,80,0|2|0
256,160,20409,1,8
352,232,20750,1,0
448,160,21090,6,0,B|504:216,1,80,2|0
256,160,21772,2,0,B|200:232,1,80,8|0
296,304,22454,2,0,B|320:344|368:360,2,80,2|0|8
184,352,23477,6,0,B|88:352,1,80,0|2
72,352,23988,1,0
40,352,24159,1,0
184,32,24500,6,0,B|280:32,1,80,8|0
320,144,25181,1,2
288,176,25352,1,0
256,200,25522,1,0
224,176,25693,1,0
192,144,25863,1,8
80,176,26204,5,0
160,264,26545,2,0,B|136:304|136:304|144:344,1,80,2|0
256,288,27227,1,8
352,264,27568,2,0,B|376:304|376:304|368:344,2,80,0|2|0
256,192,28590,5,8
168,112,28931,1,0
256,32,29272,1,2
288,40,29443,1,0
320,32,29613,1,0
384,136,29954,1,8
424,248,30295,5,0
400,264,30465,1,0
376,280,30636,1,2
224,320,30977,1,0
248,304,31147,1,0
272,288,31318,2,0,B|272:208,1,80,8|0
152,224,32000,5,2
128,240,32170,1,2
80,128,32511,1,2
104,112,32681,2,0,B|184:72|272:120,1,160,8|2
360,56,33704,5,0
360,56,33875,1,0
360,56,34045,1,8
440,144,34386,1,0
440,144,34727,6,0,B|432:224,1,80,2|0
352,312,35409,1,8
192,312,35750,6,0,B|144:312,1,40,0|0
80,352,36090,1,2
8,312,36261,1,0
0,232,36431,2,0,B|56:232,1,40,0|0
120,232,36772,2,0,B|216:232,1,80,8|0
312,192,37454,5,2
392,280,37795,1,0
312,192,38136,1,8
320,72,38477,6,0,B|368:72,1,40,0|0
432,32,38818,1,2
504,72,38988,1,0
512,152,39158,2,0,B|456:152,1,40,0|0
392,152,39499,2,0,B|296:152,1,80,8|0
40,72,40181,6,0,B|56:160,1,80,2|0
104,256,40863,1,8
184,168,41204,1,0
248,272,41545,2,0,B|344:272,1,80,2|0
424,352,42227,2,0,B|440:256,1,80,8|0
464,152,42909,1,2
440,136,43079,1,0
416,120,43250,1,0
296,144,43590,5,8
224,240,43931,1,0
192,256,44102,1,0
160,272,44272,1,2
128,288,44443,1,0
96,304,44613,1,0
16,208,44954,1,8
120,144,45295,1,0
168,32,45636,6,0,B|80:32,2,80,2|0|8
256,120,46659,1,0
344,32,47000,1,2
368,56,47170,1,0
392,80,47340,1,0
416,104,47511,1,0
440,128,47681,1,8
344,200,48022,1,0
400,304,48363,6,0,B|440:336|504:336,2,80,2|0|8
288,352,49386,1,0
176,304,49727,1,2
144,296,49897,1,0
112,304,50068,1,0
80,296,50238,1,0
48,304,50409,1,8
80,192,50750,1,0
40,80,51090,6,0,B|144:80,1,80,2|0
240,48,51772,1,8
240,48,52113,1,0
472,304,52454,2,0,B|368:304,1,80,2|0
392,304,52965,1,0
392,304,53136,1,8
256,192,53477,12,0,55181
112,88,55863,5,2
400,88,56204,1,2
256,32,56545,2,0,B|256:128,1,80,4|0
376,224,57227,5,8
400,296,57397,1,0
344,352,57568,1,0
264,344,57738,1,0
232,272,57909,2,0,B|184:272|136:304,1,80,2|0
96,344,58420,2,0,B|40:344,1,40,0|8
16,280,58761,1,0
80,232,58931,2,0,B|80:144,1,80,0|2
240,144,59613,5,0
184,80,59784,1,0
240,24,59954,2,0,B|288:32|336:24,1,80,8|0
384,72,60465,1,0
456,40,60636,2,0,B|472:80|464:128,1,80
424,192,61147,2,0,B|360:192,1,40,0|8
304,168,61488,1,0
224,192,61659,2,0,B|208:232|224:280,1,80
376,320,62340,5,0
136,320,62681,1,8
456,224,63022,1,0
56,224,63363,1,2
384,128,63704,1,0
128,128,64045,1,8
256,56,64386,1,0
256,200,64727,6,0,B|280:248|256:296,2,80,2|0|8
112,232,65750,2,0,B|88:184|112:136,2,80,0|2|0
200,344,66772,1,8
312,40,67113,1,0
256,192,67454,1,4
320,320,67795,5,0
392,352,67965,1,0
472,336,68136,2,0,B|488:288|472:240,1,80,8|0
432,192,68647,1,0
432,192,68818,1,2
192,320,69159,5,0
120,352,69329,1,0
40,336,69500,2,0,B|24:288|40:240,1,80,8|0
80,192,70011,1,0
80,192,70182,1,2
256,192,70522,5,0
184,160,70693,1,0
216,88,70863,1,8
296,88,71034,1,0
328,160,71204,1,0
256,16,71545,5,2
136,96,71886,1,0
376,96,72227,1,8
256,176,72568,1,0
352,288,72909,6,0,B|440:288,2,80,2|0|8
288,328,73761,1,0
288,328,73931,1,0
160,96,74272,2,0,B|72:96,2,80,2|0|8
160,240,75295,1,0
160,240,75636,2,0,B|72:312,2,80,2|0|8
352,240,76659,1,0
352,240,77000,2,0,B|440:312,2,80,2|0|8
256,192,78022,12,0,80409
384,64,88590,5,8
464,344,89272,6,0,B|352:344,1,80,2|0
240,272,89954,2,0,B|352:272,1,80,8|0
168,216,90636,1,2
24,216,90977,1,0
96,344,91318,2,0,B|16:344,1,80,8|0
96,224,92000,2,0,B|96:144,1,80,2|0
184,32,92681,6,0,B|208:112|304:128,1,160,8|2
301,127,93704,1,0
424,48,94045,1,8
432,72,94215,1,0
440,96,94386,1,0
336,200,94727,5,2
480,200,95068,2,0,B|480:280,1,80,0|8
480,280,95750,1,0
480,280,95920,1,0
480,280,96090,1,2
344,336,96431,5,0
344,336,96602,2,0,B|264:336,1,80
232,336,97113,1,0
200,336,97284,1,0
168,336,97454,2,0,B|168:232,1,80,2|0
48,152,98136,2,0,B|144:144|176:72,1,160,8|2
320,56,99159,5,0
464,88,99500,2,0,B|440:168,1,80,8|0
432,192,100011,1,0
432,192,100181,1,2
288,216,100522,2,0,B|264:296,1,80,0|8
120,320,101204,1,0
56,192,101545,2,0,B|128:240|208:192,1,160,2|8
152,56,102568,5,0
152,56,102909,2,0,B|240:56,1,80,2|0
360,120,103590,2,0,B|464:120,1,80,8|0
488,256,104272,1,2
464,280,104443,1,0
440,304,104613,1,0
416,280,104784,1,0
392,256,104954,1,8
280,344,105295,5,0
280,344,105636,2,0,B|280:248,1,80,2|0
136,256,106318,2,0,B|136:160,1,80,8|0
24,88,107000,2,0,B|24:168,1,80,2|0
24,312,107681,2,0,B|112:312,1,80,8|0
104,312,108193,5,0
104,312,108363,1,2
232,248,108704,1,0
320,360,109045,1,8
320,360,109215,1,0
448,288,109556,1,0
448,288,109727,2,0,B|496:208|440:112,1,160,2|0
64,96,111090,6,0,B|16:176|72:272,1,160,2|0
192,184,112113,6,0,B|256:184,1,40,0|0
304,184,112454,1,2
352,128,112624,1,0
424,136,112794,2,0,B|424:192,1,40,0|0
424,248,113136,2,0,B|424:328,1,80,8|0
280,344,113818,5,2
144,288,114158,1,0
32,192,114500,1,8
168,144,114840,6,0,B|216:144,1,40,0|0
280,144,115180,1,2
280,72,115351,1,0
280,72,115521,2,0,B|224:72,1,40,0|0
168,72,115862,2,0,B|72:72,1,80,8|0
24,200,116544,6,0,B|24:288,1,80,2|0
160,328,117226,1,8
216,200,117567,1,0
360,200,117908,2,0,B|456:200,1,80,2|0
504,72,118590,2,0,B|416:72,1,80,8|0
280,48,119272,1,2
248,48,119442,1,0
216,48,119613,1,0
120,152,119954,1,8
256,192,120294,5,0
280,208,120465,1,0
304,224,120636,1,2
424,216,120976,1,0
448,336,121317,1,8
448,336,121488,1,0
328,360,121829,1,0
184,344,122000,6,0,B|96:344,2,80,2|0|8
328,360,123022,5,0
296,216,123363,1,2
264,216,123533,1,0
232,216,123703,1,0
200,216,123874,1,0
168,216,124044,1,8
48,144,124385,1,0
136,32,124727,6,0,B|48:32,2,80,0|0|8
272,72,125749,1,0
416,40,126090,1,2
432,64,126260,1,0
448,88,126431,1,0
432,112,126601,1,0
416,136,126772,1,8
280,192,127113,1,0
328,328,127454,6,0,B|432:328,1,80,2|0
264,328,128135,1,8
232,328,128306,1,0
200,328,128476,1,0
120,208,128818,2,0,B|16:208,1,80,2|0
40,208,129499,1,8
256,192,129840,12,0,131886
80,272,132227,5,8
256,88,132568,1,0
432,272,132909,2,0,B|432:320|384:352,1,80,4|0
272,280,133591,5,8
208,320,133761,1,0
160,264,133932,1,0
96,296,134102,1,0
96,224,134272,2,0,B|48:240|0:192,1,80,2|0
0,136,134784,2,0,B|48:96,1,40,0|8
104,88,135125,1,0
120,160,135295,2,0,B|176:168|208:136,1,80,0|2
288,32,135977,5,0
336,88,136148,1,0
400,48,136318,1,8
432,112,136489,1,0
504,136,136659,1,0
456,184,136829,5,0
456,184,137000,2,0,B|368:184,1,80,2|0
320,232,137511,2,0,B|272:208,1,40,0|8
272,144,137852,1,0
224,88,138022,2,0,B|176:88|152:144,1,80,0|2
64,232,138704,5,0
160,336,139045,1,8
448,232,139386,5,0
352,336,139727,1,2
64,152,140068,5,0
160,48,140409,1,8
448,152,140750,5,0
352,48,141090,1,2
256,192,141431,12,0,143818
88,312,144159,5,0
160,336,144329,1,0
232,312,144500,1,8
272,248,144670,1,0
248,176,144841,1,0
184,136,145011,1,0
112,128,145182,1,2
200,240,145523,5,0
272,248,145693,2,0,B|304:288|368:264,1,80
392,216,146204,1,0
392,216,146375,1,0
392,216,146545,1,2
256,192,146886,5,0
184,224,147057,1,0
216,296,147227,1,8
296,296,147398,1,0
328,224,147568,1,0
256,368,147909,5,2
136,288,148250,1,0
376,288,148591,1,8
256,208,148932,1,0
352,96,149273,2,0,B|440:96,2,80,2|0|8
288,56,150125,1,0
288,56,150295,1,0
152,112,150636,2,0,B|104:128|56:80,2,80,2|0|8
208,248,151659,5,0
208,248,152000,2,0,B|208:352,2,80,2|0|8
344,296,153023,1,0
456,256,153363,2,0,B|480:176|448:88,1,160,0|8
256,192,154386,12,0,156773
104,56,157454,6,0,B|72:96|104:160,1,80
200,232,158136,2,0,B|232:192|200:128,1,80
352,168,158818,1,2
496,168,159159,1,0
424,48,159500,2,0,B|504:48,1,80,8|0
424,168,160182,2,0,B|424:248,1,80,2|0
320,352,160863,2,0,B|296:272|200:256,1,160,8|2
202,256,161886,5,0
88,336,162227,1,8
80,312,162397,1,0
72,288,162568,1,0
176,184,162909,1,2
32,184,163250,2,0,B|32:104,1,80,0|8
32,104,163932,1,0
32,104,164102,1,0
32,104,164272,1,2
168,48,164613,5,0
192,48,164784,1,0
216,48,164954,2,0,B|296:48,1,80,8|0
320,48,165466,1,0
320,48,165636,2,0,B|392:136,1,80,2|0
464,232,166318,2,0,B|368:240|336:312,1,160,8|2
192,328,167341,5,0
48,296,167681,2,0,B|72:216,1,80,8|0
80,192,168193,1,0
80,192,168363,1,2
224,168,168704,2,0,B|248:88,1,80,0|8
256,72,169215,1,0
256,72,169386,1,0
456,192,169727,2,0,B|384:144|304:192,1,160,2|8
360,328,170750,5,0
360,328,171091,2,0,B|272:328,1,80,2|0
152,264,171772,2,0,B|48:264,1,80,8|0
24,128,172454,1,2
48,104,172625,1,0
72,80,172795,1,0
96,104,172966,1,0
120,128,173136,1,8
280,344,173477,5,0
280,344,173818,2,0,B|280:248,1,80,2|0
136,256,174500,2,0,B|136:160,1,80,8|0
24,88,175182,2,0,B|24:168,1,80,2|0
24,312,175863,2,0,B|112:312,1,80,8|0
104,312,176375,5,0
104,312,176545,1,2
232,248,176886,1,0
320,360,177227,1,8
320,360,177397,1,0
384,320,177568,1,0
448,288,177738,1,0
448,288,177909,2,0,B|496:208|440:112,1,160,2|8
288,32,179272,6,0,B|288:80|240:112,1,80,2|0
160,88,179954,1,8
136,96,180124,1,0
112,104,180295,1,0
88,112,180465,1,0
64,120,180636,6,0,B|40:160|48:200,1,80,2|0
56,216,181147,2,0,B|120:216,1,40,0|8
120,232,181488,1,0
136,248,181658,2,0,B|184:264|224:224,1,80,0|2
288,328,182340,5,0
304,312,182511,1,0
328,304,182681,1,8
352,312,182852,1,0
368,328,183022,1,0
384,344,183192,1,0
400,360,183363,6,0,B|456:376|488:344,1,80,2|0
488,328,183874,2,0,B|488:288,1,40,0|8
488,264,184215,1,0
488,240,184386,2,0,B|440:256|400:216,1,80,0|2
344,128,185067,5,0
448,64,185408,1,8
168,256,185750,5,0
64,320,186091,1,2
344,256,186431,5,0
448,320,186772,1,8
168,128,187113,5,0
64,64,187454,1,2
256,192,187794,12,4,190181
424,72,190522,5,0
400,64,190692,1,0
376,64,190863,1,8
352,72,191033,1,0
344,96,191204,1,0
344,120,191374,1,0
360,136,191545,1,2
472,184,191886,5,0
456,200,192056,2,0,B|384:272,1,80
384,272,192567,1,0
384,272,192738,1,0
384,272,192908,1,2
280,336,193249,5,0
264,320,193420,1,0
240,312,193590,1,8
216,312,193761,1,0
192,320,193931,1,0
88,264,194272,5,2
88,264,194613,1,0
424,120,194954,5,8
424,120,195295,1,0
312,160,195636,2,0,B|304:208|352:232,2,80,2|0|8
312,160,196488,1,0
312,160,196658,1,0
208,96,196999,2,0,B|160:112|112:64,2,80,2|0|8
136,192,198022,6,0,B|192:264,1,80,0|2
200,272,198534,1,0
200,272,198704,1,0
304,336,199045,2,0,B|384:296,1,80,8|0
400,288,199556,1,0
400,288,199727,1,2
256,96,200409,5,0
256,96,200750,1,0
256,192,201090,12,4,203818
