osu file format v9

[General]
AudioFilename: AZU - For you (Full version) _-_Naruto_Shippuden - Ending 12.mp3
AudioLeadIn: 0
PreviewTime: 177227
Countdown: 0
SampleSet: Soft
StackLeniency: 0.7
Mode: 0
LetterboxInBreaks: 1

[Editor]
DistanceSpacing: 1
BeatDivisor: 1
GridSize: 8

[Metadata]
Title:For You
Artist:AZU
Creator:Guerra
Version:Easy
Source:Naruto Shippuden
Tags:Ignacio Ending

[Difficulty]
HPDrainRate:1
CircleSize:3
OverallDifficulty:1
ApproachRate:2
SliderMultiplier:1
SliderTickRate:1

[Events]
//Background and Video events
0,0,"1.jpg"
//Break Periods
2,81290,87030
2,179472,185894
//Storyboard Layer 0 (Background)
//Storyboard Layer 1 (Fail)
//Storyboard Layer 2 (Pass)
//Storyboard Layer 3 (Foreground)
//Storyboard Sound Samples
//Background Colour Transformations
3,100,163,162,255

[TimingPoints]
2000,681.818181818182,4,2,1,40,1,0
56545,-100,4,2,1,40,0,1
81090,-100,4,2,1,40,0,0
132909,-100,4,2,1,40,0,1
156772,-100,4,2,1,40,0,0
190181,-100,4,2,1,40,0,1
200409,-100,4,2,1,35,0,0

[Colours]
Combo1 : 255,206,255
Combo2 : 164,164,210
Combo3 : 221,187,255

[HitObjects]
256,240,12227,1,8
304,152,12909,2,0,B|344:104|296:56,2,100,2|8|2
208,112,14954,1,8
120,72,15636,6,0,B|48:160|128:272,1,200,2|2
208,216,17681,1,8
296,256,18363,6,8,B|400:256,2,100,2|8|2
208,216,20409,1,8
144,296,21090,1,2
56,256,21772,2,0,B|16:304|56:344,2,100,8|2|8
144,208,23818,6,8,B|192:224|240:192|280:128|224:40,1,200,2|2
336,48,25863,1,8
408,112,26545,2,0,B|496:40,2,100,2|8|2
336,184,28590,1,8
384,272,29272,6,0,B|272:272,1,100,2|8
208,336,30636,2,0,B|80:336,1,100,2|8
256,192,32000,12,8,34045
176,128,34727,6,0,B|96:48,2,100,2|8|2
256,192,36772,1,8
336,128,37454,2,0,B|416:48,2,100,2|8|2
256,192,39500,1,8
176,248,40181,6,0,B|200:312|272:288,1,100,2|8
344,240,41545,1,2
440,272,42227,1,8
472,176,42909,6,0,B|440:72|304:56,1,200,2|2
256,128,44954,1,8
176,192,45636,6,0,B|144:240|184:304,1,100,2|8
256,352,47000,1,2
336,288,47681,2,0,B|368:240|328:176,1,100,8|2
320,96,49045,5,8
256,32,49727,1,2
184,96,50409,1,8
256,168,51090,6,8,B|256:232|256:304,2,100,2|8|2
256,192,53136,12,0,55181
160,144,56545,5,4
208,56,57227,1,8
304,56,57909,1,2
352,144,58590,1,8
256,160,59272,6,0,B|256:264,1,100,2|8
208,344,60636,2,0,B|264:376|312:336,2,100,2|8|2
120,304,62681,5,8
208,256,63363,1,2
304,256,64045,1,8
392,304,64727,1,2
424,208,65409,6,0,B|480:216|552:232,2,100,8|2|8
352,144,67454,1,4
256,104,68136,6,0,B|256:0,2,100,8|2|8
168,144,70181,1,2
72,168,70863,6,0,B|72:296|208:296,1,200,8|8
256,216,72909,1,2
320,296,73590,2,0,B|445:296|448:176,1,200,8|8
368,120,75636,2,0,B|432:40,2,100,2|8|2
256,192,77681,12,0,81090
256,192,88590,5,8
176,128,89272,2,0,B|88:40,2,100,2|8|2
96,192,91318,1,8
168,264,92000,2,0,B|256:336|368:256,1,200,2|2
416,192,94045,1,8
344,120,94727,6,0,B|376:88|400:16,2,100,2|8|2
256,168,96772,1,8
160,192,97454,2,0,B|128:224|104:296,2,100,2|8|2
256,168,99500,1,8
336,112,100181,6,0,B|288:64|288:64|224:64|224:64|176:112,1,200,2|2
120,192,102227,1,8
176,272,102909,2,0,B|224:320|224:320|288:320|288:320|336:272,1,200,2|2
400,192,104954,1,8
488,144,105636,6,8,B|464:72|352:96,1,100,2|8
400,192,107000,2,0,B|336:200|312:120,1,100,2|8
256,192,108363,12,8,110409
312,272,111090,6,0,B|440:272,2,100,2|8|2
256,192,113136,1,8
192,272,113818,2,0,B|80:272,2,100,2|8|2
256,192,115863,1,8
176,136,116545,5,2
256,72,117227,1,8
336,136,117909,1,2
352,232,118590,6,0,B|352:288|312:328,1,100,8|2
256,240,119954,1,8
160,248,120636,2,0,B|160:192|200:152,1,100,2|8
256,80,122000,5,2
352,112,122681,2,0,B|408:216|336:312,1,200,8|8
256,344,124727,1,2
168,304,125409,2,0,B|112:200|184:104,1,200,8|8
256,176,127454,6,0,B|256:304,2,100,2|8|2
256,192,129500,12,0,131545
344,24,132909,6,0,B|312:168,1,100,4|8
256,192,134272,1,2
192,120,134954,2,0,B|168:24,1,100,8|2
96,96,136318,5,8
80,192,137000,2,0,B|48:248|88:288,2,100,2|8|2
168,232,139045,5,8
256,280,139727,1,2
344,232,140409,1,8
432,280,141090,2,0,B|472:232|424:184,2,100,2|8|2
344,232,143136,1,8
352,136,143818,6,0,B|232:48|128:176,1,200,4|2
88,192,145863,1,8
168,248,146545,2,0,B|288:336|392:208,1,200,2|2
432,192,148590,6,0,B|416:144|400:88,1,100,8|2
312,128,149954,1,8
256,48,150636,1,2
200,128,151318,1,8
104,96,152000,2,0,B|96:144|80:224,2,100,2|8|2
256,192,154045,12,8,156772
184,48,157454,6,0,B|160:160|64:224,1,200,2|0
112,312,159500,1,8
208,288,160181,2,0,B|336:288,1,100,2|8
312,192,161545,2,0,B|360:192|424:192,2,100,2|8|2
256,112,163590,5,8
152,112,164272,2,0,B|128:168|40:224,1,100,2|8
104,288,165636,1,2
208,288,166318,2,0,B|312:240|408:280,1,200,8|8
456,192,168363,5,2
368,152,169045,1,8
400,56,169727,2,0,B|504:56,2,100,2|8|2
336,128,171772,5,8
256,64,172454,1,2
176,128,173136,1,8
168,224,173818,6,0,B|272:296|384:200,2,200,2|2|2
256,192,177227,12,0,179272
424,72,187454,5,0
344,128,188136,1,0
424,192,188818,2,0,B|405:239|417:324,2,100,0|0|4
344,128,190863,6,0,B|248:192|144:120,1,200,8|8
96,208,192909,1,2
168,280,193590,1,8
256,320,194272,2,0,B|352:272,1,100,2|8
304,184,195636,6,0,B|416:128,2,100,2|8|2
256,96,197681,1,8
192,24,198363,2,0,B|80:80,2,100,2|8|2
256,192,200409,12,4,203818
