osu file format v9

[General]
AudioFilename: 12 12.believe feat. SAIYA .mp3
AudioLeadIn: 0
PreviewTime: 159140
Countdown: 0
SampleSet: Soft
StackLeniency: 0.7
Mode: 0
LetterboxInBreaks: 0

[Editor]
DistanceSpacing: 1
BeatDivisor: 4
GridSize: 8

[Metadata]
Title:Believe
Artist:AVtechNO! feat. Saiya
Creator:Selee
Version:So...
Source:
Tags:

[Difficulty]
HPDrainRate:4
CircleSize:3
OverallDifficulty:3
ApproachRate:4
SliderMultiplier:1
SliderTickRate:1

[Events]
//Background and Video events
0,0,"BG.jpg"
//Break Periods
2,65632,66640
2,69003,69337
2,71700,72034
2,74396,74730
2,77093,77427
2,79790,80124
2,82487,82820
2,119565,131360
//Storyboard Layer 0 (Background)
//Storyboard Layer 1 (Fail)
//Storyboard Layer 2 (Pass)
//Storyboard Layer 3 (Foreground)
//Storyboard Sound Samples
//Background Colour Transformations
3,100,163,162,255

[TimingPoints]
21613,337.078651685393,4,2,1,70,1,0
31725,-100,4,2,1,85,0,0
31893,-100,4,2,1,70,0,0
33579,-100,4,2,2,70,0,0
33747,-100,4,2,1,70,0,0
38129,-100,4,2,2,70,0,0
38466,-100,4,2,1,70,0,0
44365,-100,4,2,2,70,0,0
44534,-100,4,2,1,70,0,0
53298,337.078651685393,4,2,1,70,1,0
54309,-100,4,1,1,30,0,0
54646,-100,4,2,1,70,0,0
65095,-100,4,1,1,60,0,0
65432,-100,4,1,1,50,0,0
85826,-100,4,2,1,70,0,0
87005,-100,4,1,2,70,0,0
97960,-100,4,2,2,70,0,0
99814,-100,4,1,2,70,0,0
100151,-100,4,2,1,70,0,0
100657,-100,4,2,2,70,0,0
101163,-100,4,2,1,70,0,0
101500,-100,4,1,2,70,0,0
101921,-100,4,2,2,70,0,0
102511,-100,4,1,2,60,0,0
102595,-100,4,2,1,70,0,0
103354,-100,4,2,2,70,0,0
103859,-100,4,2,1,70,0,0
104533,-100,4,2,2,70,0,0
105208,-100,4,1,2,70,0,0
105376,-100,4,2,1,70,0,0
106050,-100,4,2,2,70,0,0
106556,-100,4,2,1,70,0,0
106893,-100,4,1,2,70,0,0
107230,-100,4,2,1,70,0,0
107904,-100,4,1,2,70,0,0
108578,-100,4,2,2,70,0,0
109253,-100,4,2,1,70,0,0
110601,-100,4,1,2,70,0,0
110685,-100,4,2,1,70,0,0
111275,-100,4,2,2,70,0,0
111949,-100,4,2,1,70,0,0
112286,-100,4,1,2,70,0,0
113297,-100,4,1,2,70,0,0
113382,-100,4,2,1,70,0,0
114140,-100,4,2,2,70,0,0
114646,-100,4,2,1,70,0,0
114983,-100,4,2,2,70,0,0
115320,-100,4,2,1,70,0,0
115657,-100,4,1,2,70,0,0
115994,-100,4,2,1,70,0,0
132680,-100,4,1,1,50,0,0
162090,-100,4,2,2,70,0,0
162511,-80,4,2,1,80,0,1
204140,-80,4,1,2,80,0,1
204477,-66.6666666666667,4,2,2,45,0,1
204646,-100,4,2,0,70,0,0

[Colours]
Combo1 : 223,233,188
Combo2 : 213,210,253

[HitObjects]
56,320,21613,1,8
152,248,21950,1,8
160,368,22287,2,0,B|297:376|360:328,1,200,2|8
480,128,23635,1,2
312,56,24141,1,8
256,56,24309,2,0,B|200:56|168:96,2,100,8|8|2
152,272,25657,2,0,B|132:302|76:318,2,75,8|8|8
176,216,26332,1,2
312,368,27006,5,8
408,312,27343,2,0,B|464:285|492:226,1,100,8|2
378,80,28186,1,8
378,80,28354,2,0,B|328:128,1,50,2|8
224,80,28860,2,0,B|176:120,1,50,8|2
120,208,29365,2,0,B|128:248|152:272,1,50,2|8
168,304,29702,2,0,B|192:344|232:360,2,75,8|8|8
200,256,30377,1,2
440,272,31051,6,0,B|440:312|409:340,2,75,8|8|8
432,216,31725,1,2
352,128,32062,2,0,B|296:144,1,50
304,200,32399,6,8,B|280:256|232:264,1,100,8|8
160,168,33073,1,2
120,120,33242,2,0,B|100:205|118:276,1,150,8|8
352,328,34421,1,2
400,216,34759,5,0
400,216,34927,1,8
400,216,35096,2,0,B|400:160|368:104,1,100,8|8
280,48,35770,2,0,B|232:48,1,50,2|8
120,88,36275,1,8
176,112,36444,2,0,B|212:145|232:184,2,75,8|8|8
128,152,37118,2,0,B|86:242,1,100,2|2
200,288,37792,6,0,B|239:341|307:355|363:340|393:310,1,200,8|2
472,96,39141,2,0,B|424:48|352:32|280:64,1,200,8|2
112,104,40320,1,8
112,104,40489,2,0,B|64:80|56:24,2,100,8|8|2
232,128,41500,1,2
352,96,41837,1,2
392,144,42006,1,0
408,200,42174,1,8
392,256,42343,1,8
360,304,42511,1,2
272,224,42848,2,0,B|216:224,1,50
240,280,43186,6,0,B|197:324|156:342,1,100,8|8
112,232,43860,1,2
112,232,44028,2,0,B|128:137|176:88,1,150,8|8
397,21,45208,1,2
455,191,45714,1,8
455,191,45882,2,0,B|408:216|357:188,1,100,8|8
258,125,46556,1,2
258,125,46725,1,8
198,228,47062,1,8
198,228,47230,2,0,B|182:291|194:321,2,75,8|8|8
248,194,47905,2,0,B|290:192|339:209,2,75,2|8|8
191,172,48579,6,0,B|76:172,1,100,8|8
25,71,49253,1,2
25,71,49927,2,0,B|26:119,1,50,2|8
23,241,50433,1,8
23,241,50601,2,0,B|25:300|71:345,1,100,2|8
140,243,51275,2,0,B|248:288,1,100,8|8
348,314,51950,1,2
458,101,52624,5,8
378,143,52877,1,8
290,160,53129,1,8
290,160,53298,1,2
98,85,54309,6,0,B|53:132,1,50,2|2
118,144,54646,2,0,B|165:194|198:200,1,100,8|8
274,106,55320,2,0,B|332:106,1,50,2|8
444,109,55826,1,8
444,109,55994,2,0,B|366:185|360:304,1,200,8|2
230,162,57174,5,8
220,221,57342,2,0,B|200:327,1,100,8|8
94,375,58017,2,0,B|33:388|12:374,2,75,2|8|2
94,314,58691,2,0,B|52:296|34:258,2,75,8|8|8
150,335,59365,1,2
220,237,59702,1,2
290,140,60039,6,0,B|284:196|305:258,1,100,8|8
411,131,60713,2,0,B|448:175|460:263|442:333,2,200,2|8|2
296,96,62399,1,8
240,200,62736,2,0,B|230:206|187:228|142:227,1,100,8|8
72,128,63410,6,0,B|112:168,1,50,2|0
72,208,63747,2,0,B|112:248,1,50,2|0
64,288,64084,2,0,B|104:328,1,50,2|0
144,288,64421,2,0,B|200:288,1,50,8|8
256,288,64758,1,2
376,296,65095,6,0,B|416:296,4,25,2|0|2|0|4
400,104,67960,5,0
400,104,68129,2,0,B|400:216,1,100
400,320,68803,1,8
112,280,70657,5,0
112,280,70826,2,0,B|112:168,1,100
112,64,71500,1,8
256,88,73354,6,0,B|304:120|312:176,1,100,0|8
256,192,73859,2,0,B|216:224|197:281,1,100,0|8
424,336,76050,5,0
424,336,76387,2,0,B|368:336,1,50,0|0
256,336,76893,1,8
88,48,78747,5,0
88,48,79084,2,0,B|144:48,1,50,0|0
256,48,79590,1,8
256,128,81444,5,0
256,240,81781,1,0
256,240,81950,1,0
256,352,82287,1,8
256,64,84140,6,0,B|256:114,5,50,0|2|0|0|2|8
184,312,85826,5,8
328,312,86163,1,8
256,216,86500,2,0,B|256:144,1,50,6|0
344,80,87005,6,0,B|344:120|344:120|360:144|360:144|360:175,1,100,0|0
456,240,87680,2,0,B|456:312,1,50,8|0
352,352,88185,1,0
232,352,88522,2,0,B|184:352|184:352|160:344|160:344|112:344,1,100,8|0
64,248,89196,1,0
120,144,89533,1,0
120,144,89702,6,0,B|152:104|152:104|200:80,1,100
312,80,90376,1,8
312,80,90545,1,0
424,128,90882,1,8
424,128,91050,2,0,B|448:176|448:176|448:216,2,75
376,168,91724,2,0,B|376:224,1,50,8|0
328,328,92230,5,0
328,328,92399,2,0,B|376:328|376:328|424:352,2,100,0|0|8
272,328,93241,2,0,B|240:288|240:288|224:232,1,100
208,120,93915,1,8
288,32,94253,1,0
408,56,94590,1,0
376,168,94927,5,0
376,168,95095,2,0,B|344:208|344:208|296:232,1,100
208,152,95769,2,0,B|176:189|176:189|164:197,1,50,8|0
120,168,96106,2,0,B|80:216,1,50,8|0
64,264,96444,2,0,B|104:312,1,50,8|0
152,280,96781,2,0,B|192:328,1,50,0|0
224,280,97118,2,0,B|272:296|272:296|328:296,1,100,8|0
408,328,97792,6,0,B|464:256|456:128,3,200,0|0|0|8
363,62,100151,1,8
263,64,100489,2,0,B|157:75|98:29,2,150,0|0|0
293,177,101837,2,0,B|256:274|173:345,1,200,0|8
123,233,102848,1,8
76,270,103017,5,8
16,278,103185,2,0,B|115:156|-40:172|-13:80|19:1,2,300,0|8|8
111,351,105545,5,8
170,341,105713,1,8
228,354,105882,2,0,B|290:392|380:365|380:365|424:295|412:211,1,300,0|0
315,245,107230,2,0,B|294:152|330:46,1,200,8|8
429,55,108241,5,0
471,145,108578,2,0,B|408:183|360:240|360:240|308:196|212:171,1,300,0|8
208,74,109927,2,0,B|108:110|56:218,1,200,8|8
41,302,110938,1,8
128,253,111275,6,0,B|154:362|248:342|248:342|191:263|305:235|305:235,1,300,0|0
362,306,112623,2,0,B|426:229|444:119,1,200,0|8
393,38,113635,1,8
295,61,113972,6,0,B|286:62|293:135|133:134|155:37|155:37|197:53,2,250
345,147,115994,2,0,B|322:215|292:252,1,100,8|8
244,318,116668,1,8
146,294,117005,5,8
132,194,117342,1,2
228,168,117680,1,2
256,192,117764,12,4,119365
162,141,132680,5,0
162,141,132848,2,0,B|154:85|187:33,2,100
350,243,135376,5,0
350,243,135544,2,0,B|358:299|325:351,2,100
205,286,138073,5,0
205,286,138241,2,0,B|149:294|97:261,2,100
307,98,140769,5,0
307,98,140937,2,0,B|363:90|415:123,2,100
104,336,143466,6,0,B|52:271|55:169,1,150
64,96,144309,1,0
408,48,146163,2,0,B|459:112|456:214,1,150
448,288,147006,1,0
256,48,148354,5,0
176,232,149028,2,0,B|208:272|256:304|320:272|360:216,1,200
256,136,150208,1,0
200,208,151219,6,0,B|200:358,1,150,0|0
312,360,152062,2,0,B|312:210,1,150
256,128,152904,1,8
256,192,153073,12,0,156612
40,288,159140,6,0,B|80:248|80:248|136:224,1,100
200,223,159646,1,0
286,300,159814,1,0
340,324,160151,1,0
384,248,160489,2,0,B|256:136,1,150
461,230,161837,6,0,B|446:261|413:274|413:274|419:279|419:279|408:280|408:280|414:285|414:285|402:286|402:286|408:291|408:291|372:295|372:295|347:327|288:328,1,200,0|12
109,307,162848,1,8
192,144,163185,1,2
346,64,163691,1,8
330,165,163859,2,0,B|320:235|173:297|176:204|88:184,1,249.99999627471,8|2
64,88,164702,1,8
219,111,165039,1,8
185,194,165208,6,0,B|124:260|64:288,2,124.999998137355,8|8|2
445,264,166387,1,8
445,172,166556,2,0,B|488:64,2,93.7499986030162,8|8|8
371,224,167230,1,2
300,273,167399,2,0,B|240:336,1,62.4999990686774
64,160,167904,6,0,B|112:88|208:64,1,149.999995529652,8|8
388,60,168578,1,2
468,193,169084,1,8
468,193,169253,2,0,B|468:297,1,74.9999977648259,8|2
304,352,169758,1,8
304,256,169927,1,2
304,168,170095,1,8
142,89,170432,5,8
142,89,170601,1,8
88,160,170769,1,8
144,232,170938,1,8
285,113,171275,2,0,B|355:86|400:96,1,74.9999977648259,2|0
448,152,171612,2,0,B|400:221|408:248,1,74.9999977648259,2|0
463,274,171949,2,0,B|368:328,1,74.9999977648259,2|0
342,334,172286,5,8
256,360,172455,1,2
256,272,172623,1,0
256,184,173297,6,0,B|193:256|104:264,1,149.999995529652,12|8
24,96,173972,1,2
336,64,174477,1,8
352,70,174562,1,0
367,79,174646,2,0,B|404:107|426:146,1,74.9999977648259,8|2
464,320,175151,1,8
464,320,175236,1,8
464,320,175320,1,2
368,320,175489,1,8
424,240,175657,1,8
328,240,175826,1,8
328,240,175910,1,0
328,240,175994,6,0,B|256:304|120:304,1,187.499994412065,8|8
8,208,176668,1,2
256,48,177174,1,2
192,112,177342,1,8
256,232,177595,1,8
312,112,177848,1,8
256,48,178017,2,0,B|256:136,1,74.9999977648259,2|8
192,256,178354,1,8
320,256,178522,1,8
256,344,178691,5,8
88,272,179028,1,8
24,104,179365,1,2
288,64,179871,1,8
288,64,179955,1,8
288,64,180039,1,2
368,32,180208,2,0,B|416:24|456:56|456:112|416:144|416:144|464:240,1,262.499992176891,8|2
432,328,181219,1,8
432,328,181303,1,0
432,328,181387,1,8
256,352,181724,1,8
384,224,182062,2,0,B|359:138|319:107,1,112.499996647239,2|0
320,152,182399,2,0,B|276:183|179:161,1,112.499996647239,2|0
224,136,182736,2,0,B|200:72|247:3,1,112.499996647239,2|8
264,48,183073,2,0,B|296:80|352:80,2,74.9999977648259,8|8|2
75,36,183747,6,0,B|64:72,6,37.4999988824129
75,36,184084,2,0,B|112:128|72:240,1,187.499994412065,12|8
16,352,184758,1,2
280,312,185264,1,8
280,312,185348,1,0
280,312,185432,2,0,B|320:216,1,74.9999977648259,8|2
384,64,185938,1,8
384,64,186022,1,8
384,64,186106,1,8
416,144,186275,1,8
304,160,186444,1,8
456,264,186612,1,8
248,248,186781,6,0,B|184:328|56:336,1,187.499994412065,8|8
320,368,188129,1,8
32,160,187455,2,0,B|168:192|264:312,1,262.499992176891,2|8
344,232,188382,1,8
456,312,188635,1,8
480,224,188803,2,0,B|440:216|392:160,1,74.9999977648259,2|8
328,40,189140,2,0,B|368:64|392:104,1,74.9999977648259,8|2
336,176,189477,5,8
256,328,189814,1,8
176,176,190151,1,2
64,72,190657,1,8
64,72,190741,1,8
64,72,190826,1,2
16,152,190994,1,8
16,152,191331,1,2
320,104,192005,1,8
64,72,191500,2,0,B|168:32|264:80,1,187.499994412065,8|2
320,104,192090,1,8
320,104,192174,1,8
208,240,192511,1,8
360,344,192848,6,0,B|425:354|496:344,1,112.499996647239,2|0
464,320,193185,2,0,B|360:304|320:272,1,149.999995529652,2|0
376,272,193522,2,0,B|445:256|504:216,1,112.499996647239,2|0
499,219,193859,1,8
409,204,194028,1,2
323,178,194196,1,0
242,136,194871,6,0,B|329:129|429:59,1,187.499994412065,12|8
408,72,195545,1,2
279,231,196050,2,0,B|269:283|287:335,1,74.9999977648259,2|8
364,281,196387,1,2
448,112,196724,1,8
368,40,196893,1,2
256,8,197062,1,8
144,40,197230,1,8
64,112,197399,1,2
64,112,197483,1,8
64,112,197567,2,0,B|-8:200|48:320,2,187.499994412065,8|8|2
160,256,198747,1,8
240,160,198915,2,0,B|273:104|264:16,2,112.499996647239,8|8|8
256,256,199590,1,2
256,256,199758,1,8
256,352,199927,1,8
256,352,200095,1,2
384,312,200264,5,8
456,152,200601,1,8
280,152,200938,1,2
200,112,201106,1,8
32,40,201444,1,10
96,208,201781,1,8
136,288,201949,1,10
400,352,202455,5,8
248,248,202792,1,10
411,173,203129,1,8
363,249,203297,1,10
256,144,203803,5,8
355,99,204140,2,2,B|312:64|312:64|304:56|304:56|296:64|296:64|288:56|288:56|280:64|280:64|272:56|272:56|264:64|264:64|256:56|256:56|248:64|248:64|240:56|240:56|232:64|232:64|224:56|224:56|216:64|216:64|208:56|208:56|157:99,1,262.499992176891,0|2
