osu file format v9

[General]
AudioFilename: 12 12.believe feat. SAIYA .mp3
AudioLeadIn: 0
PreviewTime: 159140
Countdown: 0
SampleSet: Soft
StackLeniency: 0.7
Mode: 0
LetterboxInBreaks: 0

[Editor]
DistanceSpacing: 1
BeatDivisor: 1
GridSize: 8

[Metadata]
Title:Believe
Artist:AVtechNO! feat. Saiya
Creator:Selee
Version:Cold
Source:
Tags:

[Difficulty]
HPDrainRate:7
CircleSize:5
OverallDifficulty:7
ApproachRate:8
SliderMultiplier:1.2
SliderTickRate:1

[Events]
//Background and Video events
0,0,"BG.jpg"
//Break Periods
2,65632,67210
2,69003,69907
2,71700,72604
2,74396,75300
2,77093,77997
2,79790,80694
2,82487,83390
2,119565,131930
2,133722,134626
2,136418,137323
2,139115,140019
2,141811,142716
2,144508,145413
2,147205,147604
2,150408,150469
2,156812,158390
//Storyboard Layer 0 (Background)
//Storyboard Layer 1 (Fail)
//Storyboard Layer 2 (Pass)
//Storyboard Layer 3 (Foreground)
//Storyboard Sound Samples
//Background Colour Transformations
3,100,163,162,255

[TimingPoints]
21613,337.078651685393,4,2,1,70,1,0
31725,-100,4,2,1,85,0,0
31893,-100,4,2,1,70,0,0
33579,-100,4,2,2,70,0,0
33747,-100,4,2,1,70,0,0
38129,-100,4,2,2,70,0,0
38466,-100,4,2,1,70,0,0
44365,-100,4,2,2,70,0,0
44534,-100,4,2,1,70,0,0
53298,337.078651685393,4,2,1,70,1,0
54309,-100,4,1,1,30,0,0
54646,-100,4,2,1,70,0,0
65095,-100,4,1,1,60,0,0
65432,-100,4,1,1,40,0,0
85826,-100,4,2,1,70,0,0
87005,-100,4,1,2,70,0,0
97455,-100,4,1,2,80,0,0
97960,-100,4,2,2,70,0,0
99814,-100,4,1,2,70,0,0
100151,-100,4,2,1,70,0,0
100657,-100,4,2,2,70,0,0
101500,-100,4,1,2,60,0,0
102595,-100,4,2,1,80,0,0
103354,-100,4,2,2,70,0,0
105208,-100,4,1,2,70,0,0
105376,-100,4,2,1,70,0,0
106050,-100,4,2,2,70,0,0
106893,-100,4,1,2,70,0,0
107230,-100,4,2,1,70,0,0
108241,-100,4,2,1,80,0,0
108747,-100,4,2,2,70,0,0
110601,-100,4,1,2,70,0,0
110685,-100,4,2,1,70,0,0
111444,-100,4,2,2,70,0,0
113297,-100,4,1,2,70,0,0
113382,-100,4,2,1,80,0,0
114140,-100,4,2,2,70,0,0
115657,-100,4,1,2,70,0,0
115994,-100,4,2,1,70,0,0
132680,-100,4,1,1,35,0,0
162090,-100,4,2,2,70,0,0
162511,-66.6666666666667,4,2,1,80,0,1
204140,-66.6666666666667,4,1,2,80,0,1
204477,-66.6666666666667,4,2,2,45,0,1
204646,-100,4,2,0,70,0,0

[Colours]
Combo1 : 223,233,188
Combo2 : 213,210,253

[HitObjects]
256,72,21612,1,8
161,88,21950,1,8
82,142,22287,2,0,B|2:238|10:382,1,240,2|8
159,245,23635,1,2
286,311,24141,1,8
296,317,24225,1,8
304,324,24309,2,0,B|344:352|368:320|422:363,2,120,8|8|2
476,61,25657,2,0,B|407:118,1,90,8|8
396,125,25995,2,0,B|420:148|420:197,1,60,0|8
421,202,26332,1,2
174,314,27006,5,8
250,255,27343,2,0,B|267:199|250:119,1,120,8|2
119,82,28186,1,8
119,82,28354,2,0,B|98:156,1,60,2|8
73,231,28860,2,8,B|31:269,2,30,0|8|2
154,282,29365,2,0,B|183:260|233:254,1,60
220,257,29618,1,8
231,261,29702,2,0,B|233:218|255:176,2,90,8|8|8
285,310,30377,1,2
423,69,31051,6,0,B|452:118|437:168,2,90,8|8|8
352,54,31725,1,2
256,101,32062,2,0,B|240:88,6,15,0|0|0|0|0|0|0
256,101,32399,6,8,B|272:176|339:209,1,120,8|8
418,124,33073,1,2
462,164,33242,2,0,B|482:249|455:350,1,180,8|8
360,256,34421,1,2
360,256,34759,5,0
360,256,34927,1,8
360,256,35011,1,8
360,256,35096,1,8
279,345,35433,1,8
163,311,35770,2,0,B|136:296|110:253,1,60,2|8
103,211,36107,1,0
135,158,36275,1,8
196,151,36444,2,0,B|232:184|259:235,2,90,8|8|8
194,90,37118,2,0,B|217:13,1,60,2|8
251,77,37455,2,0,B|330:77,1,60,8|10
370,87,37792,6,0,B|423:126|437:194|422:250|360:288,1,240,8|2
123,245,39141,2,0,B|163:213|255:228|313:289|295:356,1,240,8|2
386,185,40320,1,8
375,178,40405,1,8
365,171,40489,2,0,B|327:166|327:166|284:176|284:176|253:216,2,120,8|8|2
365,171,41332,1,8
465,236,41669,1,2
485,117,42006,2,0,B|480:76,1,30,8|0
400,48,42343,1,8
384,105,42511,1,2
292,182,42848,2,0,B|291:205,6,15,0|0|0|0|0|0|0
292,182,43186,6,0,B|249:138|164:122,1,120,8|8
168,8,43860,1,2
168,8,44028,2,0,B|73:24|5:103,1,180,8|8
151,290,45208,1,2
324,338,45714,1,8
334,332,45798,1,8
343,324,45882,2,0,B|404:344|494:324,1,120,8|8
491,207,46556,1,2
491,207,46725,1,8
462,90,47062,1,8
407,114,47230,2,0,B|372:113|352:139,1,60,8|0
348,147,47483,2,0,B|332:210|351:264,1,90,8|8
368,291,47905,1,2
413,329,48073,2,0,B|480:347,2,60,8|8|8
354,342,48579,6,0,B|207:342,1,120,8|8
126,342,49253,1,2
47,172,49927,2,0,B|27:111,1,60,2|8
130,161,50433,1,8
130,161,50517,1,0
130,161,50601,2,0,B|155:230,2,60,2|8|8
182,149,51107,1,8
182,149,51191,1,8
182,149,51275,2,0,B|125:16,1,120,8|8
134,38,51950,1,2
300,115,52624,5,8
289,294,52877,1,8
150,214,53129,1,8
256,192,53298,1,2
112,184,54309,6,0,B|104:208,6,15,2|0|0|0|2|0|0
112,184,54646,2,0,B|159:234|224:240,1,120,8|8
332,267,55320,2,0,B|344:300|375:320,1,60,2|8
425,306,55657,1,0
452,252,55826,1,8
465,193,55994,2,0,B|363:164|216:208,1,240,8|2
69,66,57174,5,8
69,66,57258,1,8
69,66,57342,2,0,B|48:207,1,120,8|8
32,304,58017,1,2
104,248,58269,1,0
144,328,58522,1,8
104,368,58691,2,0,B|43:381|6:360,2,90,8|8|8
144,328,59365,1,2
187,287,59533,1,8
216,234,59702,1,8
219,173,59871,1,2
255,125,60039,6,0,B|260:200|278:270,1,120,8|8
368,317,60713,2,0,B|324:354|257:367|184:354|129:311,1,240,2|8
173,143,61893,1,0
173,143,61977,1,0
173,143,62062,1,2
58,178,62399,1,8
108,209,62567,5,0
108,209,62651,1,0
108,209,62736,2,0,B|118:215|161:237|232:236,1,120,8|8
324,160,63410,2,0,B|364:191|376:248,1,90,2|0
365,247,63747,2,0,B|321:278|264:265,1,90,2|0
265,261,64084,2,0,B|241:218|264:166,1,90,2|8
274,166,64421,2,0,B|225:115,1,60,8|8
186,83,64758,1,2
75,36,65095,6,0,B|70:60,8,15,2|0|2|0|2|2|0|0|4
400,48,67960,5,0
400,48,68129,2,0,B|472:48,2,60,0|0|0
296,48,68803,1,8
112,48,70657,5,0
112,48,70826,2,0,B|40:48,2,60,0|0|0
216,48,71500,1,8
152,160,73354,6,0,B|203:207|218:265,1,120,0|8
323,255,73859,2,0,B|272:302|257:360,1,120,0|8
256,48,76050,5,0
256,48,76387,2,0,B|256:128,1,60,0|0
256,216,76893,1,8
96,56,78747,5,0
208,32,79084,1,0
208,32,79253,1,0
168,128,79590,1,8
416,56,81444,5,0
304,32,81781,1,0
304,32,81950,1,0
344,128,82287,1,8
72,216,84140,5,0
160,272,84309,1,2
224,352,84477,1,0
288,352,84646,1,0
352,272,84814,1,2
440,216,84983,1,8
160,144,85826,5,8
352,144,86163,1,8
256,32,86500,2,0,B|256:112,1,60,6|0
64,264,87005,6,0,B|104:264|104:264|136:248|136:248|184:248,1,120,0|0
272,192,87680,2,0,B|193:191,1,60,8|0
96,192,88185,1,0
128,88,88522,2,0,B|176:88|176:88|200:96|200:96|264:96,1,120,8|0
336,152,89196,1,0
424,216,89533,1,0
415,228,89618,1,0
404,238,89702,2,0,B|356:292|356:292|312:312,1,120
192,312,90376,1,8
192,312,90545,1,0
80,272,90882,1,8
64,216,91050,2,0,B|24:184|24:184|16:136,2,90
120,184,91724,1,8
172,213,91893,1,0
283,252,92230,5,0
294,266,92314,1,0
305,279,92399,2,0,B|350:316|350:316|428:342,2,120,0|0|8
359,253,93241,2,0,B|396:211|396:211|412:148,1,120
337,54,93915,1,8
219,28,94253,1,0
274,134,94590,1,0
274,134,94674,1,0
274,134,94758,1,0
232,177,94927,5,0
232,177,95011,1,0
232,177,95095,2,0,B|183:229|183:229|127:268,1,120
28,291,95769,2,0,B|60:328|60:328|99:345,1,90,8|0
112,346,96106,2,0,B|151:328|151:328|216:321,1,90,8|0
212,318,96444,2,0,B|186:250,1,60,8|0
185,247,96696,1,0
180,232,96781,2,0,B|159:165,1,60
182,153,97118,2,0,B|125:192|125:192|64:207,1,120,8|0
60,203,97539,1,0
46,197,97623,1,0
33,188,97708,1,0
22,177,97792,6,0,B|46:265|121:340|121:340|276:260|256:184|187:231|187:231|135:188|79:244|250:342|250:342|287:321|339:345,1,720,0|8
441,365,100151,1,8
488,328,100320,1,8
488,328,100404,1,8
488,328,100489,2,0,B|344:288|344:288|504:208|432:112,1,360,0|8
336,80,101837,2,0,B|372:114|375:160,2,90
336,80,102511,1,8
240,16,102848,1,8
226,10,102932,1,8
210,8,103017,5,8
195,10,103101,1,8
181,16,103185,2,0,B|241:185|121:169|129:277|157:320|157:320|186:273|69:200|0:130|5:208|5:208|5:272|69:344,1,720,8|8
176,368,105545,1,8
232,344,105713,1,8
245,338,105797,1,8
258,330,105882,2,0,B|160:294|175:191|175:191|231:98|351:142,1,360,8|8
356,255,107230,2,0,B|304:262|256:235,2,90,8|8|8
414,241,107904,1,2
458,129,108241,5,8
463,114,108326,1,8
465,99,108410,1,8
467,84,108494,1,8
458,71,108578,2,0,B|396:103|366:169|366:169|321:71|290:135|243:201|243:201|151:104|79:326|79:326|73:252|44:188,1,720,8|8
7,79,110938,1,8
64,94,111106,1,8
69,108,111191,1,8
75,121,111275,2,0,B|80:196|124:274|176:328|176:328|202:176|375:250|375:250|320:195|286:112|344:16,1,720,8|8
453,33,113635,1,8
459,46,113719,1,8
463,60,113803,1,8
459,74,113887,1,8
456,88,113972,6,0,B|328:88|379:133|351:183|258:200|232:128|232:128|315:127|313:276|313:276|383:220|446:262,1,600,8|8
448,352,115994,2,0,B|400:384|312:368,1,120,8|8
216,336,116500,1,8
216,336,116584,1,8
216,336,116668,1,8
144,224,117005,5,8
284,79,117342,1,2
339,272,117680,1,2
256,192,117764,12,4,119365
32,160,132680,5,0
88,144,132848,1,0
136,112,133017,1,0
168,64,133185,1,0
256,144,133522,1,8
480,160,135376,5,0
424,144,135544,1,0
376,112,135713,1,0
344,64,135881,1,0
256,144,136218,1,8
479,320,138073,5,0
456,266,138241,1,0
403,240,138410,1,0
345,250,138578,1,0
256,360,138915,1,8
33,320,140769,5,0
56,266,140937,1,0
109,240,141106,1,0
167,250,141274,1,0
256,360,141611,1,8
440,112,143466,5,0
392,160,143634,1,0
392,224,143803,1,0
440,272,143971,1,0
328,192,144308,1,8
72,272,146163,5,0
120,224,146331,1,0
120,160,146500,1,0
72,112,146668,1,0
184,192,147005,1,8
256,48,148354,5,0
144,192,148859,5,0
176,240,149028,1,0
224,272,149196,1,0
288,272,149365,1,0
336,240,149533,1,0
368,192,149702,1,0
256,64,150208,1,8
256,192,151219,5,0
256,248,151556,5,0
256,265,151724,1,0
256,283,151893,1,0
256,301,152062,1,0
256,318,152230,1,0
257,335,152399,1,0
257,352,152567,1,0
257,352,152904,1,8
256,192,153073,12,0,156612
40,288,159140,6,0,B|80:248|80:248|160:224,1,120
200,223,159646,1,8
252,252,159814,1,0
286,300,159983,1,0
340,324,160151,1,0
386,285,160320,1,0
402,227,160489,1,0
289,86,160994,5,8
461,230,161837,6,0,B|446:261|413:274|413:274|419:279|419:279|408:280|408:280|414:285|414:285|402:286|402:286|408:291|408:291|372:295|372:295|347:327|267:329,1,240,0|12
109,307,162848,1,8
192,144,163185,1,2
346,64,163691,1,8
330,165,163859,2,0,B|320:235|173:297|176:204|6:164,1,359.999989271164,8|2
64,88,164702,1,8
148,57,164871,1,8
219,111,165039,1,8
206,154,165123,1,0
185,194,165208,6,0,B|124:260|25:298,2,179.999994635582,8|8|2
445,264,166387,1,8
445,172,166556,2,0,B|501:44,2,134.999995976687,8|8|8
371,224,167230,1,2
300,273,167399,2,0,B|249:363,2,89.9999973177911,8|8|8
64,160,167904,6,0,B|112:88|240:64,1,179.999994635582,8|8
388,60,168578,1,2
468,193,169084,1,8
468,193,169168,1,8
468,193,169253,2,0,B|468:297,1,89.9999973177911,8|2
304,352,169758,1,8
304,256,169927,1,2
304,168,170095,1,8
142,89,170432,5,8
142,89,170517,1,8
142,89,170601,1,8
88,160,170769,1,8
144,232,170938,1,8
285,113,171275,2,0,B|355:86|416:122,1,134.999995976687,2|0
448,152,171612,2,0,B|400:221|423:296,1,134.999995976687,2|0
463,274,171949,2,0,B|332:340,1,134.999995976687,2|0
342,334,172286,5,8
256,360,172455,1,2
256,272,172623,1,0
256,184,172792,2,0,B|256:161,10,22.4999993294478
256,184,173297,6,0,B|193:256|88:264,1,179.999994635582,12|8
24,96,173972,1,2
336,64,174477,1,8
352,70,174562,1,0
367,79,174646,2,0,B|404:107|426:146,1,89.9999973177911,8|2
464,320,175151,1,8
464,320,175236,1,8
464,320,175320,1,2
368,320,175489,1,8
424,240,175657,1,8
328,240,175826,1,8
328,240,175910,1,0
328,240,175994,6,0,B|256:304|120:304,1,179.999994635582,8|8
8,208,176668,1,2
256,48,177174,1,2
192,112,177342,1,8
256,232,177595,1,8
312,112,177848,1,8
256,48,178017,2,0,B|256:136,1,89.9999973177911,2|8
192,256,178354,1,8
320,256,178522,1,8
256,344,178691,5,8
88,272,179028,1,8
24,104,179365,1,2
288,64,179871,1,8
288,64,179955,1,8
288,64,180039,1,2
368,32,180208,2,0,B|416:24|456:56|456:112|416:144|416:144|464:240,1,269.999991953373,8|2
432,328,181219,1,8
432,328,181303,1,0
432,328,181387,1,8
256,352,181724,1,8
384,224,182062,2,0,B|359:138|319:107,1,134.999995976687,2|0
320,152,182399,2,0,B|276:183|179:161,1,134.999995976687,2|0
224,136,182736,2,0,B|200:72|247:3,1,134.999995976687,2|8
264,48,183073,2,0,B|296:80|352:80,2,89.9999973177911,8|8|2
75,36,183747,6,0,B|64:72,6,22.4999993294478
75,36,184084,2,0,B|112:128|72:240,1,179.999994635582,12|8
16,352,184758,1,2
280,312,185264,1,8
280,312,185348,1,0
280,312,185432,2,0,B|320:216,1,89.9999973177911,8|2
384,64,185938,1,8
384,64,186022,1,8
384,64,186106,1,8
416,144,186275,1,8
304,160,186444,1,8
456,264,186612,1,8
248,248,186781,6,0,B|184:328|56:336,1,179.999994635582,8|8
32,160,187455,2,0,B|112:168|176:192|224:240|264:312,1,269.999991953373,2|8
320,368,188129,1,8
344,232,188382,1,8
456,312,188635,1,8
480,224,188803,2,0,B|440:216|392:160,1,89.9999973177911,2|8
328,40,189140,2,0,B|368:64|392:104,1,89.9999973177911,8|2
336,176,189477,5,8
256,328,189814,1,8
176,176,190151,1,2
64,72,190657,1,8
64,72,190741,1,8
64,72,190826,1,2
16,152,190994,1,8
16,152,191331,1,2
64,72,191500,2,0,B|168:32|264:80,1,179.999994635582,8|2
320,104,192005,1,8
320,104,192090,1,8
320,104,192174,1,8
208,240,192511,1,8
360,344,192848,6,0,B|425:354|496:344,1,134.999995976687,2|0
464,320,193185,2,0,B|360:304|320:272,1,134.999995976687,2|0
376,272,193522,2,0,B|445:256|504:216,1,134.999995976687,2|0
499,219,193859,1,8
409,204,194028,1,2
323,178,194196,1,0
242,136,194365,6,0,B|218:152,10,22.4999993294478
242,136,194871,6,0,B|329:129|429:59,1,179.999994635582,12|8
408,72,195545,1,2
279,231,196050,2,0,B|269:283|287:335,1,89.9999973177911,2|8
364,281,196387,1,2
448,112,196724,1,8
368,40,196893,1,2
256,8,197062,1,8
144,40,197230,1,8
64,112,197399,1,2
64,112,197483,1,8
64,112,197567,2,0,B|-8:200|48:320,2,179.999994635582,8|8|2
160,256,198747,5,8
240,160,198915,2,0,B|273:104|264:16,2,134.999995976687,8|8|8
256,256,199590,1,2
256,256,199758,1,8
256,352,199927,1,8
256,352,200095,1,2
384,312,200264,5,8
456,152,200601,1,8
280,152,200938,1,2
200,112,201106,1,8
32,40,201444,1,10
96,208,201781,1,8
136,288,201949,1,10
400,352,202455,5,8
248,248,202792,1,10
411,173,203129,1,8
363,249,203297,1,10
256,144,203803,5,8
355,99,204140,2,2,B|312:64|312:64|304:56|304:56|296:64|296:64|288:56|288:56|280:64|280:64|272:56|272:56|264:64|264:64|256:56|256:56|248:64|248:64|240:56|240:56|232:64|232:64|224:56|224:56|216:64|216:64|208:56|208:56|157:99,1,269.999991953373,0|2
