osu file format v13

[General]
AudioFilename: FREE - AVTechNO.mp3
AudioLeadIn: 0
PreviewTime: 83990
Countdown: 0
SampleSet: Soft
StackLeniency: 0.7
Mode: 0
LetterboxInBreaks: 1
WidescreenStoryboard: 0

[Editor]
DistanceSpacing: 0.8
BeatDivisor: 4
GridSize: 16
TimelineZoom: 1

[Metadata]
Title:FREE
TitleUnicode:FREE
Artist:AVTechNO!
ArtistUnicode:AVTechNO!
Creator:MarTinNN
Version:Insane
Source:AVTechNO!
Tags:Hatsune Miku Megurine Luka Vocaloid techno japanese
BeatmapID:216259
BeatmapSetID:54786

[Difficulty]
HPDrainRate:7
CircleSize:3.5
OverallDifficulty:8
ApproachRate:9
SliderMultiplier:2.2
SliderTickRate:2

[Events]
//Background and Video events
0,0,"cover-1.jpg",0,0
//Break Periods
2,38489,52451
2,114680,121261
2,137537,140904
2,175632,190070
//Storyboard Layer 0 (Background)
//Storyboard Layer 1 (Fail)
//Storyboard Layer 2 (Pass)
//Storyboard Layer 3 (Foreground)
//Storyboard Sound Samples
//Background Colour Transformations
3,100,0,0,0

[TimingPoints]
5909,476.190476190476,4,2,1,40,1,0
23051,-100,4,2,1,50,0,0
84004,-100,4,1,1,70,0,1
114480,-100,4,2,1,40,0,0
205908,-100,4,1,1,70,0,1
236347,-100,4,2,1,50,0,0
254480,-100,4,2,1,50,0,0

[Colours]
Combo1 : 17,200,238
Combo2 : 255,0,128

[HitObjects]
80,304,7099,6,0,B|224:304,1,110,0|2,0:0|0:0,0:0:0:0:
256,192,7813,1,0,0:0:0:0:
320,304,8051,1,2,0:0:0:0:
367,191,8528,2,0,B|367:79|367:79|255:79,1,220,0|2,0:0|0:0,0:0:0:0:
256,192,9480,1,0,0:0:0:0:
128,192,9956,1,2,0:0:0:0:
256,80,10432,5,0,0:0:0:0:
256,320,10670,1,10,0:0:0:0:
384,192,10908,1,10,0:0:0:0:
256,192,11147,1,12,0:0:0:0:
144,192,11385,1,2,0:0:0:0:
144,192,11623,2,0,B|96:192|96:192|64:128,1,110,0|2,0:0|0:0,0:0:0:0:
148,80,12337,2,0,B|368:80,1,220,0|2,0:0|0:0,0:0:0:0:
256,192,13289,5,8,0:0:0:0:
160,320,13528,1,10,0:0:0:0:
352,320,13766,1,8,0:0:0:0:
400,192,14004,1,6,0:0:0:0:
256,192,14242,1,6,0:0:0:0:
256,192,14718,1,6,0:0:0:0:
176,48,15194,5,8,0:0:0:0:
176,192,15432,1,14,0:0:0:0:
176,320,15670,1,2,0:0:0:0:
336,192,15908,1,12,0:0:0:0:
336,48,16147,1,10,0:0:0:0:
176,48,16385,2,0,B|240:48|240:48|272:96,2,110,6|0|2,0:0|0:0|0:0,0:0:0:0:
336,48,17337,5,10,0:0:0:0:
336,192,17575,1,6,0:0:0:0:
336,320,17813,1,8,0:0:0:0:
176,192,18051,1,6,0:0:0:0:
176,48,18289,1,10,0:0:0:0:
336,48,18528,2,10,B|272:48|272:48|240:96,2,110,10|8|10,0:0|0:0|0:0,0:0:0:0:
336,192,19242,6,0,B|304:304|304:304|432:304,1,220,4|0,0:0|0:0,0:0:0:0:
336,192,19956,2,0,B|256:112,2,110,0|10|0,0:0|0:0|0:0,0:0:0:0:
256,239,20670,2,0,B|447:131,1,220,0|8,0:0|0:0,0:0:0:0:
343,189,21623,1,4,0:0:0:0:
256,80,21861,1,10,0:0:0:0:
256,192,22099,1,10,0:0:0:0:
384,80,22337,1,8,0:0:0:0:
256,192,22575,1,10,0:0:0:0:
112,96,22813,5,0,0:0:0:0:
112,144,22932,1,0,0:0:0:0:
112,192,23051,1,12,0:0:0:0:
256,192,23289,1,0,0:0:0:0:
260,80,23528,2,8,B|342:79,4,55
256,192,24242,1,4,0:0:0:0:
112,192,24480,1,0,0:0:0:0:
224,192,24956,5,8,0:0:0:0:
256,192,25075,1,0,0:0:0:0:
288,192,25194,1,0,0:0:0:0:
320,192,25313,1,8,0:0:0:0:
352,192,25432,2,8,B|465:190,4,110,8|8|8|8|8,0:0|0:0|0:0|0:0|0:0,0:0:0:0:
256,80,26861,5,8,0:0:0:0:
144,192,27099,1,0,0:0:0:0:
256,288,27337,1,8,0:0:0:0:
368,192,27575,1,8,0:0:0:0:
368,144,27694,1,0,0:0:0:0:
368,96,27813,1,8,0:0:0:0:
256,80,27932,2,8,B|176:80,2,73.3333333333333,0|0|0,0:0|0:0|0:0,0:0:0:0:
144,192,28528,6,8,B|289:191,1,110,8|8,0:0|0:0,0:0:0:0:
368,192,29004,2,0,B|448:208|448:208|480:256,2,110,0|8|0,0:0|0:0|0:0,0:0:0:0:
256,288,29718,1,8,0:0:0:0:
144,192,29956,1,8,0:0:0:0:
256,96,30194,1,8,0:0:0:0:
256,192,30512,2,2,B|336:192,4,55,8|8|8|8|0,0:0|0:0|0:0|0:0|0:0,0:0:0:0:
160,288,31147,6,0,B|160:352|160:352|208:368,1,110,0|8,0:0|0:0,0:0:0:0:
352,368,31623,1,8,0:0:0:0:
352,352,31742,1,8,0:0:0:0:
352,368,31861,2,8,B|352:224,1,110,8|8,0:0|0:0,0:0:0:0:
384,80,32575,5,8,0:0:0:0:
384,128,32694,1,8,0:0:0:0:
384,176,32813,1,8,0:0:0:0:
352,208,32932,1,0,0:0:0:0:
304,240,33051,1,8,0:0:0:0:
256,240,33170,1,0,0:0:0:0:
208,240,33289,1,8,0:0:0:0:
160,208,33408,1,8,0:0:0:0:
128,176,33528,1,0,0:0:0:0:
128,128,33647,1,8,0:0:0:0:
128,80,33766,1,8,0:0:0:0:
256,64,34004,5,12,0:0:0:0:
256,192,34480,6,8,B|345:192,8,55,8|8|8|8|8|0|8|0|8,0:0|0:0|0:0|0:0|0:0|0:0|0:0|0:0|0:0,0:0:0:0:
256,192,35670,2,2,B|128:192,1,110,0|8,0:0|0:0,0:0:0:0:
256,80,36147,6,8,B|256:240,1,110,8|8,0:0|0:0,0:0:0:0:
144,192,36623,1,0,0:0:0:0:
144,80,36861,2,0,B|304:80,1,110,8|8,0:0|0:0,0:0:0:0:
368,80,37337,1,0,0:0:0:0:
192,192,37813,1,8,0:0:0:0:
224,192,37932,1,8,0:0:0:0:
256,192,38051,1,0,0:0:0:0:
288,192,38170,1,8,0:0:0:0:
320,192,38289,1,12,0:0:0:0:
160,192,53051,6,0,B|112:256|112:256|112:320,2,110,0|0|2,0:0|0:0|0:0,0:0:0:0:
256,80,53766,1,0,0:0:0:0:
384,80,54004,1,0,0:0:0:0:
320,192,54242,1,0,0:0:0:0:
256,80,54480,1,10,0:0:0:0:
320,192,54718,2,0,B|208:160,1,110
208,160,55194,1,0,0:0:0:0:
16,80,55432,6,0,B|128:80,1,110,10|0,0:0|0:0,0:0:0:0:
128,192,55908,2,0,B|128:80,1,110,10|0,0:0|0:0,0:0:0:0:
16,192,56385,2,8,B|144:192,1,110,10|10,0:0|0:0,0:0:0:0:
128,304,56861,2,2,B|130:176,1,110,4|0,0:0|0:0,0:0:0:0:
128,192,57337,2,0,B|238:192,1,110,2|0,0:0|0:0,0:0:0:0:
256,80,57813,1,8,0:0:0:0:
256,192,58051,1,0,0:0:0:0:
368,192,58289,5,10,0:0:0:0:
464,192,58528,1,0,0:0:0:0:
464,160,58647,1,0,0:0:0:0:
464,128,58766,1,10,0:0:0:0:
464,64,59004,1,10,0:0:0:0:
368,64,59242,2,8,B|224:64,1,110
160,64,59718,2,0,B|160:192|160:192|304:192,1,220,2|14,0:0|0:0,0:0:0:0:
352,192,60432,5,0,0:0:0:0:
352,224,60551,1,0,0:0:0:0:
352,256,60670,2,2,B|480:256,1,110,2|10,0:0|0:0,0:0:0:0:
464,176,61147,1,10,0:0:0:0:
368,64,61385,1,12,0:0:0:0:
256,192,61623,1,10,0:0:0:0:
128,160,61861,1,8,0:0:0:0:
128,192,61980,1,0,0:0:0:0:
128,224,62099,2,2,B|192:336|192:336|304:336,1,220,14|2,0:0|0:0,0:0:0:0:
384,192,63051,5,14,0:0:0:0:
256,96,63289,1,2,0:0:0:0:
384,192,63528,1,8,0:0:0:0:
256,96,63766,1,10,0:0:0:0:
384,192,64004,1,0,0:0:0:0:
384,192,64242,1,2,0:0:0:0:
384,192,64361,1,8,0:0:0:0:
384,192,64480,2,8,B|384:336,1,110,10|10,0:0|0:0,0:0:0:0:
256,192,64956,6,0,B|128:192,1,110,4|2,0:0|0:0,0:0:0:0:
256,192,65432,2,2,B|384:192,1,110,8|10,0:0|0:0,0:0:0:0:
256,192,65908,2,0,B|256:336,1,110,0|10,0:0|0:0,0:0:0:0:
256,192,66385,2,2,L|256:48,1,110,2|8,0:0|0:0,0:0:0:0:
112,192,66861,5,14,0:0:0:0:
112,192,67099,1,10,0:0:0:0:
400,192,67575,1,10,0:0:0:0:
400,192,67813,1,10,0:0:0:0:
256,304,68289,2,0,B|256:176,1,110,10|0,0:0|0:0,0:0:0:0:
256,192,68647,1,8,0:0:0:0:
256,192,68766,5,14,0:0:0:0:
320,64,69004,1,8,0:0:0:0:
400,192,69242,1,2,0:0:0:0:
320,320,69480,1,8,0:0:0:0:
192,320,69718,1,2,0:0:0:0:
112,192,69956,1,8,0:0:0:0:
192,64,70194,1,2,0:0:0:0:
320,64,70432,1,8,0:0:0:0:
400,192,70670,5,10,0:0:0:0:
256,192,70908,1,2,0:0:0:0:
112,192,71147,1,8,0:0:0:0:
400,192,71385,1,2,0:0:0:0:
256,64,71623,1,8,0:0:0:0:
176,304,71861,1,2,0:0:0:0:
336,304,72099,1,8,0:0:0:0:
112,192,72337,1,6,0:0:0:0:
256,192,72575,6,0,B|368:192,1,110,8|10,0:0|0:0,0:0:0:0:
256,192,73051,1,10,0:0:0:0:
368,192,73289,1,8,0:0:0:0:
368,64,73528,2,0,B|208:64,1,110,6|8,0:0|0:0,0:0:0:0:
256,64,74004,1,10,0:0:0:0:
256,192,74242,1,10,0:0:0:0:
128,80,74480,6,0,B|128:208,2,110,0|10|10,0:0|0:0|0:0,0:0:0:0:
256,64,75194,2,0,B|384:64,1,110,8|10,0:0|0:0,0:0:0:0:
368,192,75670,1,0,0:0:0:0:
144,192,75908,2,10,B|256:192,1,110,10|8,0:0|0:0,0:0:0:0:
256,192,76147,1,0,0:0:0:0:
256,192,76266,1,8,0:0:0:0:
256,192,76385,1,14,0:0:0:0:
256,64,76623,5,0,0:0:0:0:
144,192,76861,1,10,0:0:0:0:
368,192,77099,1,8,0:0:0:0:
144,192,77337,1,14,0:0:0:0:
368,192,77575,1,8,0:0:0:0:
256,192,77813,1,10,0:0:0:0:
176,336,78051,1,8,0:0:0:0:
336,336,78289,1,14,0:0:0:0:
256,256,78528,5,8,0:0:0:0:
256,208,78766,1,14,0:0:0:0:
256,160,79004,1,0,0:0:0:0:
144,192,79242,1,14,0:0:0:0:
368,192,79480,1,2,0:0:0:0:
256,96,79718,2,8,B|256:256,1,110,8|14,0:0|0:0,0:0:0:0:
256,96,80194,5,6,0:0:0:0:
256,192,80432,12,0,84004,0:0:0:0:
80,96,84242,6,0,B|208:96,1,110,0|2,0:0|0:0,0:0:0:0:
432,96,84718,2,0,B|272:96,1,110,0|2,0:0|0:0,0:0:0:0:
256,96,85194,1,0,0:0:0:0:
256,96,85313,1,0,0:0:0:0:
256,96,85432,2,0,B|256:208,1,110,2|0,0:0|0:0,0:0:0:0:
256,304,85908,1,2,0:0:0:0:
256,304,86147,2,0,B|384:304,3,110,0|2|0|2,0:0|0:0|0:0|0:0,0:0:0:0:
336,240,87099,1,0,0:0:0:0:
336,208,87218,1,0,0:0:0:0:
336,176,87337,2,0,B|192:176,1,110,2|2,0:0|0:0,0:0:0:0:
208,64,87813,6,0,B|288:64|288:64|336:64,1,110,4|2,0:0|0:0,0:0:0:0:
320,192,88289,1,0,0:0:0:0:
176,192,88528,1,2,0:0:0:0:
96,64,88766,1,2,0:0:0:0:
192,64,89004,1,0,0:0:0:0:
224,64,89123,1,0,0:0:0:0:
256,64,89242,1,2,0:0:0:0:
368,64,89480,6,0,B|368:176,1,110,2|2,0:0|0:0,0:0:0:0:
256,192,89956,1,4,0:0:0:0:
128,192,90194,2,0,B|128:320,1,110,2|2,0:0|0:0,0:0:0:0:
256,320,90670,1,2,0:0:0:0:
256,288,90789,1,0,0:0:0:0:
256,256,90908,1,2,0:0:0:0:
256,224,91028,1,0,0:0:0:0:
256,192,91147,2,0,B|144:192,1,110,0|2,0:0|0:0,0:0:0:0:
192,80,91623,5,0,0:0:0:0:
80,80,91861,1,2,0:0:0:0:
192,80,92099,1,0,0:0:0:0:
192,80,92337,2,0,B|320:80,1,110,2|2,0:0|0:0,0:0:0:0:
192,80,92813,2,0,B|192:192,1,110,0|2,0:0|0:0,0:0:0:0:
320,192,93289,1,0,0:0:0:0:
352,192,93408,1,0,0:0:0:0:
384,192,93528,1,2,0:0:0:0:
480,192,93766,5,0,0:0:0:0:
480,192,94004,2,0,B|480:304,1,110,2|2,0:0|0:0,0:0:0:0:
368,304,94480,1,2,0:0:0:0:
336,304,94599,1,0,0:0:0:0:
304,304,94718,1,2,0:0:0:0:
272,304,94837,1,0,0:0:0:0:
240,304,94956,1,2,0:0:0:0:
144,304,95194,6,0,B|144:194,1,110,2|2,0:0|0:0,0:0:0:0:
144,192,95670,2,0,B|254:192,1,110,0|2,0:0|0:0,0:0:0:0:
256,192,96147,1,0,0:0:0:0:
384,192,96385,2,0,B|494:192,2,110,2|0|2,0:0|0:0|0:0,0:0:0:0:
256,192,97099,1,0,0:0:0:0:
160,304,97337,1,6,0:0:0:0:
80,208,97575,1,0,0:0:0:0:
80,176,97694,1,0,0:0:0:0:
80,144,97813,1,2,0:0:0:0:
192,128,98051,2,0,B|304:128,2,110,2|0|2,0:0|0:0|0:0,0:0:0:0:
192,160,98766,5,0,0:0:0:0:
192,192,98885,1,0,0:0:0:0:
192,224,99004,1,2,0:0:0:0:
192,256,99123,1,2,0:0:0:0:
192,288,99242,1,6,0:0:0:0:
288,288,99480,6,0,B|416:288,1,110,0|2,0:0|0:0,0:0:0:0:
288,288,99956,2,0,B|288:160,1,110,0|2,0:0|0:0,0:0:0:0:
290,288,100432,2,8,B|400:288,1,110,0|2,0:0|0:0,0:0:0:0:
288,288,100908,2,0,B|288:178,1,110,0|2,0:0|0:0,0:0:0:0:
286,288,101385,2,0,B|176:288,1,110,2|0,0:0|0:0,0:0:0:0:
176,224,101861,1,2,0:0:0:0:
176,192,101980,1,0,0:0:0:0:
176,160,102099,1,0,0:0:0:0:
290,128,102337,2,8,B|400:128,1,110,2|4,0:0|0:0,0:0:0:0:
400,240,102813,1,2,0:0:0:0:
256,240,103051,5,0,0:0:0:0:
128,240,103289,2,0,B|128:128,2,110,2|2|0,0:0|0:0|0:0,0:0:0:0:
128,240,104004,1,2,0:0:0:0:
224,240,104242,1,0,0:0:0:0:
256,240,104361,1,0,0:0:0:0:
288,240,104480,1,2,0:0:0:0:
384,238,104718,2,0,B|384:128,1,110,0|2,0:0|0:0,0:0:0:0:
352,80,105194,6,0,B|208:80,1,110,0|2,0:0|0:0,0:0:0:0:
240,176,105670,1,0,0:0:0:0:
240,176,105789,1,0,0:0:0:0:
240,176,105908,2,0,B|384:176,1,110,2|2,0:0|0:0,0:0:0:0:
448,176,106385,1,0,0:0:0:0:
448,208,106504,1,0,0:0:0:0:
448,240,106623,1,2,0:0:0:0:
448,272,106742,1,2,0:0:0:0:
448,304,106861,1,4,0:0:0:0:
352,320,107099,5,0,0:0:0:0:
320,96,107337,1,2,0:0:0:0:
144,240,107575,1,2,0:0:0:0:
352,320,107813,1,0,0:0:0:0:
224,160,108051,1,2,0:0:0:0:
256,272,108289,1,2,0:0:0:0:
352,208,108528,1,2,0:0:0:0:
144,240,108766,1,0,0:0:0:0:
256,192,109004,6,0,B|146:192,3,110,2|0|2|2,0:0|0:0|0:0|0:0,0:0:0:0:
128,192,109956,1,0,0:0:0:0:
128,240,110075,1,0,0:0:0:0:
128,288,110194,1,2,0:0:0:0:
128,336,110313,1,0,0:0:0:0:
160,336,110432,1,2,0:0:0:0:
192,336,110551,1,0,0:0:0:0:
224,336,110670,1,4,0:0:0:0:
256,192,110908,12,0,112099,0:0:0:0:
256,192,112337,12,4,114004,0:0:0:0:
256,144,114242,6,4,B|256:256,1,110,0|4,0:0|0:0,0:0:0:0:
16,96,121861,6,0,B|128:96,1,110,0|4,0:0|0:0,0:0:0:0:
160,96,122337,1,0,0:0:0:0:
256,96,122575,1,0,0:0:0:0:
256,192,122813,1,0,0:0:0:0:
256,288,123051,1,8,0:0:0:0:
368,288,123289,2,0,B|480:288,1,110,0|0,0:0|0:0,0:0:0:0:
480,192,123766,1,0,0:0:0:0:
480,96,124004,6,0,B|352:96,1,110,0|0,0:0|0:0,0:0:0:0:
256,96,124480,2,0,B|201:96,3,55,0|0|0|0,0:0|0:0|0:0|0:0,0:0:0:0:
256,96,124956,1,8,0:0:0:0:
384,96,125194,1,0,0:0:0:0:
384,192,125432,1,8,0:0:0:0:
384,224,125551,1,0,0:0:0:0:
384,256,125670,1,8,0:0:0:0:
256,256,125908,6,0,B|128:256,1,110,4|0,0:0|0:0,0:0:0:0:
64,256,126385,1,0,0:0:0:0:
64,144,126623,1,0,0:0:0:0:
64,32,126861,2,0,B|192:32,1,110,8|0,0:0|0:0,0:0:0:0:
288,32,127337,1,0,0:0:0:0:
288,64,127456,1,0,0:0:0:0:
288,96,127575,1,0,0:0:0:0:
288,128,127694,1,0,0:0:0:0:
288,176,127813,6,0,B|400:176,1,110
398,176,128289,2,0,B|400:288,1,110
399,285,128766,2,0,B|256:288,1,110,8|0,0:0|0:0,0:0:0:0:
192,288,129242,1,12,0:0:0:0:
160,288,129361,1,0,0:0:0:0:
128,288,129480,1,8,0:0:0:0:
48,208,129718,6,0,B|128:112,1,110
224,128,130194,2,0,B|352:128,2,110,0|0|8,0:0|0:0|0:0,0:0:0:0:
96,128,130908,1,0,0:0:0:0:
96,160,131028,1,0,0:0:0:0:
96,192,131147,1,0,0:0:0:0:
96,304,131385,2,0,B|208:256,1,110
314,260,131861,2,0,B|416:304,3,110,0|0|0|8,0:0|0:0|0:0|0:0,0:0:0:0:
416,160,132813,1,0,0:0:0:0:
416,128,132932,1,0,0:0:0:0:
416,96,133051,5,0,0:0:0:0:
416,64,133289,2,0,B|288:64,1,110
192,64,133766,2,0,B|80:144,1,110
96,256,134242,2,0,B|192:352,2,110,0|8|0,0:0|0:0|0:0,0:0:0:0:
64,192,134956,2,0,B|9:192,2,55
224,192,135432,1,0,0:0:0:0:
224,192,135670,1,0,0:0:0:0:
368,192,135908,1,0,0:0:0:0:
368,192,136147,1,0,0:0:0:0:
304,64,136385,1,8,0:0:0:0:
304,64,136623,5,0,0:0:0:0:
448,64,136861,1,0,0:0:0:0:
448,64,136980,1,0,0:0:0:0:
448,64,137099,1,0,0:0:0:0:
368,192,137337,1,4,0:0:0:0:
256,192,141504,12,4,144956,0:0:0:0:
80,192,145432,6,0,B|192:192|192:192|256:304,1,220,0|8,0:0|0:0,0:0:0:0:
288,352,146147,2,0,B|400:352|400:352|448:256,1,220
448,176,146861,2,0,B|368:97,1,110
286,80,147337,2,0,L|176:80,1,110
112,160,147813,2,0,B|12:240,1,110,8|0,0:0|0:0,0:0:0:0:
32,320,148289,2,0,B|86:318,2,55
205,319,148766,6,0,B|315:319,1,110
416,240,149242,2,0,B|304:192,1,110
197,196,149718,2,0,B|96:240,1,110,8|0,0:0|0:0,0:0:0:0:
256,368,150194,2,0,L|256:256,1,110
416,160,150670,2,0,B|304:208,1,110
197,203,151146,2,0,B|95:159,1,110,0|0,0:0|0:0,0:0:0:0:
256,128,151623,2,0,B|257:19,2,110,8|0|0,0:0|0:0|0:0,0:0:0:0:
64,192,152575,5,0,0:0:0:0:
256,352,153051,1,0,0:0:0:0:
256,32,153528,1,12,0:0:0:0:
64,192,154004,1,4,0:0:0:0:
256,352,154480,1,0,0:0:0:0:
448,192,154956,1,0,0:0:0:0:
64,192,155432,1,12,0:0:0:0:
256,32,155909,1,4,0:0:0:0:
144,192,156385,5,0,0:0:0:0:
144,352,156861,1,0,0:0:0:0:
256,256,157337,1,12,0:0:0:0:
256,128,157813,1,4,0:0:0:0:
384,128,158289,1,0,0:0:0:0:
256,256,158766,1,0,0:0:0:0:
128,128,159242,1,12,0:0:0:0:
256,192,159480,1,12,0:0:0:0:
128,288,159718,1,12,0:0:0:0:
256,288,159956,2,2,B|384:288,2,110,0|0|0,0:0|0:0|0:0,0:0:0:0:
256,288,160908,5,8,0:0:0:0:
112,192,161623,5,0,0:0:0:0:
176,80,161861,1,0,0:0:0:0:
256,192,162099,1,8,0:0:0:0:
176,304,162575,1,0,0:0:0:0:
112,192,162813,1,0,0:0:0:0:
176,80,163051,1,8,0:0:0:0:
256,192,163289,1,0,0:0:0:0:
336,304,163528,1,8,0:0:0:0:
400,192,163766,1,8,0:0:0:0:
336,80,164004,1,4,0:0:0:0:
256,80,164242,1,0,0:0:0:0:
192,80,164480,5,0,0:0:0:0:
320,80,164718,1,0,0:0:0:0:
144,80,164956,1,8,0:0:0:0:
368,80,165194,1,0,0:0:0:0:
256,96,165670,1,0,0:0:0:0:
160,240,165908,5,8,0:0:0:0:
160,240,166147,1,0,0:0:0:0:
352,240,166385,1,8,0:0:0:0:
352,240,166623,1,0,0:0:0:0:
256,96,166861,1,8,0:0:0:0:
256,96,167099,1,0,0:0:0:0:
256,192,167337,1,8,0:0:0:0:
160,240,167575,1,8,0:0:0:0:
96,258,167813,6,0,B|96:64|96:64|352:64|344:64,1,440,0|8,0:0|0:0,0:0:0:0:
342,64,169004,1,0,0:0:0:0:
416,64,169242,1,0,0:0:0:0:
424,141,169718,2,0,B|424:336|424:336|168:336|176:336,1,440,0|8,0:0|0:0,0:0:0:0:
179,336,170908,1,0,0:0:0:0:
96,336,171147,1,0,0:0:0:0:
256,304,171623,5,0,0:0:0:0:
256,192,171861,1,0,0:0:0:0:
128,192,172099,1,0,0:0:0:0:
256,192,172337,1,0,0:0:0:0:
384,192,172575,1,8,0:0:0:0:
256,80,172813,1,0,0:0:0:0:
128,192,173051,1,8,0:0:0:0:
256,304,173289,1,8,0:0:0:0:
256,192,173528,12,4,175432,0:0:0:0:
64,64,190670,5,8,0:0:0:0:
128,160,190908,1,0,0:0:0:0:
192,64,191147,1,0,0:0:0:0:
256,160,191385,1,0,0:0:0:0:
192,256,191623,1,8,0:0:0:0:
119,163,191861,1,0,0:0:0:0:
64,64,192099,1,0,0:0:0:0:
192,64,192337,1,0,0:0:0:0:
256,160,192575,5,8,0:0:0:0:
320,256,192813,1,0,0:0:0:0:
384,160,193051,1,0,0:0:0:0:
320,64,193289,1,0,0:0:0:0:
272,192,193528,2,8,B|384:192,3,110,8|0|8|8,0:0|0:0|0:0|0:0,0:0:0:0:
272,192,194480,6,0,B|272:80,1,110,0|0,0:0|0:0,0:0:0:0:
64,192,195194,1,8,0:0:0:0:
256,192,195670,2,0,B|144:192,1,110,0|8,0:0|0:0,0:0:0:0:
256,192,196147,2,0,B|256:320,1,110,0|8,0:0|0:0,0:0:0:0:
256,192,196623,2,0,B|368:192,1,110,0|8,0:0|0:0,0:0:0:0:
256,192,197099,2,0,B|256:80,3,110,8|0|8|8,0:0|0:0|0:0|0:0,0:0:0:0:
256,192,198051,5,4,0:0:0:0:
128,192,198289,1,0,0:0:0:0:
128,192,198528,1,0,0:0:0:0:
384,192,199004,1,8,0:0:0:0:
256,64,199480,1,0,0:0:0:0:
256,192,199718,1,8,0:0:0:0:
176,304,199956,1,0,0:0:0:0:
336,304,200194,1,0,0:0:0:0:
128,192,200670,5,0,0:0:0:0:
176,304,200909,1,0,0:0:0:0:
256,192,201147,1,8,0:0:0:0:
352,96,201385,1,0,0:0:0:0:
160,96,201623,1,0,0:0:0:0:
256,192,201861,1,0,0:0:0:0:
336,304,202099,1,8,0:0:0:0:
176,304,202337,1,8,0:0:0:0:
256,192,202575,1,8,0:0:0:0:
336,304,202813,1,8,0:0:0:0:
256,192,203051,12,0,205908,0:0:0:0:
80,288,206147,6,0,B|208:288,1,110,0|2,0:0|0:0,0:0:0:0:
432,288,206623,2,0,B|272:288,1,110,0|2,0:0|0:0,0:0:0:0:
256,288,207099,1,0,0:0:0:0:
256,288,207218,1,0,0:0:0:0:
256,288,207337,2,0,B|256:176,1,110,2|0,0:0|0:0,0:0:0:0:
256,80,207813,1,2,0:0:0:0:
256,80,208052,2,0,B|384:80,3,110,0|2|0|2,0:0|0:0|0:0|0:0,0:0:0:0:
336,144,209004,1,0,0:0:0:0:
336,176,209123,1,0,0:0:0:0:
336,208,209242,2,0,B|192:208,1,110,2|2,0:0|0:0,0:0:0:0:
208,320,209718,6,0,B|288:320|288:320|336:320,1,110,4|2,0:0|0:0,0:0:0:0:
320,192,210194,1,0,0:0:0:0:
176,192,210433,1,2,0:0:0:0:
96,320,210671,1,2,0:0:0:0:
192,320,210909,1,0,0:0:0:0:
224,320,211028,1,0,0:0:0:0:
256,320,211147,1,2,0:0:0:0:
368,320,211385,6,0,B|368:208,1,110,2|2,0:0|0:0,0:0:0:0:
256,192,211861,1,4,0:0:0:0:
128,192,212099,2,0,B|128:64,1,110,2|2,0:0|0:0,0:0:0:0:
256,48,212575,1,2,0:0:0:0:
256,80,212694,1,0,0:0:0:0:
256,112,212813,1,2,0:0:0:0:
256,144,212933,1,0,0:0:0:0:
256,192,213052,2,0,B|128:192,1,110,0|2,0:0|0:0,0:0:0:0:
192,304,213528,5,0,0:0:0:0:
80,304,213766,1,2,0:0:0:0:
192,304,214004,1,0,0:0:0:0:
192,304,214242,2,0,B|320:304,1,110,0|2,0:0|0:0,0:0:0:0:
192,304,214718,2,0,B|192:192,1,110,0|2,0:0|0:0,0:0:0:0:
320,192,215194,1,0,0:0:0:0:
352,192,215313,1,0,0:0:0:0:
384,192,215433,1,2,0:0:0:0:
480,192,215671,5,0,0:0:0:0:
480,192,215909,2,0,B|480:80,1,110,2|2,0:0|0:0,0:0:0:0:
368,80,216385,1,2,0:0:0:0:
336,80,216504,1,0,0:0:0:0:
304,80,216623,1,2,0:0:0:0:
272,80,216742,1,0,0:0:0:0:
240,80,216861,1,2,0:0:0:0:
144,80,217099,6,0,B|144:190,1,110,2|2,0:0|0:0,0:0:0:0:
144,192,217575,2,0,B|254:192,1,110,0|2,0:0|0:0,0:0:0:0:
256,192,218052,1,0,0:0:0:0:
384,192,218290,2,0,B|494:192,2,110,2|0|2,0:0|0:0|0:0,0:0:0:0:
256,192,219004,1,0,0:0:0:0:
160,80,219242,1,6,0:0:0:0:
80,176,219480,1,0,0:0:0:0:
80,208,219599,1,2,0:0:0:0:
80,256,219718,1,0,0:0:0:0:
192,256,219956,2,0,B|304:256,2,110,2|0|2,0:0|0:0|0:0,0:0:0:0:
192,224,220671,5,0,0:0:0:0:
192,192,220790,1,0,0:0:0:0:
192,160,220909,1,0,0:0:0:0:
192,128,221028,1,2,0:0:0:0:
192,96,221147,1,6,0:0:0:0:
288,96,221385,6,0,B|416:96,1,110,0|2,0:0|0:0,0:0:0:0:
288,96,221861,2,0,B|288:224,1,110,0|2,0:0|0:0,0:0:0:0:
290,96,222337,2,8,B|400:96,1,110,0|2,0:0|0:0,0:0:0:0:
288,96,222813,2,0,B|288:206,1,110,0|2,0:0|0:0,0:0:0:0:
286,96,223290,2,0,B|176:96,1,110,2|0,0:0|0:0,0:0:0:0:
176,160,223766,1,2,0:0:0:0:
176,192,223885,1,0,0:0:0:0:
176,224,224004,1,0,0:0:0:0:
290,256,224242,2,8,B|400:256,1,110,2|0,0:0|0:0,0:0:0:0:
400,144,224718,1,6,0:0:0:0:
256,144,224956,5,0,0:0:0:0:
128,144,225194,2,0,B|128:256,2,110,2|2|0,0:0|0:0|0:0,0:0:0:0:
128,144,225909,1,2,0:0:0:0:
224,144,226147,1,0,0:0:0:0:
256,144,226266,1,0,0:0:0:0:
288,144,226385,1,2,0:0:0:0:
384,146,226623,2,0,B|384:256,1,110,0|2,0:0|0:0,0:0:0:0:
352,304,227099,6,0,B|208:304,1,110,0|2,0:0|0:0,0:0:0:0:
240,208,227575,1,0,0:0:0:0:
240,208,227694,1,0,0:0:0:0:
240,208,227813,2,0,B|384:208,1,110,2|2,0:0|0:0,0:0:0:0:
448,208,228290,1,0,0:0:0:0:
448,176,228409,1,0,0:0:0:0:
448,144,228528,1,2,0:0:0:0:
448,112,228647,1,2,0:0:0:0:
448,80,228766,1,4,0:0:0:0:
352,64,229004,5,0,0:0:0:0:
320,288,229242,1,2,0:0:0:0:
144,144,229480,1,2,0:0:0:0:
352,64,229718,1,0,0:0:0:0:
224,224,229956,1,2,0:0:0:0:
256,112,230194,1,2,0:0:0:0:
352,176,230433,1,2,0:0:0:0:
144,144,230671,1,0,0:0:0:0:
256,192,230909,6,0,B|146:192,3,110,2|0|2|2,0:0|0:0|0:0|0:0,0:0:0:0:
128,192,231861,1,0,0:0:0:0:
128,144,231980,1,0,0:0:0:0:
128,96,232099,1,2,0:0:0:0:
128,48,232218,1,0,0:0:0:0:
160,48,232337,1,2,0:0:0:0:
192,48,232456,1,0,0:0:0:0:
224,48,232575,1,4,0:0:0:0:
256,192,232813,12,4,235908,0:0:0:0:
368,320,236385,5,0,0:0:0:0:
368,320,236623,2,0,B|240:320,1,110,0|8,0:0|0:0,0:0:0:0:
160,320,237099,1,0,0:0:0:0:
128,288,237218,1,0,0:0:0:0:
96,256,237337,1,8,0:0:0:0:
32,192,237575,2,8,B|124:132,1,110
240,96,238289,5,8,0:0:0:0:
272,96,238409,1,8,0:0:0:0:
304,96,238528,1,8,0:0:0:0:
336,96,238647,1,8,0:0:0:0:
384,96,238766,1,8,0:0:0:0:
384,128,238885,1,0,0:0:0:0:
384,160,239004,1,8,0:0:0:0:
384,192,239123,1,0,0:0:0:0:
384,224,239242,1,8,0:0:0:0:
384,224,239480,2,8,B|256:288,1,110
208,256,240194,6,0,B|80:176,2,110,8|0|8,0:0|0:0|0:0,0:0:0:0:
304,288,240909,1,8,0:0:0:0:
352,288,241028,1,8,0:0:0:0:
384,256,241147,1,8,0:0:0:0:
320,192,241385,1,8,0:0:0:0:
192,192,241623,1,8,0:0:0:0:
256,96,241861,2,0,B|400:48,5,110,0|8|0|8|0|8,0:0|0:0|0:0|0:0|0:0|0:0,0:0:0:0:
464,80,243289,2,0,B|464:240,1,110,8|0,0:0|0:0,0:0:0:0:
384,192,244004,5,8,0:0:0:0:
256,192,244242,1,0,0:0:0:0:
128,192,244480,1,0,0:0:0:0:
192,80,244718,1,8,0:0:0:0:
320,80,244956,1,8,0:0:0:0:
256,192,245194,1,8,0:0:0:0:
192,304,245432,1,4,0:0:0:0:
160,192,245908,5,8,0:0:0:0:
160,240,246028,1,8,0:0:0:0:
176,272,246147,1,8,0:0:0:0:
208,304,246266,1,8,0:0:0:0:
256,320,246385,1,0,0:0:0:0:
304,304,246504,1,8,0:0:0:0:
336,272,246623,1,8,0:0:0:0:
352,240,246742,1,8,0:0:0:0:
352,192,246861,1,8,0:0:0:0:
256,192,247099,2,8,B|257:49,1,110
256,240,247813,5,8,0:0:0:0:
192,368,248051,1,0,0:0:0:0:
320,368,248289,1,0,0:0:0:0:
256,240,248528,1,8,0:0:0:0:
192,368,248766,1,8,0:0:0:0:
320,368,249004,1,8,0:0:0:0:
256,144,249242,5,0,0:0:0:0:
336,272,249480,1,8,0:0:0:0:
176,272,249718,1,8,0:0:0:0:
256,192,249956,1,0,0:0:0:0:
256,144,250194,1,8,0:0:0:0:
256,96,250432,1,8,0:0:0:0:
64,192,251147,6,0,B|176:192,1,110,0|2,0:0|0:0,0:0:0:0:
448,192,252099,6,2,B|304:192,1,110
256,192,253051,6,0,B|256:304,3,110,2|0|10|2,0:0|0:0|0:0|0:0,0:0:0:0:
256,192,254480,5,4,0:0:0:0:
