osu file format v12

[General]
AudioFilename: Rotterdam Cirno.mp3
AudioLeadIn: 1500
PreviewTime: 63590
Countdown: 0
SampleSet: Normal
StackLeniency: 0.7
Mode: 1
LetterboxInBreaks: 0
SkinPreference:taiko

[Editor]
Bookmarks: 1190,10790,34790,44390,53990,65990,75590,104390
DistanceSpacing: 0.8
BeatDivisor: 2
GridSize: 8

[Metadata]
Title:Rotterdam Cirno
TitleUnicode:Rotterdam Cirno
Artist:AU
ArtistUnicode:AU
Creator:OnosakiHito
Version:Kantan
Source:Touhou
Tags:taiko no tatsujin rotter tarmination NicoNicoDouga jiiro jiro zun
BeatmapID:228559
BeatmapSetID:82259

[Difficulty]
HPDrainRate:4
CircleSize:4
OverallDifficulty:4
ApproachRate:5
SliderMultiplier:1.2
SliderTickRate:1

[Events]
//Background and Video events
0,0,"Taiko_BG.jpg",0,0
//Break Periods
//Storyboard Layer 0 (Background)
//Storyboard Layer 1 (Fail)
//Storyboard Layer 2 (Pass)
//Storyboard Layer 3 (Foreground)
//Storyboard Sound Samples
//Background Colour Transformations
3,100,163,162,255

[TimingPoints]
1190,300,4,1,0,100,1,0
75590,-100,4,1,0,100,0,1
104390,-100,4,1,0,100,0,0

[HitObjects]
256,192,1190,1,0,0:0:0:0:
256,192,1490,1,0,0:0:0:0:
256,192,2390,1,0,0:0:0:0:
256,192,2990,5,8,0:0:0:0:
256,192,3590,5,0,0:0:0:0:
256,192,3890,1,0,0:0:0:0:
256,192,4790,1,0,0:0:0:0:
256,192,5390,5,8,0:0:0:0:
256,192,5990,5,0,0:0:0:0:
256,192,6290,1,0,0:0:0:0:
256,192,7190,1,0,0:0:0:0:
256,192,7790,5,8,0:0:0:0:
256,192,8390,5,0,0:0:0:0:
256,192,8990,1,0,0:0:0:0:
256,192,9590,1,0,0:0:0:0:
256,192,9890,1,0,0:0:0:0:
256,192,10190,1,0,0:0:0:0:
256,192,10790,1,0,0:0:0:0:
256,192,11990,5,8,0:0:0:0:
256,192,13190,5,0,0:0:0:0:
256,192,14390,5,8,0:0:0:0:
256,192,15590,5,0,0:0:0:0:
256,192,15890,1,0,0:0:0:0:
256,192,16490,1,8,0:0:0:0:
256,192,16790,5,0,0:0:0:0:
256,192,17090,1,0,0:0:0:0:
256,192,17690,5,8,0:0:0:0:
256,192,17990,5,0,0:0:0:0:
256,192,18290,1,0,0:0:0:0:
256,192,18590,1,0,0:0:0:0:
256,192,19190,5,8,0:0:0:0:
256,192,20390,5,0,0:0:0:0:
256,192,20690,1,0,0:0:0:0:
256,192,21590,5,8,0:0:0:0:
256,192,22790,5,0,0:0:0:0:
256,192,23090,1,0,0:0:0:0:
256,192,23390,1,0,0:0:0:0:
256,192,23990,5,8,0:0:0:0:
256,192,24290,1,8,0:0:0:0:
256,192,24590,1,8,0:0:0:0:
256,192,25190,5,0,0:0:0:0:
256,192,25790,1,0,0:0:0:0:
256,192,26390,1,0,0:0:0:0:
256,192,27590,5,8,0:0:0:0:
256,192,28790,5,0,0:0:0:0:
256,192,29990,5,8,0:0:0:0:
256,192,30290,1,8,0:0:0:0:
256,192,30590,1,8,0:0:0:0:
256,192,31190,5,0,0:0:0:0:
256,192,31490,1,0,0:0:0:0:
256,192,31790,1,0,0:0:0:0:
256,192,32390,5,8,0:0:0:0:
256,192,32990,5,0,0:0:0:0:
256,192,33590,5,8,0:0:0:0:
256,192,33890,1,8,0:0:0:0:
256,192,34190,1,8,0:0:0:0:
256,192,34790,5,0,0:0:0:0:
256,192,35990,1,0,0:0:0:0:
256,192,37190,1,0,0:0:0:0:
256,192,38390,1,0,0:0:0:0:
256,192,38990,1,0,0:0:0:0:
256,192,39590,1,0,0:0:0:0:
256,192,40790,1,0,0:0:0:0:
256,192,41990,1,0,0:0:0:0:
256,192,43190,1,0,0:0:0:0:
256,192,43790,1,0,0:0:0:0:
256,192,44390,1,0,0:0:0:0:
256,192,44690,5,8,0:0:0:0:
256,192,45290,1,8,0:0:0:0:
256,192,45590,5,0,0:0:0:0:
256,192,46790,1,0,0:0:0:0:
256,192,47090,5,8,0:0:0:0:
256,192,47690,1,8,0:0:0:0:
256,192,47990,5,0,0:0:0:0:
256,192,49190,1,0,0:0:0:0:
256,192,49490,5,8,0:0:0:0:
256,192,50090,1,8,0:0:0:0:
256,192,50390,5,0,0:0:0:0:
256,192,51590,1,0,0:0:0:0:
256,192,51890,5,8,0:0:0:0:
256,192,52490,1,8,0:0:0:0:
256,192,52790,5,0,0:0:0:0:
256,192,53390,1,0,0:0:0:0:
256,192,53990,1,0,0:0:0:0:
256,192,54890,5,8,0:0:0:0:
256,192,55190,1,8,0:0:0:0:
256,192,56090,1,0,0:0:0:0:
256,192,56390,1,0,0:0:0:0:
256,192,57290,5,8,0:0:0:0:
256,192,57590,1,8,0:0:0:0:
256,192,58490,5,0,0:0:0:0:
256,192,58790,1,0,0:0:0:0:
256,192,59390,1,0,0:0:0:0:
256,192,59990,1,0,0:0:0:0:
256,192,60590,1,0,0:0:0:0:
256,192,61190,1,0,0:0:0:0:
256,192,61490,1,0,0:0:0:0:
256,192,61790,1,0,0:0:0:0:
256,192,62390,12,0,64190,0:0:0:0:
256,192,64790,5,8,0:0:0:0:
256,192,65090,1,8,0:0:0:0:
256,192,65390,1,8,0:0:0:0:
256,192,65990,5,0,0:0:0:0:
256,192,66590,5,8,0:0:0:0:
256,192,67190,5,0,0:0:0:0:
256,192,67490,1,0,0:0:0:0:
256,192,67790,1,0,0:0:0:0:
256,192,68390,5,8,0:0:0:0:
256,192,68990,5,0,0:0:0:0:
256,192,69590,5,8,0:0:0:0:
256,192,69890,1,8,0:0:0:0:
256,192,70190,1,8,0:0:0:0:
256,192,70790,5,0,0:0:0:0:
256,192,71390,5,8,0:0:0:0:
256,192,71990,5,0,0:0:0:0:
256,192,72290,1,0,0:0:0:0:
256,192,72590,1,0,0:0:0:0:
256,192,73190,5,8,0:0:0:0:
256,192,73790,1,0,0:0:0:0:
256,192,74390,5,12,0:0:0:0:
256,192,75590,5,0,0:0:0:0:
256,192,76190,5,8,0:0:0:0:
256,192,76790,5,0,0:0:0:0:
256,192,77390,1,0,0:0:0:0:
256,192,77990,5,8,0:0:0:0:
256,192,78590,5,0,0:0:0:0:
256,192,79190,5,8,0:0:0:0:
256,192,79490,1,8,0:0:0:0:
256,192,79790,1,8,0:0:0:0:
256,192,80390,5,0,0:0:0:0:
256,192,81590,5,8,0:0:0:0:
256,192,82790,5,0,0:0:0:0:
256,192,83390,5,8,0:0:0:0:
256,192,83990,5,0,0:0:0:0:
256,192,84290,1,0,0:0:0:0:
256,192,84590,1,0,0:0:0:0:
256,192,85190,5,8,0:0:0:0:
256,192,85790,5,0,0:0:0:0:
256,192,86390,5,8,0:0:0:0:
256,192,86990,1,8,0:0:0:0:
256,192,87590,5,0,0:0:0:0:
256,192,88190,5,8,0:0:0:0:
256,192,88790,5,0,0:0:0:0:
256,192,89090,1,0,0:0:0:0:
256,192,89390,1,0,0:0:0:0:
256,192,89990,5,8,0:0:0:0:
256,192,91190,5,0,0:0:0:0:
256,192,92390,5,8,0:0:0:0:
256,192,92990,5,0,0:0:0:0:
256,192,93590,5,8,0:0:0:0:
256,192,93890,1,8,0:0:0:0:
256,192,94190,1,8,0:0:0:0:
256,192,94790,5,0,0:0:0:0:
256,192,95090,1,0,0:0:0:0:
256,192,95390,1,0,0:0:0:0:
256,192,95990,5,8,0:0:0:0:
256,192,96290,1,8,0:0:0:0:
256,192,96590,1,8,0:0:0:0:
256,192,97190,5,0,0:0:0:0:
256,192,97790,5,8,0:0:0:0:
256,192,98390,5,0,0:0:0:0:
256,192,98690,1,0,0:0:0:0:
256,192,98990,1,0,0:0:0:0:
256,192,99590,5,8,0:0:0:0:
256,192,99890,1,8,0:0:0:0:
256,192,100190,1,8,0:0:0:0:
256,192,100790,5,0,0:0:0:0:
256,192,101090,1,0,0:0:0:0:
256,192,101390,1,0,0:0:0:0:
256,192,101990,5,8,0:0:0:0:
256,192,102590,5,0,0:0:0:0:
256,192,103190,5,8,0:0:0:0:
256,192,103490,1,8,0:0:0:0:
256,192,103790,1,12,0:0:0:0:
