osu file format v14

[General]
AudioFilename: Rochill Tarmination(9 voice edit).mp3
AudioLeadIn: 0
PreviewTime: 12887
Countdown: 0
SampleSet: Normal
StackLeniency: 0.7
Mode: 1
LetterboxInBreaks: 0
WidescreenStoryboard: 1

[Editor]
Bookmarks: -16,12884,32084,51300,60900,70493,82484,95100,96900,106500
DistanceSpacing: 1
BeatDivisor: 4
GridSize: 32
TimelineZoom: 2.750003

[Metadata]
Title:Rochill Tarmination(9 Voice Edit)
TitleUnicode:Rochill Tarmination(⑨ Voice Edit)
Artist:AU
ArtistUnicode:あう
Creator:OnosakiHito
Version:Ura Oni (abekobe)
Source:東方Project
Tags:rotter tarmination sampling masters MEGA Taiko no Tatsujin cirno tomboyish girl in love
BeatmapID:738539
BeatmapSetID:301204

[Difficulty]
HPDrainRate:6
CircleSize:5
OverallDifficulty:6
ApproachRate:5
SliderMultiplier:1.4
SliderTickRate:1

[Events]
//Background and Video events
0,0,"Taiko_BG.jpg",0,10
//Break Periods
//Storyboard Layer 0 (Background)
//Storyboard Layer 1 (Fail)
//Storyboard Layer 2 (Pass)
//Storyboard Layer 3 (Foreground)
//Storyboard Sound Samples

[TimingPoints]
887,300,4,1,0,100,1,0
82487,300,3,1,0,100,1,1
95087,-100,3,1,0,100,0,0
96887,300,4,1,0,100,1,1
106487,-100,4,1,0,100,0,0

[HitObjects]
256,192,887,5,12,0:0:0:0:
256,192,1112,5,0,0:0:0:0:
256,192,1187,1,0,0:0:0:0:
256,192,1337,1,0,0:0:0:0:
256,192,1487,5,8,0:0:0:0:
256,192,1712,5,0,0:0:0:0:
256,192,1787,1,0,0:0:0:0:
256,192,1937,1,0,0:0:0:0:
256,192,2087,5,8,0:0:0:0:
256,192,2237,5,0,0:0:0:0:
256,192,2312,1,0,0:0:0:0:
256,192,2387,1,0,0:0:0:0:
256,192,2537,5,8,0:0:0:0:
256,192,2687,5,0,0:0:0:0:
256,192,2762,1,0,0:0:0:0:
256,192,2837,1,0,0:0:0:0:
256,192,2912,1,0,0:0:0:0:
256,192,2987,5,8,0:0:0:0:
256,192,3137,5,0,0:0:0:0:
256,192,3287,5,12,0:0:0:0:
256,192,3512,5,0,0:0:0:0:
256,192,3587,1,0,0:0:0:0:
256,192,3737,1,0,0:0:0:0:
256,192,3887,5,8,0:0:0:0:
256,192,4112,5,0,0:0:0:0:
256,192,4187,1,0,0:0:0:0:
256,192,4337,1,0,0:0:0:0:
256,192,4487,5,8,0:0:0:0:
256,192,4637,5,0,0:0:0:0:
256,192,4712,1,0,0:0:0:0:
256,192,4787,5,8,0:0:0:0:
256,192,4937,5,8,0:0:0:0:
256,192,5087,5,0,0:0:0:0:
256,192,5162,1,0,0:0:0:0:
256,192,5237,1,0,0:0:0:0:
256,192,5312,1,0,0:0:0:0:
256,192,5387,5,8,0:0:0:0:
256,192,5537,5,0,0:0:0:0:
256,192,5687,5,12,0:0:0:0:
256,192,5912,5,0,0:0:0:0:
256,192,5987,1,0,0:0:0:0:
256,192,6137,1,0,0:0:0:0:
256,192,6287,5,8,0:0:0:0:
256,192,6512,5,0,0:0:0:0:
256,192,6587,1,0,0:0:0:0:
256,192,6737,1,0,0:0:0:0:
256,192,6887,5,8,0:0:0:0:
256,192,7037,5,0,0:0:0:0:
256,192,7112,1,0,0:0:0:0:
256,192,7187,1,0,0:0:0:0:
256,192,7337,5,8,0:0:0:0:
256,192,7487,5,0,0:0:0:0:
256,192,7562,1,0,0:0:0:0:
256,192,7637,1,0,0:0:0:0:
256,192,7712,1,0,0:0:0:0:
256,192,7787,5,8,0:0:0:0:
256,192,7862,1,8,0:0:0:0:
256,192,7937,5,0,0:0:0:0:
256,192,8087,5,12,0:0:0:0:
256,192,8312,5,0,0:0:0:0:
256,192,8387,1,0,0:0:0:0:
256,192,8537,1,0,0:0:0:0:
256,192,8687,5,8,0:0:0:0:
256,192,8912,5,0,0:0:0:0:
256,192,8987,5,8,0:0:0:0:
256,192,9137,5,0,0:0:0:0:
256,192,9287,5,12,0:0:0:0:
256,192,9587,5,0,0:0:0:0:
256,192,9737,5,12,0:0:0:0:
256,192,10037,5,0,0:0:0:0:
256,192,10187,5,12,0:0:0:0:
256,192,10487,1,8,0:0:0:0:
256,192,10637,5,0,0:0:0:0:
256,192,10937,1,0,0:0:0:0:
256,192,11237,1,0,0:0:0:0:
256,192,11537,1,0,0:0:0:0:
256,192,11687,1,0,0:0:0:0:
256,192,11837,1,0,0:0:0:0:
256,192,11912,1,0,0:0:0:0:
256,192,11987,1,0,0:0:0:0:
256,192,12137,1,0,0:0:0:0:
256,192,12287,1,0,0:0:0:0:
256,192,12362,1,0,0:0:0:0:
256,192,12437,1,0,0:0:0:0:
256,192,12512,1,0,0:0:0:0:
256,192,12587,1,0,0:0:0:0:
256,192,12737,1,0,0:0:0:0:
256,192,12887,5,8,0:0:0:0:
256,192,13187,5,0,0:0:0:0:
256,192,13337,5,8,0:0:0:0:
256,192,13637,1,8,0:0:0:0:
256,192,13787,5,0,0:0:0:0:
256,192,13937,1,0,0:0:0:0:
256,192,14087,5,8,0:0:0:0:
256,192,14237,1,8,0:0:0:0:
256,192,14387,5,0,0:0:0:0:
256,192,14537,5,8,0:0:0:0:
256,192,14837,1,8,0:0:0:0:
256,192,14987,5,0,0:0:0:0:
256,192,15137,1,0,0:0:0:0:
256,192,15287,5,8,0:0:0:0:
256,192,15512,5,0,0:0:0:0:
256,192,15587,5,8,0:0:0:0:
256,192,15737,5,0,0:0:0:0:
256,192,15887,5,8,0:0:0:0:
256,192,16112,5,0,0:0:0:0:
256,192,16187,5,8,0:0:0:0:
256,192,16487,5,4,0:0:0:0:
256,192,16787,1,4,0:0:0:0:
256,192,16937,1,4,0:0:0:0:
256,192,17237,1,4,0:0:0:0:
256,192,17387,1,4,0:0:0:0:
256,192,17687,5,8,0:0:0:0:
256,192,17987,5,0,0:0:0:0:
256,192,18137,5,8,0:0:0:0:
256,192,18437,5,0,0:0:0:0:
256,192,18587,5,8,0:0:0:0:
256,192,18737,1,8,0:0:0:0:
256,192,18887,5,0,0:0:0:0:
256,192,19037,5,8,0:0:0:0:
256,192,19187,5,0,0:0:0:0:
256,192,19337,1,0,0:0:0:0:
256,192,19637,1,0,0:0:0:0:
256,192,19787,5,8,0:0:0:0:
256,192,19937,5,0,0:0:0:0:
256,192,20087,5,8,0:0:0:0:
256,192,20312,5,0,0:0:0:0:
256,192,20387,5,8,0:0:0:0:
256,192,20537,5,0,0:0:0:0:
256,192,20687,5,8,0:0:0:0:
256,192,20912,5,0,0:0:0:0:
256,192,20987,5,8,0:0:0:0:
256,192,21287,5,4,0:0:0:0:
256,192,21587,1,4,0:0:0:0:
256,192,21737,1,4,0:0:0:0:
256,192,22037,1,4,0:0:0:0:
256,192,22187,1,4,0:0:0:0:
256,192,22487,5,8,0:0:0:0:
256,192,22637,5,0,0:0:0:0:
256,192,22712,1,0,0:0:0:0:
256,192,22787,1,0,0:0:0:0:
256,192,22937,1,0,0:0:0:0:
256,192,23087,5,8,0:0:0:0:
256,192,23237,1,8,0:0:0:0:
256,192,23387,5,4,0:0:0:0:
256,192,23687,5,8,0:0:0:0:
256,192,23837,5,0,0:0:0:0:
256,192,23912,1,0,0:0:0:0:
256,192,23987,1,0,0:0:0:0:
256,192,24137,5,8,0:0:0:0:
256,192,24287,5,4,0:0:0:0:
256,192,24587,1,4,0:0:0:0:
256,192,24887,5,8,0:0:0:0:
256,192,25112,5,0,0:0:0:0:
256,192,25187,1,0,0:0:0:0:
256,192,25337,1,0,0:0:0:0:
256,192,25487,5,8,0:0:0:0:
256,192,25712,5,0,0:0:0:0:
256,192,25787,1,0,0:0:0:0:
256,192,25937,1,0,0:0:0:0:
256,192,26087,5,8,0:0:0:0:
256,192,26237,5,0,0:0:0:0:
256,192,26312,1,0,0:0:0:0:
256,192,26387,1,0,0:0:0:0:
256,192,26537,5,8,0:0:0:0:
256,192,26687,5,0,0:0:0:0:
256,192,26837,5,8,0:0:0:0:
256,192,26987,5,0,0:0:0:0:
256,192,27062,1,0,0:0:0:0:
256,192,27137,1,0,0:0:0:0:
256,192,27287,5,8,0:0:0:0:
256,192,27512,5,0,0:0:0:0:
256,192,27587,5,8,0:0:0:0:
256,192,27737,5,0,0:0:0:0:
256,192,27887,5,8,0:0:0:0:
256,192,28187,5,4,0:0:0:0:
256,192,28487,5,8,0:0:0:0:
256,192,28712,5,0,0:0:0:0:
256,192,28787,5,8,0:0:0:0:
256,192,28937,1,8,0:0:0:0:
256,192,29087,5,4,0:0:0:0:
256,192,29387,1,4,0:0:0:0:
256,192,29687,5,8,0:0:0:0:
256,192,29837,5,0,0:0:0:0:
256,192,29912,1,0,0:0:0:0:
256,192,29987,1,0,0:0:0:0:
256,192,30137,5,8,0:0:0:0:
256,192,30287,5,0,0:0:0:0:
256,192,30437,1,0,0:0:0:0:
256,192,30512,1,0,0:0:0:0:
256,192,30587,5,8,0:0:0:0:
256,192,30737,5,0,0:0:0:0:
256,192,30887,5,12,0:0:0:0:
256,192,31187,5,4,0:0:0:0:
256,192,31487,5,12,0:0:0:0:
256,192,31787,5,4,0:0:0:0:
256,192,32087,5,8,0:0:0:0:
256,192,32387,5,0,0:0:0:0:
256,192,32537,5,8,0:0:0:0:
256,192,32837,1,8,0:0:0:0:
256,192,32987,5,0,0:0:0:0:
256,192,33137,1,0,0:0:0:0:
256,192,33287,5,8,0:0:0:0:
256,192,33437,1,8,0:0:0:0:
256,192,33587,5,0,0:0:0:0:
256,192,33737,5,8,0:0:0:0:
256,192,34037,1,8,0:0:0:0:
256,192,34187,5,0,0:0:0:0:
256,192,34337,1,0,0:0:0:0:
256,192,34487,5,8,0:0:0:0:
256,192,34712,5,0,0:0:0:0:
256,192,34787,5,8,0:0:0:0:
256,192,34937,5,0,0:0:0:0:
256,192,35087,5,8,0:0:0:0:
256,192,35312,5,0,0:0:0:0:
256,192,35387,5,8,0:0:0:0:
256,192,35687,5,4,0:0:0:0:
256,192,35987,1,4,0:0:0:0:
256,192,36137,1,4,0:0:0:0:
256,192,36437,1,4,0:0:0:0:
256,192,36587,1,4,0:0:0:0:
256,192,36887,5,8,0:0:0:0:
256,192,37187,5,0,0:0:0:0:
256,192,37337,5,8,0:0:0:0:
256,192,37637,5,0,0:0:0:0:
256,192,37787,5,8,0:0:0:0:
256,192,37937,1,8,0:0:0:0:
256,192,38087,5,0,0:0:0:0:
256,192,38237,5,8,0:0:0:0:
256,192,38387,5,0,0:0:0:0:
256,192,38537,1,0,0:0:0:0:
256,192,38837,1,0,0:0:0:0:
256,192,38987,5,8,0:0:0:0:
256,192,39137,5,0,0:0:0:0:
256,192,39287,5,8,0:0:0:0:
256,192,39512,5,0,0:0:0:0:
256,192,39587,5,8,0:0:0:0:
256,192,39737,5,0,0:0:0:0:
256,192,39887,5,8,0:0:0:0:
256,192,40112,5,0,0:0:0:0:
256,192,40187,5,8,0:0:0:0:
256,192,40487,5,4,0:0:0:0:
256,192,40787,1,4,0:0:0:0:
256,192,40937,1,4,0:0:0:0:
256,192,41237,1,4,0:0:0:0:
256,192,41387,1,4,0:0:0:0:
256,192,41687,5,8,0:0:0:0:
256,192,41837,5,0,0:0:0:0:
256,192,41912,1,0,0:0:0:0:
256,192,41987,1,0,0:0:0:0:
256,192,42137,1,0,0:0:0:0:
256,192,42287,5,8,0:0:0:0:
256,192,42437,1,8,0:0:0:0:
256,192,42587,5,4,0:0:0:0:
256,192,42887,5,8,0:0:0:0:
256,192,43037,5,0,0:0:0:0:
256,192,43112,1,0,0:0:0:0:
256,192,43187,1,0,0:0:0:0:
256,192,43337,5,8,0:0:0:0:
256,192,43487,5,4,0:0:0:0:
256,192,43787,1,4,0:0:0:0:
256,192,44087,5,8,0:0:0:0:
256,192,44312,5,0,0:0:0:0:
256,192,44387,1,0,0:0:0:0:
256,192,44537,1,0,0:0:0:0:
256,192,44687,5,8,0:0:0:0:
256,192,44912,5,0,0:0:0:0:
256,192,44987,1,0,0:0:0:0:
256,192,45137,1,0,0:0:0:0:
256,192,45287,5,8,0:0:0:0:
256,192,45437,5,0,0:0:0:0:
256,192,45512,1,0,0:0:0:0:
256,192,45587,1,0,0:0:0:0:
256,192,45737,5,8,0:0:0:0:
256,192,45887,5,0,0:0:0:0:
256,192,46037,5,8,0:0:0:0:
256,192,46187,5,0,0:0:0:0:
256,192,46262,1,0,0:0:0:0:
256,192,46337,1,0,0:0:0:0:
256,192,46487,5,8,0:0:0:0:
256,192,46712,5,0,0:0:0:0:
256,192,46787,5,8,0:0:0:0:
256,192,46937,5,0,0:0:0:0:
256,192,47087,5,8,0:0:0:0:
256,192,47387,5,4,0:0:0:0:
256,192,47687,5,8,0:0:0:0:
256,192,47912,5,0,0:0:0:0:
256,192,47987,5,8,0:0:0:0:
256,192,48137,1,8,0:0:0:0:
256,192,48287,5,4,0:0:0:0:
256,192,48587,1,4,0:0:0:0:
256,192,48887,5,8,0:0:0:0:
256,192,49037,5,0,0:0:0:0:
256,192,49112,1,0,0:0:0:0:
256,192,49187,1,0,0:0:0:0:
256,192,49337,5,8,0:0:0:0:
256,192,49487,5,0,0:0:0:0:
256,192,49637,1,0,0:0:0:0:
256,192,49712,1,0,0:0:0:0:
256,192,49787,5,8,0:0:0:0:
256,192,49937,5,0,0:0:0:0:
256,192,50087,5,12,0:0:0:0:
256,192,51287,5,12,0:0:0:0:
256,192,51437,5,0,0:0:0:0:
256,192,51512,1,0,0:0:0:0:
256,192,51587,5,8,0:0:0:0:
256,192,51737,5,0,0:0:0:0:
256,192,51887,5,8,0:0:0:0:
256,192,52187,1,8,0:0:0:0:
256,192,52487,1,8,0:0:0:0:
256,192,52637,5,0,0:0:0:0:
256,192,52712,1,0,0:0:0:0:
256,192,52787,5,8,0:0:0:0:
256,192,52937,5,0,0:0:0:0:
256,192,53087,5,8,0:0:0:0:
256,192,53237,5,0,0:0:0:0:
256,192,53312,1,0,0:0:0:0:
256,192,53387,5,8,0:0:0:0:
256,192,53537,5,0,0:0:0:0:
256,192,53687,5,8,0:0:0:0:
256,192,53912,5,0,0:0:0:0:
256,192,53987,5,8,0:0:0:0:
256,192,54137,5,0,0:0:0:0:
256,192,54287,5,8,0:0:0:0:
256,192,54587,1,8,0:0:0:0:
256,192,54887,5,12,0:0:0:0:
256,192,55037,5,0,0:0:0:0:
256,192,55187,5,12,0:0:0:0:
256,192,55337,5,0,0:0:0:0:
256,192,55487,5,12,0:0:0:0:
256,192,55637,5,0,0:0:0:0:
256,192,55787,5,12,0:0:0:0:
256,192,56087,1,12,0:0:0:0:
256,192,56237,5,0,0:0:0:0:
256,192,56312,1,0,0:0:0:0:
256,192,56387,5,8,0:0:0:0:
256,192,56537,5,0,0:0:0:0:
256,192,56687,5,8,0:0:0:0:
256,192,56987,1,8,0:0:0:0:
256,192,57287,1,8,0:0:0:0:
256,192,57437,5,0,0:0:0:0:
256,192,57512,1,0,0:0:0:0:
256,192,57587,5,8,0:0:0:0:
256,192,57737,5,0,0:0:0:0:
256,192,57887,5,8,0:0:0:0:
256,192,58037,5,0,0:0:0:0:
256,192,58112,1,0,0:0:0:0:
256,192,58187,5,8,0:0:0:0:
256,192,58337,5,0,0:0:0:0:
256,192,58487,5,8,0:0:0:0:
256,192,58712,5,0,0:0:0:0:
256,192,58787,5,8,0:0:0:0:
256,192,58937,5,0,0:0:0:0:
256,192,59087,5,8,0:0:0:0:
256,192,59387,5,0,0:0:0:0:
256,192,59687,5,12,0:0:0:0:
256,192,60887,5,8,0:0:0:0:
256,192,60962,1,8,0:0:0:0:
256,192,61037,1,8,0:0:0:0:
256,192,61187,5,0,0:0:0:0:
256,192,61337,5,8,0:0:0:0:
256,192,61412,1,8,0:0:0:0:
256,192,61487,1,8,0:0:0:0:
256,192,61637,5,0,0:0:0:0:
256,192,61787,5,8,0:0:0:0:
256,192,61937,5,0,0:0:0:0:
256,192,62087,5,8,0:0:0:0:
256,192,62162,1,8,0:0:0:0:
256,192,62237,1,8,0:0:0:0:
256,192,62387,5,0,0:0:0:0:
256,192,62462,1,0,0:0:0:0:
256,192,62537,1,0,0:0:0:0:
256,192,62687,5,8,0:0:0:0:
256,192,62837,1,8,0:0:0:0:
256,192,62987,5,0,0:0:0:0:
256,192,63137,1,0,0:0:0:0:
256,192,63287,5,8,0:0:0:0:
256,192,63362,1,8,0:0:0:0:
256,192,63437,1,8,0:0:0:0:
256,192,63587,5,0,0:0:0:0:
256,192,63737,5,8,0:0:0:0:
256,192,63812,1,8,0:0:0:0:
256,192,63887,1,8,0:0:0:0:
256,192,64037,5,0,0:0:0:0:
256,192,64112,1,0,0:0:0:0:
256,192,64187,1,0,0:0:0:0:
256,192,64337,5,8,0:0:0:0:
256,192,64487,5,0,0:0:0:0:
256,192,64562,1,0,0:0:0:0:
256,192,64637,1,0,0:0:0:0:
256,192,64787,5,8,0:0:0:0:
256,192,64862,1,8,0:0:0:0:
256,192,64937,1,8,0:0:0:0:
256,192,65087,5,0,0:0:0:0:
256,192,65237,1,0,0:0:0:0:
256,192,65387,5,8,0:0:0:0:
256,192,65537,1,8,0:0:0:0:
256,192,65687,5,0,0:0:0:0:
256,192,65762,1,0,0:0:0:0:
256,192,65837,1,0,0:0:0:0:
256,192,65987,5,8,0:0:0:0:
256,192,66137,5,0,0:0:0:0:
256,192,66212,1,0,0:0:0:0:
256,192,66287,1,0,0:0:0:0:
256,192,66437,5,8,0:0:0:0:
256,192,66587,5,0,0:0:0:0:
256,192,66737,5,8,0:0:0:0:
256,192,66887,5,0,0:0:0:0:
256,192,66962,1,0,0:0:0:0:
256,192,67037,1,0,0:0:0:0:
256,192,67187,5,8,0:0:0:0:
256,192,67262,1,8,0:0:0:0:
256,192,67337,1,8,0:0:0:0:
256,192,67487,5,0,0:0:0:0:
256,192,67637,1,0,0:0:0:0:
256,192,67787,5,8,0:0:0:0:
256,192,67937,5,0,0:0:0:0:
256,192,68087,5,8,0:0:0:0:
256,192,68162,1,8,0:0:0:0:
256,192,68237,1,8,0:0:0:0:
256,192,68387,5,0,0:0:0:0:
256,192,68537,5,8,0:0:0:0:
256,192,68612,1,8,0:0:0:0:
256,192,68687,1,8,0:0:0:0:
256,192,68837,5,0,0:0:0:0:
256,192,68987,5,8,0:0:0:0:
256,192,69137,5,0,0:0:0:0:
256,192,69287,5,12,0:0:0:0:
256,192,70187,1,8,0:0:0:0:
256,192,70262,1,8,0:0:0:0:
256,192,70337,1,8,0:0:0:0:
256,192,70412,1,8,0:0:0:0:
256,192,70487,1,8,0:0:0:0:
256,192,70787,5,0,0:0:0:0:
256,192,71012,5,8,0:0:0:0:
256,192,71087,1,8,0:0:0:0:
256,192,71237,1,8,0:0:0:0:
256,192,71387,5,0,0:0:0:0:
256,192,71687,5,8,0:0:0:0:
256,192,71837,1,8,0:0:0:0:
256,192,71912,1,8,0:0:0:0:
256,192,71987,5,0,0:0:0:0:
256,192,72137,5,8,0:0:0:0:
256,192,72437,1,8,0:0:0:0:
256,192,72587,5,0,0:0:0:0:
256,192,72737,1,0,0:0:0:0:
256,192,72887,5,12,0:0:0:0:
256,192,73187,5,0,0:0:0:0:
256,192,73412,5,8,0:0:0:0:
256,192,73487,1,8,0:0:0:0:
256,192,73637,1,8,0:0:0:0:
256,192,73787,5,0,0:0:0:0:
256,192,74087,5,8,0:0:0:0:
256,192,74237,1,8,0:0:0:0:
256,192,74312,1,8,0:0:0:0:
256,192,74387,5,0,0:0:0:0:
256,192,74537,5,8,0:0:0:0:
256,192,74687,1,8,0:0:0:0:
256,192,74762,1,8,0:0:0:0:
256,192,74837,1,8,0:0:0:0:
256,192,74987,5,0,0:0:0:0:
256,192,75137,1,0,0:0:0:0:
256,192,75287,5,12,0:0:0:0:
256,192,75587,5,0,0:0:0:0:
256,192,75812,5,8,0:0:0:0:
256,192,75887,1,8,0:0:0:0:
256,192,76037,1,8,0:0:0:0:
256,192,76187,5,0,0:0:0:0:
256,192,76337,5,8,0:0:0:0:
256,192,76487,1,8,0:0:0:0:
256,192,76562,1,8,0:0:0:0:
256,192,76637,1,8,0:0:0:0:
256,192,76787,5,0,0:0:0:0:
256,192,76937,5,8,0:0:0:0:
256,192,77087,1,8,0:0:0:0:
256,192,77162,1,8,0:0:0:0:
256,192,77237,5,0,0:0:0:0:
256,192,77387,1,0,0:0:0:0:
256,192,77537,1,0,0:0:0:0:
256,192,77687,5,8,0:0:0:0:
256,192,77837,1,8,0:0:0:0:
256,192,77912,1,8,0:0:0:0:
256,192,77987,5,0,0:0:0:0:
256,192,78137,1,0,0:0:0:0:
256,192,78287,5,8,0:0:0:0:
256,192,78437,1,8,0:0:0:0:
256,192,78512,1,8,0:0:0:0:
256,192,78587,5,0,0:0:0:0:
256,192,78737,1,0,0:0:0:0:
256,192,78887,5,8,0:0:0:0:
256,192,79037,1,8,0:0:0:0:
256,192,79112,1,8,0:0:0:0:
256,192,79187,5,0,0:0:0:0:
256,192,79337,5,8,0:0:0:0:
256,192,79412,1,8,0:0:0:0:
256,192,79487,5,0,0:0:0:0:
256,192,79562,1,0,0:0:0:0:
256,192,79637,5,8,0:0:0:0:
256,192,79787,5,0,0:0:0:0:
256,192,79862,5,8,0:0:0:0:
256,192,79937,5,0,0:0:0:0:
256,192,80087,5,8,0:0:0:0:
256,192,80237,1,8,0:0:0:0:
256,192,80387,1,8,0:0:0:0:
256,192,80462,1,8,0:0:0:0:
256,192,80537,1,8,0:0:0:0:
256,192,80612,1,8,0:0:0:0:
256,192,80687,1,8,0:0:0:0:
256,192,80837,1,8,0:0:0:0:
256,192,80987,1,8,0:0:0:0:
256,192,81062,1,8,0:0:0:0:
256,192,81137,1,8,0:0:0:0:
256,192,81287,5,4,0:0:0:0:
256,192,81487,1,4,0:0:0:0:
256,192,81687,1,4,0:0:0:0:
256,192,81887,1,4,0:0:0:0:
256,192,82187,5,8,0:0:0:0:
256,192,82262,1,8,0:0:0:0:
256,192,82337,1,8,0:0:0:0:
256,192,82487,1,8,0:0:0:0:
256,192,82637,1,8,0:0:0:0:
256,192,82787,5,0,0:0:0:0:
256,192,82937,5,8,0:0:0:0:
256,192,83012,1,8,0:0:0:0:
256,192,83087,1,8,0:0:0:0:
256,192,83162,1,8,0:0:0:0:
256,192,83237,1,8,0:0:0:0:
256,192,83387,5,0,0:0:0:0:
256,192,83537,5,8,0:0:0:0:
256,192,83687,5,0,0:0:0:0:
256,192,83837,5,8,0:0:0:0:
256,192,83912,1,8,0:0:0:0:
256,192,83987,1,8,0:0:0:0:
256,192,84062,1,8,0:0:0:0:
256,192,84137,1,8,0:0:0:0:
256,192,84287,5,0,0:0:0:0:
256,192,84437,1,0,0:0:0:0:
256,192,84587,5,8,0:0:0:0:
256,192,84737,5,0,0:0:0:0:
256,192,84887,1,0,0:0:0:0:
256,192,85037,5,8,0:0:0:0:
256,192,85187,5,0,0:0:0:0:
256,192,85337,1,0,0:0:0:0:
256,192,85487,5,8,0:0:0:0:
256,192,85637,5,0,0:0:0:0:
256,192,85712,1,0,0:0:0:0:
256,192,85787,1,0,0:0:0:0:
256,192,85862,1,0,0:0:0:0:
256,192,85937,1,0,0:0:0:0:
256,192,86087,5,8,0:0:0:0:
256,192,86237,1,8,0:0:0:0:
256,192,86387,5,0,0:0:0:0:
256,192,86537,5,8,0:0:0:0:
256,192,86612,1,8,0:0:0:0:
256,192,86687,1,8,0:0:0:0:
256,192,86762,1,8,0:0:0:0:
256,192,86837,1,8,0:0:0:0:
256,192,86987,5,0,0:0:0:0:
256,192,87137,5,8,0:0:0:0:
256,192,87287,5,0,0:0:0:0:
256,192,87437,5,8,0:0:0:0:
256,192,87512,1,8,0:0:0:0:
256,192,87587,1,8,0:0:0:0:
256,192,87662,1,8,0:0:0:0:
256,192,87737,1,8,0:0:0:0:
256,192,87887,5,0,0:0:0:0:
256,192,88037,1,0,0:0:0:0:
256,192,88112,1,0,0:0:0:0:
256,192,88187,5,8,0:0:0:0:
256,192,88337,5,0,0:0:0:0:
256,192,88487,1,0,0:0:0:0:
256,192,88562,1,0,0:0:0:0:
256,192,88637,5,8,0:0:0:0:
256,192,88787,5,0,0:0:0:0:
256,192,89012,1,0,0:0:0:0:
256,192,89087,5,8,0:0:0:0:
256,192,89237,1,8,0:0:0:0:
256,192,89387,1,8,0:0:0:0:
256,192,89537,1,8,0:0:0:0:
256,192,89687,5,0,0:0:0:0:
256,192,89837,5,8,0:0:0:0:
256,192,89987,5,0,0:0:0:0:
256,192,90137,5,8,0:0:0:0:
256,192,90212,1,8,0:0:0:0:
256,192,90287,1,8,0:0:0:0:
256,192,90362,1,8,0:0:0:0:
256,192,90437,1,8,0:0:0:0:
256,192,90587,5,0,0:0:0:0:
256,192,90737,5,8,0:0:0:0:
256,192,90887,5,0,0:0:0:0:
256,192,91037,5,8,0:0:0:0:
256,192,91112,1,8,0:0:0:0:
256,192,91187,1,8,0:0:0:0:
256,192,91262,1,8,0:0:0:0:
256,192,91337,1,8,0:0:0:0:
256,192,91487,5,0,0:0:0:0:
256,192,91637,1,0,0:0:0:0:
256,192,91787,5,8,0:0:0:0:
256,192,91937,5,0,0:0:0:0:
256,192,92087,1,0,0:0:0:0:
256,192,92237,5,8,0:0:0:0:
256,192,92387,5,0,0:0:0:0:
256,192,92537,1,0,0:0:0:0:
256,192,92687,5,8,0:0:0:0:
256,192,92837,5,0,0:0:0:0:
256,192,92912,1,0,0:0:0:0:
256,192,92987,1,0,0:0:0:0:
256,192,93062,1,0,0:0:0:0:
256,192,93137,1,0,0:0:0:0:
256,192,93287,5,8,0:0:0:0:
256,192,93437,1,8,0:0:0:0:
256,192,93587,5,0,0:0:0:0:
256,192,93737,5,8,0:0:0:0:
256,192,93812,1,8,0:0:0:0:
256,192,93887,1,8,0:0:0:0:
256,192,93962,1,8,0:0:0:0:
256,192,94037,1,8,0:0:0:0:
256,192,94187,5,0,0:0:0:0:
256,192,94337,5,8,0:0:0:0:
256,192,94487,5,0,0:0:0:0:
256,192,94637,5,8,0:0:0:0:
256,192,94712,5,0,0:0:0:0:
256,192,94787,5,8,0:0:0:0:
256,192,94862,5,0,0:0:0:0:
256,192,94937,5,8,0:0:0:0:
256,192,95087,5,4,0:0:0:0:
256,192,96437,1,0,0:0:0:0:
256,192,96587,1,0,0:0:0:0:
256,192,96737,1,0,0:0:0:0:
256,192,96887,5,8,0:0:0:0:
256,192,96962,5,0,0:0:0:0:
256,192,97037,1,0,0:0:0:0:
256,192,97187,5,0,0:0:0:0:
256,192,97337,5,8,0:0:0:0:
256,192,97412,5,0,0:0:0:0:
256,192,97487,1,0,0:0:0:0:
256,192,97637,1,0,0:0:0:0:
256,192,97787,5,8,0:0:0:0:
256,192,97937,5,0,0:0:0:0:
256,192,98087,5,8,0:0:0:0:
256,192,98162,5,0,0:0:0:0:
256,192,98237,1,0,0:0:0:0:
256,192,98387,1,8,0:0:0:0:
256,192,98537,1,8,0:0:0:0:
256,192,98687,5,0,0:0:0:0:
256,192,98762,1,0,0:0:0:0:
256,192,98837,5,8,0:0:0:0:
256,192,98987,5,4,0:0:0:0:
256,192,99287,5,8,0:0:0:0:
256,192,99437,1,8,0:0:0:0:
256,192,99512,1,8,0:0:0:0:
256,192,99587,5,0,0:0:0:0:
256,192,99737,1,0,0:0:0:0:
256,192,99887,5,8,0:0:0:0:
256,192,100037,1,8,0:0:0:0:
256,192,100112,1,8,0:0:0:0:
256,192,100187,5,0,0:0:0:0:
256,192,100337,1,0,0:0:0:0:
256,192,100487,5,8,0:0:0:0:
256,192,100637,5,0,0:0:0:0:
256,192,100712,1,0,0:0:0:0:
256,192,100787,5,8,0:0:0:0:
256,192,100937,5,0,0:0:0:0:
256,192,101087,5,8,0:0:0:0:
256,192,101237,5,0,0:0:0:0:
256,192,101312,1,0,0:0:0:0:
256,192,101387,5,8,0:0:0:0:
256,192,101537,5,0,0:0:0:0:
256,192,101687,5,8,0:0:0:0:
256,192,101762,1,8,0:0:0:0:
256,192,101837,5,0,0:0:0:0:
256,192,101987,5,8,0:0:0:0:
256,192,102062,5,0,0:0:0:0:
256,192,102137,1,0,0:0:0:0:
256,192,102287,5,8,0:0:0:0:
256,192,102362,1,8,0:0:0:0:
256,192,102437,5,0,0:0:0:0:
256,192,102587,5,8,0:0:0:0:
256,192,102662,5,0,0:0:0:0:
256,192,102737,1,0,0:0:0:0:
256,192,102887,5,8,0:0:0:0:
256,192,102962,5,0,0:0:0:0:
256,192,103112,1,0,0:0:0:0:
256,192,103187,5,8,0:0:0:0:
256,192,103337,5,0,0:0:0:0:
256,192,103487,5,8,0:0:0:0:
256,192,103562,5,0,0:0:0:0:
256,192,103712,1,0,0:0:0:0:
256,192,103787,5,8,0:0:0:0:
256,192,103937,5,0,0:0:0:0:
256,192,104087,5,8,0:0:0:0:
256,192,104162,1,8,0:0:0:0:
256,192,104237,5,0,0:0:0:0:
256,192,104312,5,8,0:0:0:0:
256,192,104387,5,0,0:0:0:0:
256,192,104462,1,0,0:0:0:0:
256,192,104537,5,8,0:0:0:0:
256,192,104687,5,0,0:0:0:0:
256,192,104762,1,0,0:0:0:0:
256,192,104837,1,0,0:0:0:0:
256,192,104912,1,0,0:0:0:0:
256,192,104987,1,0,0:0:0:0:
256,192,105062,1,0,0:0:0:0:
256,192,105137,1,0,0:0:0:0:
256,192,105212,1,0,0:0:0:0:
256,192,105287,5,8,0:0:0:0:
256,192,105362,1,8,0:0:0:0:
256,192,105437,1,8,0:0:0:0:
256,192,105512,1,8,0:0:0:0:
256,192,105587,1,8,0:0:0:0:
256,192,105662,1,8,0:0:0:0:
256,192,105737,1,8,0:0:0:0:
256,192,105812,1,8,0:0:0:0:
256,192,105887,5,0,0:0:0:0:
256,192,106037,1,0,0:0:0:0:
256,192,106112,1,0,0:0:0:0:
256,192,106187,5,8,0:0:0:0:
256,192,106262,1,8,0:0:0:0:
256,192,106337,5,0,0:0:0:0:
256,192,106487,5,12,0:0:0:0:
