osu file format v14

[General]
AudioFilename: Rochill Tarmination(9 voice edit).mp3
AudioLeadIn: 0
PreviewTime: 12887
Countdown: 0
SampleSet: Normal
StackLeniency: 0.7
Mode: 1
LetterboxInBreaks: 0
WidescreenStoryboard: 1

[Editor]
Bookmarks: -16,12884,32084,51300,60900,70493,82484,95100,96900,106500
DistanceSpacing: 1
BeatDivisor: 4
GridSize: 32
TimelineZoom: 1.250003

[Metadata]
Title:Rochill Tarmination(9 Voice Edit)
TitleUnicode:Rochill Tarmination(⑨ Voice Edit)
Artist:AU
ArtistUnicode:あう
Creator:OnosakiHito
Version:Muzukashii
Source:東方Project
Tags:rotter tarmination sampling masters MEGA Taiko no Tatsujin cirno tomboyish girl in love
BeatmapID:675517
BeatmapSetID:301204

[Difficulty]
HPDrainRate:7
CircleSize:5
OverallDifficulty:5
ApproachRate:5
SliderMultiplier:1.4
SliderTickRate:1

[Events]
//Background and Video events
0,0,"Taiko_BG.jpg",0,10
//Break Periods
//Storyboard Layer 0 (Background)
//Storyboard Layer 1 (Fail)
//Storyboard Layer 2 (Pass)
//Storyboard Layer 3 (Foreground)
//Storyboard Sound Samples

[TimingPoints]
887,300,4,1,0,100,1,0
82487,300,3,1,0,100,1,1
95087,-100,3,1,0,100,0,0
96887,300,4,1,0,100,1,1
106487,-100,4,1,0,100,0,0

[HitObjects]
256,192,887,5,4,0:0:0:0:
256,192,1187,5,8,0:0:0:0:
256,192,1337,5,0,0:0:0:0:
256,192,1787,1,0,0:0:0:0:
256,192,2087,1,0,0:0:0:0:
256,192,2387,5,8,0:0:0:0:
256,192,2537,5,0,0:0:0:0:
256,192,2837,5,8,0:0:0:0:
256,192,2987,1,8,0:0:0:0:
256,192,3137,1,8,0:0:0:0:
256,192,3287,5,4,0:0:0:0:
256,192,3587,5,8,0:0:0:0:
256,192,3737,5,0,0:0:0:0:
256,192,4187,1,0,0:0:0:0:
256,192,4487,1,0,0:0:0:0:
256,192,4787,5,8,0:0:0:0:
256,192,4937,5,0,0:0:0:0:
256,192,5087,5,8,0:0:0:0:
256,192,5237,1,8,0:0:0:0:
256,192,5387,5,0,0:0:0:0:
256,192,5537,5,8,0:0:0:0:
256,192,5687,5,4,0:0:0:0:
256,192,5987,5,8,0:0:0:0:
256,192,6137,5,0,0:0:0:0:
256,192,6587,1,0,0:0:0:0:
256,192,6887,1,0,0:0:0:0:
256,192,7187,5,8,0:0:0:0:
256,192,7337,5,0,0:0:0:0:
256,192,7637,5,8,0:0:0:0:
256,192,7787,1,8,0:0:0:0:
256,192,7937,1,8,0:0:0:0:
256,192,8087,5,4,0:0:0:0:
256,192,8387,5,8,0:0:0:0:
256,192,8537,5,0,0:0:0:0:
256,192,8987,5,8,0:0:0:0:
256,192,9287,5,4,0:0:0:0:
256,192,9587,5,8,0:0:0:0:
256,192,9737,5,4,0:0:0:0:
256,192,10037,5,8,0:0:0:0:
256,192,10187,5,4,0:0:0:0:
256,192,10487,1,4,0:0:0:0:
256,192,11687,2,0,L|96:192,3,140
256,192,12887,5,0,0:0:0:0:
256,192,13187,5,8,0:0:0:0:
256,192,13637,5,8,0:0:0:0:
256,192,13787,5,8,0:0:0:0:
256,192,14087,5,0,0:0:0:0:
256,192,14387,5,8,0:0:0:0:
256,192,14537,1,8,0:0:0:0:
256,192,14837,1,8,0:0:0:0:
256,192,14987,1,8,0:0:0:0:
256,192,15287,5,0,0:0:0:0:
256,192,15587,1,0,0:0:0:0:
256,192,15887,1,0,0:0:0:0:
256,192,16187,1,0,0:0:0:0:
256,192,16487,5,12,0:0:0:0:
256,192,17387,1,12,0:0:0:0:
256,192,17687,5,0,0:0:0:0:
256,192,17987,5,8,0:0:0:0:
256,192,18437,1,8,0:0:0:0:
256,192,18587,1,8,0:0:0:0:
256,192,18887,5,0,0:0:0:0:
256,192,19187,5,8,0:0:0:0:
256,192,19337,1,8,0:0:0:0:
256,192,19637,1,8,0:0:0:0:
256,192,19787,1,8,0:0:0:0:
256,192,20087,5,0,0:0:0:0:
256,192,20387,1,0,0:0:0:0:
256,192,20687,1,0,0:0:0:0:
256,192,20987,1,0,0:0:0:0:
256,192,21287,5,12,0:0:0:0:
256,192,22187,1,12,0:0:0:0:
256,192,22487,5,0,0:0:0:0:
256,192,22637,5,8,0:0:0:0:
256,192,22937,5,8,0:0:0:0:
256,192,23087,5,0,0:0:0:0:
256,192,23387,5,12,0:0:0:0:
256,192,23687,5,0,0:0:0:0:
256,192,23837,5,8,0:0:0:0:
256,192,23987,5,0,0:0:0:0:
256,192,24137,5,8,0:0:0:0:
256,192,24287,5,4,0:0:0:0:
256,192,24587,5,12,0:0:0:0:
256,192,24887,5,0,0:0:0:0:
256,192,25187,5,8,0:0:0:0:
256,192,25637,5,0,0:0:0:0:
256,192,25787,5,8,0:0:0:0:
256,192,26087,5,0,0:0:0:0:
256,192,26237,1,0,0:0:0:0:
256,192,26387,5,8,0:0:0:0:
256,192,26537,1,8,0:0:0:0:
256,192,26987,5,8,0:0:0:0:
256,192,27287,5,0,0:0:0:0:
256,192,27587,5,8,0:0:0:0:
256,192,27737,5,0,0:0:0:0:
256,192,28187,5,12,0:0:0:0:
256,192,28487,5,0,0:0:0:0:
256,192,28787,5,8,0:0:0:0:
256,192,28937,5,0,0:0:0:0:
256,192,29087,5,12,0:0:0:0:
256,192,29387,1,12,0:0:0:0:
256,192,29687,5,0,0:0:0:0:
256,192,29837,1,0,0:0:0:0:
256,192,29987,5,8,0:0:0:0:
256,192,30287,5,8,0:0:0:0:
256,192,30437,1,8,0:0:0:0:
256,192,30587,5,0,0:0:0:0:
256,192,30887,5,12,0:0:0:0:
256,192,31187,1,12,0:0:0:0:
256,192,31487,1,12,0:0:0:0:
256,192,31787,1,12,0:0:0:0:
256,192,32087,5,4,0:0:0:0:
256,192,32387,5,8,0:0:0:0:
256,192,32837,1,8,0:0:0:0:
256,192,32987,1,8,0:0:0:0:
256,192,33287,5,0,0:0:0:0:
256,192,33587,5,8,0:0:0:0:
256,192,33737,1,8,0:0:0:0:
256,192,34037,1,8,0:0:0:0:
256,192,34187,5,8,0:0:0:0:
256,192,34487,5,0,0:0:0:0:
256,192,34787,1,0,0:0:0:0:
256,192,35087,1,0,0:0:0:0:
256,192,35387,1,0,0:0:0:0:
256,192,35687,5,12,0:0:0:0:
256,192,36587,1,12,0:0:0:0:
256,192,36887,5,0,0:0:0:0:
256,192,37187,5,8,0:0:0:0:
256,192,37637,1,8,0:0:0:0:
256,192,37787,1,8,0:0:0:0:
256,192,38087,5,0,0:0:0:0:
256,192,38387,5,8,0:0:0:0:
256,192,38537,1,8,0:0:0:0:
256,192,38837,1,8,0:0:0:0:
256,192,38987,1,8,0:0:0:0:
256,192,39287,5,0,0:0:0:0:
256,192,39587,1,0,0:0:0:0:
256,192,39887,1,0,0:0:0:0:
256,192,40187,1,0,0:0:0:0:
256,192,40487,5,12,0:0:0:0:
256,192,41387,1,12,0:0:0:0:
256,192,41687,5,0,0:0:0:0:
256,192,41837,5,8,0:0:0:0:
256,192,41987,5,0,0:0:0:0:
256,192,42137,5,8,0:0:0:0:
256,192,42587,1,12,0:0:0:0:
256,192,42887,5,0,0:0:0:0:
256,192,43037,5,8,0:0:0:0:
256,192,43187,5,0,0:0:0:0:
256,192,43487,5,12,0:0:0:0:
256,192,43787,1,12,0:0:0:0:
256,192,44087,5,0,0:0:0:0:
256,192,44237,1,0,0:0:0:0:
256,192,44387,5,8,0:0:0:0:
256,192,44837,5,0,0:0:0:0:
256,192,44987,5,8,0:0:0:0:
256,192,45287,5,0,0:0:0:0:
256,192,45587,5,8,0:0:0:0:
256,192,45737,5,0,0:0:0:0:
256,192,46187,5,8,0:0:0:0:
256,192,46487,5,0,0:0:0:0:
256,192,46637,5,8,0:0:0:0:
256,192,46787,5,0,0:0:0:0:
256,192,46937,5,8,0:0:0:0:
256,192,47387,1,12,0:0:0:0:
256,192,47687,5,0,0:0:0:0:
256,192,47837,5,8,0:0:0:0:
256,192,47987,5,0,0:0:0:0:
256,192,48287,5,12,0:0:0:0:
256,192,48587,1,12,0:0:0:0:
256,192,48887,5,0,0:0:0:0:
256,192,49037,1,0,0:0:0:0:
256,192,49187,5,8,0:0:0:0:
256,192,49337,1,8,0:0:0:0:
256,192,49487,5,0,0:0:0:0:
256,192,49637,1,0,0:0:0:0:
256,192,49787,5,8,0:0:0:0:
256,192,49937,1,8,0:0:0:0:
256,192,50087,5,4,0:0:0:0:
256,192,51287,1,0,0:0:0:0:
256,192,51437,5,8,0:0:0:0:
256,192,51587,5,0,0:0:0:0:
256,192,51737,5,8,0:0:0:0:
256,192,51887,5,0,0:0:0:0:
256,192,52187,1,0,0:0:0:0:
256,192,52487,1,0,0:0:0:0:
256,192,52637,5,8,0:0:0:0:
256,192,52787,5,0,0:0:0:0:
256,192,52937,5,8,0:0:0:0:
256,192,53087,5,0,0:0:0:0:
256,192,53237,5,8,0:0:0:0:
256,192,53387,5,0,0:0:0:0:
256,192,53537,5,8,0:0:0:0:
256,192,53687,5,0,0:0:0:0:
256,192,53987,1,0,0:0:0:0:
256,192,54137,5,8,0:0:0:0:
256,192,54287,5,0,0:0:0:0:
256,192,54887,1,4,0:0:0:0:
256,192,55187,1,4,0:0:0:0:
256,192,55487,1,4,0:0:0:0:
256,192,55787,1,4,0:0:0:0:
256,192,56087,1,0,0:0:0:0:
256,192,56237,5,8,0:0:0:0:
256,192,56387,5,0,0:0:0:0:
256,192,56537,5,8,0:0:0:0:
256,192,56687,5,0,0:0:0:0:
256,192,56987,1,0,0:0:0:0:
256,192,57287,1,0,0:0:0:0:
256,192,57437,5,8,0:0:0:0:
256,192,57587,5,0,0:0:0:0:
256,192,57737,5,8,0:0:0:0:
256,192,57887,5,0,0:0:0:0:
256,192,58037,5,8,0:0:0:0:
256,192,58187,5,0,0:0:0:0:
256,192,58337,5,8,0:0:0:0:
256,192,58487,5,0,0:0:0:0:
256,192,58787,1,0,0:0:0:0:
256,192,58937,5,8,0:0:0:0:
256,192,59087,5,0,0:0:0:0:
256,192,59387,5,8,0:0:0:0:
256,192,59687,5,4,0:0:0:0:
256,192,60887,1,0,0:0:0:0:
256,192,61187,5,8,0:0:0:0:
256,192,61337,5,0,0:0:0:0:
256,192,61637,5,8,0:0:0:0:
256,192,61937,1,8,0:0:0:0:
256,192,62087,5,0,0:0:0:0:
256,192,62387,5,8,0:0:0:0:
256,192,62687,1,8,0:0:0:0:
256,192,63287,5,0,0:0:0:0:
256,192,63587,5,8,0:0:0:0:
256,192,63737,5,0,0:0:0:0:
256,192,64037,5,8,0:0:0:0:
256,192,64337,1,8,0:0:0:0:
256,192,64487,5,0,0:0:0:0:
256,192,64637,1,0,0:0:0:0:
256,192,64787,5,8,0:0:0:0:
256,192,64937,1,8,0:0:0:0:
256,192,65087,1,8,0:0:0:0:
256,192,65687,5,0,0:0:0:0:
256,192,65987,5,8,0:0:0:0:
256,192,66137,5,0,0:0:0:0:
256,192,66437,5,8,0:0:0:0:
256,192,66737,1,8,0:0:0:0:
256,192,66887,5,0,0:0:0:0:
256,192,67187,5,8,0:0:0:0:
256,192,67487,1,8,0:0:0:0:
256,192,68087,5,0,0:0:0:0:
256,192,68387,5,8,0:0:0:0:
256,192,68537,5,0,0:0:0:0:
256,192,68837,5,8,0:0:0:0:
256,192,69137,1,8,0:0:0:0:
256,192,69287,5,4,0:0:0:0:
256,192,70187,5,8,0:0:0:0:
256,192,70262,1,8,0:0:0:0:
256,192,70337,1,8,0:0:0:0:
256,192,70487,5,0,0:0:0:0:
256,192,70787,5,12,0:0:0:0:
256,192,71087,5,0,0:0:0:0:
256,192,71237,1,0,0:0:0:0:
256,192,71387,5,12,0:0:0:0:
256,192,71687,5,0,0:0:0:0:
256,192,71987,5,12,0:0:0:0:
256,192,72137,5,0,0:0:0:0:
256,192,72587,5,12,0:0:0:0:
256,192,72887,5,0,0:0:0:0:
256,192,73187,5,12,0:0:0:0:
256,192,73487,5,0,0:0:0:0:
256,192,73637,1,0,0:0:0:0:
256,192,73787,5,12,0:0:0:0:
256,192,74087,5,0,0:0:0:0:
256,192,74387,5,12,0:0:0:0:
256,192,74537,5,0,0:0:0:0:
256,192,74837,5,12,0:0:0:0:
256,192,74987,1,12,0:0:0:0:
256,192,75287,5,0,0:0:0:0:
256,192,75587,5,12,0:0:0:0:
256,192,75887,5,0,0:0:0:0:
256,192,76037,1,0,0:0:0:0:
256,192,76187,5,12,0:0:0:0:
256,192,76487,5,0,0:0:0:0:
256,192,76787,5,12,0:0:0:0:
256,192,76937,5,0,0:0:0:0:
256,192,77387,5,12,0:0:0:0:
256,192,77687,5,0,0:0:0:0:
256,192,77837,1,0,0:0:0:0:
256,192,77987,5,8,0:0:0:0:
256,192,78137,1,8,0:0:0:0:
256,192,78287,5,0,0:0:0:0:
256,192,78437,1,0,0:0:0:0:
256,192,78587,5,8,0:0:0:0:
256,192,78737,1,8,0:0:0:0:
256,192,78887,5,0,0:0:0:0:
256,192,79187,1,0,0:0:0:0:
256,192,79487,5,8,0:0:0:0:
256,192,79637,1,8,0:0:0:0:
256,192,79787,1,8,0:0:0:0:
256,192,80087,6,0,L|96:192,3,140
256,192,81287,5,12,0:0:0:0:
256,192,81487,1,12,0:0:0:0:
256,192,81687,1,12,0:0:0:0:
256,192,81887,1,12,0:0:0:0:
256,192,82487,5,4,0:0:0:0:
256,192,82787,1,0,0:0:0:0:
256,192,82937,5,8,0:0:0:0:
256,192,83087,1,8,0:0:0:0:
256,192,83237,1,8,0:0:0:0:
256,192,83387,5,4,0:0:0:0:
256,192,83687,1,0,0:0:0:0:
256,192,83837,5,8,0:0:0:0:
256,192,84287,5,4,0:0:0:0:
256,192,84737,1,4,0:0:0:0:
256,192,85187,1,4,0:0:0:0:
256,192,85637,5,12,0:0:0:0:
256,192,86087,5,4,0:0:0:0:
256,192,86387,1,0,0:0:0:0:
256,192,86537,5,8,0:0:0:0:
256,192,86687,1,8,0:0:0:0:
256,192,86837,1,8,0:0:0:0:
256,192,86987,5,4,0:0:0:0:
256,192,87287,1,0,0:0:0:0:
256,192,87437,5,8,0:0:0:0:
256,192,87887,5,4,0:0:0:0:
256,192,88337,5,4,0:0:0:0:
256,192,88787,5,4,0:0:0:0:
256,192,89237,1,0,0:0:0:0:
256,192,89387,1,0,0:0:0:0:
256,192,89537,1,0,0:0:0:0:
256,192,89687,1,4,0:0:0:0:
256,192,89987,1,0,0:0:0:0:
256,192,90137,5,8,0:0:0:0:
256,192,90287,1,8,0:0:0:0:
256,192,90362,1,8,0:0:0:0:
256,192,90437,1,8,0:0:0:0:
256,192,90587,5,4,0:0:0:0:
256,192,90887,1,0,0:0:0:0:
256,192,91037,5,8,0:0:0:0:
256,192,91487,5,4,0:0:0:0:
256,192,91787,5,8,0:0:0:0:
256,192,91937,5,4,0:0:0:0:
256,192,92237,5,8,0:0:0:0:
256,192,92387,5,4,0:0:0:0:
256,192,92837,5,12,0:0:0:0:
256,192,93287,5,4,0:0:0:0:
256,192,93587,1,0,0:0:0:0:
256,192,93737,5,8,0:0:0:0:
256,192,93887,1,8,0:0:0:0:
256,192,94037,1,8,0:0:0:0:
256,192,94187,5,4,0:0:0:0:
256,192,94487,1,0,0:0:0:0:
256,192,94637,5,8,0:0:0:0:
256,192,94787,1,8,0:0:0:0:
256,192,94862,1,8,0:0:0:0:
256,192,94937,1,8,0:0:0:0:
256,192,95087,5,4,0:0:0:0:
256,192,96887,5,0,0:0:0:0:
256,192,97187,5,8,0:0:0:0:
256,192,97337,5,0,0:0:0:0:
256,192,97637,1,0,0:0:0:0:
256,192,97787,5,8,0:0:0:0:
256,192,97937,1,8,0:0:0:0:
256,192,98087,5,0,0:0:0:0:
256,192,98387,1,0,0:0:0:0:
256,192,98687,5,8,0:0:0:0:
256,192,98987,1,12,0:0:0:0:
256,192,99287,5,4,0:0:0:0:
256,192,99737,5,8,0:0:0:0:
256,192,99887,5,0,0:0:0:0:
256,192,100187,5,12,0:0:0:0:
256,192,100487,5,4,0:0:0:0:
256,192,100937,5,8,0:0:0:0:
256,192,101087,5,0,0:0:0:0:
256,192,101387,5,12,0:0:0:0:
256,192,101687,5,0,0:0:0:0:
256,192,101837,1,0,0:0:0:0:
256,192,101987,5,8,0:0:0:0:
256,192,102287,5,0,0:0:0:0:
256,192,102437,1,0,0:0:0:0:
256,192,102587,5,8,0:0:0:0:
256,192,102887,5,0,0:0:0:0:
256,192,103037,1,0,0:0:0:0:
256,192,103187,5,8,0:0:0:0:
256,192,103337,1,8,0:0:0:0:
256,192,103487,5,0,0:0:0:0:
256,192,103637,1,0,0:0:0:0:
256,192,103787,5,8,0:0:0:0:
256,192,103937,1,8,0:0:0:0:
256,192,104087,5,0,0:0:0:0:
256,192,104387,5,8,0:0:0:0:
256,192,104687,5,0,0:0:0:0:
256,192,104837,1,0,0:0:0:0:
256,192,104987,1,0,0:0:0:0:
256,192,105137,1,0,0:0:0:0:
256,192,105287,5,8,0:0:0:0:
256,192,105437,1,8,0:0:0:0:
256,192,105587,1,8,0:0:0:0:
256,192,105737,1,8,0:0:0:0:
256,192,105887,6,0,L|96:192,2,140
