osu file format v12

[General]
AudioFilename: Infinite of nuclear fusion.mp3
AudioLeadIn: 1000
PreviewTime: 81251
Countdown: 0
SampleSet: Normal
StackLeniency: 0.7
Mode: 0
LetterboxInBreaks: 0
WidescreenStoryboard: 0

[Editor]
Bookmarks: 21251,62051
DistanceSpacing: 1
BeatDivisor: 2
GridSize: 4

[Metadata]
Title:Infinite of Nuclear Fusion
TitleUnicode:無限の太陽信仰
Artist:AU
ArtistUnicode:あう
Creator:OnosakiHito
Version:Normal
Source:Touhou
Tags:utsuho reiuji okuu IoNF unyuu Saten Saten-san Regou techno
BeatmapID:292883
BeatmapSetID:35211

[Difficulty]
HPDrainRate:4
CircleSize:3
OverallDifficulty:3
ApproachRate:6
SliderMultiplier:1.4
SliderTickRate:1

[Events]
//Background and Video events
0,0,"BG.jpg",0,0
//Break Periods
2,100637,108987
2,140837,149187
//Storyboard Layer 0 (Background)
Sprite,Background,Centre,"BG_SB.jpg",320,240 S,0,119637,,0.802386 F,0,119637,121437,0,1 F,0,121437,143037,1,0.975
Sprite,Background,Centre,"BG_SB.jpg",320,240 F,0,71637,72837,0,1 S,0,71637,150162,0.8054401 M,0,71637,153513,320,240,320,239 F,0,72837,80037,1,0.996875 F,0,80037,81237,0.996875,0 F,0,81237,147837,0 F,0,121437,,1 F,0,121437,150237,0.7934503,1 F,0,121437,150237,1 F,0,147837,150237,0,1 S,0,150162,150237,0.8054401,0.823405 S,0,150237,150312,0.823405,0.8054401 F,0,150237,159837,1 S,0,150312,150462,0.8054401 S,0,150462,150537,0.8054401,0.8114284 S,0,150537,150612,0.8114284,0.8054401 S,0,150612,152562,0.8054401 S,0,152562,152637,0.8054401,0.8174167 S,0,152637,152712,0.8174167,0.8054401 S,0,152712,152862,0.8054401 S,0,152862,152937,0.8054401,0.8114284 S,0,152937,153012,0.8114284,0.8054401 S,0,153012,154962,0.8054401 M,0,153513,,320,239 S,0,154962,155037,0.8054401,0.8174167 S,0,155037,155112,0.8174167,0.8054401 S,0,155112,155262,0.8054401 S,0,155262,155337,0.8054401,0.8114284 S,0,155337,155412,0.8114284,0.8054401 S,0,155412,157362,0.8054401 S,0,157362,157437,0.8054401,0.8174167 S,0,157437,157512,0.8174167,0.8054401 S,0,157512,157962,0.8054401 S,0,157962,158037,0.8054401,0.8174167 S,0,158037,158112,0.8174167,0.8054401 S,0,158112,158562,0.8054401 S,0,158562,158637,0.8054401,0.8174167 S,0,158637,159837,0.8174167,0.8054401 F,0,159837,160137,1,0
//Storyboard Layer 1 (Fail)
//Storyboard Layer 2 (Pass)
//Storyboard Layer 3 (Foreground)
Sprite,Foreground,Centre,"BG_SB2.jpg",320,240 S,0,140637,,0.8054401 F,0,140637,143037,0,1 F,0,143037,149037,1,0.99625 F,0,149037,150237,0.99625,0
Sprite,Foreground,Centre,"l_3.png",320,240 S,0,81162,81237,1,1.17408 R,0,81162,102837,-50,-20.79552 M,0,81237,,101,90 S,0,81237,81312,1.17408,1 F,0,81237,100437,0.54944 S,0,81312,85962,1 S,0,85962,86037,1,1.18432 S,0,86037,86112,1.18432,1 S,0,86112,90762,1 S,0,90762,90837,1,1.22528 S,0,90837,90912,1.22528,1 S,0,90912,95562,1 S,0,95562,95637,1,1.22528 S,0,95637,95712,1.22528,1 S,0,95712,97962,1 S,0,97962,98037,1,1.256 S,0,98037,98112,1.256,1 S,0,98112,99162,1 S,0,99162,99237,1,1.17408 S,0,99237,99312,1.17408,1 S,0,99312,99762,1 S,0,99762,99837,1,1.1536 S,0,99837,99912,1.1536,1 S,0,99912,100362,1 S,0,100362,100437,1,1.143719 S,0,100437,100512,1.143719,1 F,0,100437,102837,0.54944,0
Sprite,Foreground,Centre,"l_2.png",320,240 M,0,83637,,548,391 S,0,83637,,2.01376 R,0,83637,84837,50,48.07488 F,0,83637,86037,0,0.30368 R,0,84837,86037,48.07488,44.79204 R,0,86037,87237,44.79204,40.1677 F,0,86037,93237,0.30368 R,0,87237,88437,40.1677,32.87175 R,0,88437,89637,32.87175,22.58407 R,0,89637,90837,22.58407,13.93675 R,0,90837,92037,13.93675,7.919044 R,0,92037,93237,7.919044,3.925024 R,0,93237,93837,3.925024,2.852897 F,0,93237,95637,0.30368,0 R,0,93837,94437,2.852897,1.917965 R,0,94437,95637,1.917965,0.1424368
Sprite,Foreground,Centre,"White.jpg",320,240 M,0,104037,,320,240 F,0,104037,107637,0,0.1972547 S,0,104037,109737,2.024 F,0,107637,109737,0.1972547,0.4863999 F,0,109737,109887,0.4863999,0 S,0,109737,109887,2.024
Sprite,Foreground,Centre,"w_3.png",320,240 F,0,78837,79437,1,0 M,0,78837,81237,18,-392,18,870 F,0,79437,80037,0,1 F,0,80037,80637,1,0 F,0,80637,81237,0,1
Sprite,Foreground,Centre,"w_3.png",320,240 R,0,78837,,-3.13344 F,0,78837,79437,1,0 M,0,78837,81237,618,871,623,-391 F,0,79437,80037,0,1 F,0,80037,80637,1,0 F,0,80637,81237,0,1
Sprite,Foreground,Centre,"w_2.png",320,240 F,0,78837,79437,1,0 M,0,78837,81237,1030,19,-391,20 F,0,79437,80037,0,1 F,0,80037,80637,1,0 F,0,80637,81237,0,1
Sprite,Foreground,Centre,"w_2.png",320,240 F,0,78837,79437,1,0 M,0,78837,81237,-391,461,1030,461 F,0,79437,80037,0,1 F,0,80037,80637,1,0 F,0,80637,81237,0,1
Sprite,Foreground,Centre,"w_3.png",320,240 F,0,147837,148437,0,1 M,0,147837,150237,18,-392,18,870 F,0,148437,149037,1,0 F,0,149037,149637,0,1 F,0,149637,150237,1,0
Sprite,Foreground,Centre,"w_3.png",320,240 R,0,147837,,-3.13344 F,0,147837,148437,0,1 M,0,147837,150237,618,871,623,-391 F,0,148437,149037,1,0 F,0,149037,149637,0,1 F,0,149637,150237,1,0
Sprite,Foreground,Centre,"w_3.png",320,240 F,0,78837,79437,1,0 M,0,78837,81237,18,-392,18,870 F,0,79437,80037,0,1 F,0,80037,80637,1,0 F,0,80637,81237,0,1
Sprite,Foreground,Centre,"w_3.png",320,240 R,0,78837,,-3.13344 F,0,78837,79437,1,0 M,0,78837,81237,618,871,623,-391 F,0,79437,80037,0,1 F,0,80037,80637,1,0 F,0,80637,81237,0,1
Sprite,Foreground,Centre,"w_2.png",320,240 F,0,78837,79437,1,0 M,0,78837,81237,1030,19,-391,20 F,0,79437,80037,0,1 F,0,80037,80637,1,0 F,0,80637,81237,0,1
Sprite,Foreground,Centre,"w_2.png",320,240 F,0,78837,79437,1,0 M,0,78837,81237,-391,461,1030,461 F,0,79437,80037,0,1 F,0,80037,80637,1,0 F,0,80637,81237,0,1
Sprite,Foreground,Centre,"w_3.png",320,240 F,0,157437,158037,0,1 M,0,157437,159837,18,-392,18,870 F,0,158037,158637,1,0 F,0,158637,159237,0,1 F,0,159237,159837,1,0
Sprite,Foreground,Centre,"w_3.png",320,240 R,0,157437,,-3.13344 F,0,157437,158037,0,1 M,0,157437,159837,618,871,623,-391 F,0,158037,158637,1,0 F,0,158637,159237,0,1 F,0,159237,159837,1,0
Sprite,Foreground,Centre,"w_2.png",320,240 F,0,157437,158037,0,1 M,0,157437,159837,1030,19,-391,20 F,0,158037,158637,1,0 F,0,158637,159237,0,1 F,0,159237,159837,1,0
Sprite,Foreground,Centre,"w_2.png",320,240 F,0,157437,158037,0,1 M,0,157437,159837,-391,461,1030,461 F,0,158037,158637,1,0 F,0,158637,159237,0,1 F,0,159237,159837,1,0
Sprite,Foreground,Centre,"l_1.png",320,240 M,0,150237,,320,240 F,0,150237,150312,0,0.21152 S,0,150237,150387,0.61088,0.6723199 R,0,150237,152637,0,-3.80928 F,0,150312,158637,0.21152 S,0,150387,150537,0.6723199,0.61088 S,0,150537,150687,0.61088,0.8054401 S,0,150687,152637,0.8054401,0.61088 S,0,152637,152712,0.61088,0.7235201 R,0,152637,155037,-3.80928,1.945601 S,0,152712,152787,0.7235201,0.61088 S,0,152787,152937,0.61088,0.8054399 S,0,152937,155037,0.8054399,0.7132801 S,0,155037,155112,0.7132801,0.7952056 R,0,155037,157437,1.945601,-6.184959 S,0,155112,155187,0.7952056,0.713291 S,0,155187,155337,0.713291,0.9590622 S,0,155337,157437,0.9590622,0.7134556 S,0,157437,157512,0.7134556,1.092336 R,0,157437,159874,-6.184959,8.253441 S,0,157512,158637,1.092336,0.7134556 S,0,158637,158712,0.7134556,1.031536 F,0,158637,159837,0.21152,0 S,0,158712,159837,1.031536,1.051376
Sprite,Foreground,Centre,"l_3.png",320,240 S,0,159762,159837,1,1.17408 R,0,159762,171837,-50,-33.73038 M,0,159837,,101,90 S,0,159837,159912,1.17408,1 F,0,159837,179037,0.54944 S,0,159912,171762,1 S,0,171762,171837,1,1.173661 S,0,171837,171912,1.173661,1 R,0,171837,175437,-33.73038,-23.82568 S,0,171912,175362,1 S,0,175362,175437,1,1.167673 S,0,175437,175512,1.167673,1 R,0,175437,177237,-23.82568,-13.60361 R,0,175437,177237,-26.37669,-19.90331 S,0,175512,177162,1 S,0,177162,177237,1,1.173661 S,0,177237,177312,1.173661,1 R,0,177237,177837,-13.60361,-9.89087 S,0,177312,178962,1 R,0,177837,179037,-9.89087,7.223704 S,0,178962,179037,1,1.173661 S,0,179037,179112,1.173661,1 F,0,179037,181437,0.54944,0 R,0,179037,181437,7.223704,12.31376
Sprite,Foreground,Centre,"l_2.png",320,240 S,0,159762,159837,1,1.17408 R,0,159762,169437,50,35.64941 M,0,159837,,520,385 S,0,159837,159912,1.17408,1 F,0,159837,179037,0.54944 S,0,159912,,1 S,0,159912,169362,1 S,0,169362,,1 S,0,169362,169437,1,1.22528 S,0,169437,169512,1.22528,1 R,0,169437,174237,35.64941,23.28399 S,0,169512,174162,1 S,0,174162,174237,1,1.22528 S,0,174237,174312,1.22528,1 R,0,174237,176637,23.28399,12.95737 S,0,174312,176562,1 S,0,176562,176637,1,1.256 S,0,176637,176712,1.256,1 R,0,176637,177837,12.95737,4.793921 S,0,176712,177762,1 S,0,177762,177912,1 R,0,177837,,13.03383 R,0,177837,179037,4.793921,-13.44646 S,0,177912,178362,1 S,0,178362,178512,1 F,0,179037,181437,0.54944,0 R,0,179037,181437,-13.44646,-19.50662
Sprite,Foreground,Centre,"w_2.png",320,240 M,0,7137,,335,64 F,0,7137,8037,0,1 F,0,8037,,1 F,0,8037,8347,1,0 F,0,8347,9237,0,1 F,0,9237,9537,1,0 F,0,9537,10437,0,1 F,0,10437,10737,1,0
Sprite,Foreground,Centre,"w_2.png",320,240 M,0,21237,,319,412 F,0,21537,22437,0,1 F,0,22437,22737,1,0.1560001 F,0,22737,23637,0.1560001,1 F,0,23637,23937,1,0.1 F,0,23937,24837,0.1,1 F,0,24837,25137,1,0.02
Sprite,Foreground,Centre,"w_2.png",320,240 M,0,52737,,331,65 F,0,52737,53637,0,1 F,0,53637,53937,1,0 F,0,53937,54837,0,1 F,0,54837,55137,1,0 F,0,55137,56037,0,1 F,0,56037,56337,1,0
Sprite,Foreground,Centre,"w_2.png",320,240 M,0,157437,,370,130 R,0,157437,,0.4479996 F,0,157437,158337,0,1 F,0,158337,158637,1,0 F,0,158637,159837,0,1 F,0,159837,160137,1,0
Sprite,Foreground,Centre,"w_2.png",320,240 M,0,131337,,326,93 F,0,131337,132237,0,1 F,0,132237,132537,1,0 F,0,132537,133437,0,1 F,0,133437,133737,1,0 F,0,133737,134637,0,1 F,0,134637,135237,1,0
//Storyboard Sound Samples
Sample,78837,0,"caution.mp3",45
Sample,147687,0,"caution.mp3",45
Sample,157437,0,"caution2.mp3",45
//Background Colour Transformations
3,100,163,162,255

[TimingPoints]
2037,300,4,1,1,40,1,0
2037,-200,4,1,1,40,0,0
6837,-200,4,1,1,50,0,0
10437,-200,4,1,3,60,0,0
11637,-133.333333333333,4,1,1,60,0,0
30837,-200,4,1,1,60,0,0
40437,-133.333333333333,4,1,1,60,0,0
52437,-133.333333333333,4,1,1,80,0,0
71637,-200,4,2,1,80,0,0
81237,-133.333333333333,4,1,3,80,0,1
81387,-133.333333333333,4,1,1,80,0,1
83487,-133.333333333333,4,1,3,80,0,1
86187,-133.333333333333,4,1,1,80,0,1
87237,-133.333333333333,4,1,3,80,0,1
87387,-133.333333333333,4,1,1,80,0,1
88437,-133.333333333333,4,1,3,80,0,1
90987,-133.333333333333,4,1,1,80,0,1
92037,-133.333333333333,4,1,3,80,0,1
92187,-133.333333333333,4,1,1,80,0,1
95637,-133.333333333333,4,1,3,80,0,1
95787,-133.333333333333,4,1,1,80,0,1
96837,-133.333333333333,4,1,3,80,0,1
96987,-133.333333333333,4,1,1,80,0,1
97437,-133.333333333333,4,1,3,80,0,1
97587,-133.333333333333,4,1,1,80,0,1
100437,-133.333333333333,4,1,1,80,0,0
119637,300,6,2,1,40,1,0
119637,-200,6,2,1,40,0,0
121437,300,4,2,1,40,1,0
121437,-200,4,2,1,40,0,0
150237,-133.333333333333,4,1,1,60,0,0
152337,-125,4,1,1,60,0,0
152937,-133.333333333333,4,1,1,60,0,0
154737,-117.647058823529,4,1,1,60,0,0
155337,-133.333333333333,4,1,1,60,0,0
157137,-111.111111111111,4,1,1,60,0,0
157737,-133.333333333333,4,1,1,60,0,0
159837,-111.111111111111,4,1,1,80,0,1
169437,-111.111111111111,4,1,3,80,0,1
169587,-111.111111111111,4,1,1,80,0,1
171837,-111.111111111111,4,1,3,80,0,1
171987,-111.111111111111,4,1,1,80,0,1
174237,-111.111111111111,4,1,3,80,0,1
174387,-111.111111111111,4,1,1,80,0,1
175437,-111.111111111111,4,1,3,80,0,1
175587,-111.111111111111,4,1,1,80,0,1
176637,-111.111111111111,4,1,3,80,0,1
176787,-111.111111111111,4,1,1,80,0,1
177237,-111.111111111111,4,1,3,80,0,1
177387,-111.111111111111,4,1,1,80,0,1
179037,-111.111111111111,4,1,1,80,0,0

[HitObjects]
256,100,2037,2,0,P|328:90|392:112,1,140
432,192,2937,1,0,0:0:0:0:
404,280,3237,2,0,P|348:246|320:180,1,140
256,116,4137,1,0,0:0:0:0:
192,180,4437,6,0,P|164:246|108:280,1,140
80,192,5337,1,0,0:0:0:0:
121,111,5637,2,0,P|184:90|256:100,1,140
256,192,6537,1,0,0:0:0:0:
256,283,6837,6,0,P|192:256|168:192,2,140
255,100,8637,2,0,P|320:128|344:192,2,140
256,192,10437,5,0,0:0:0:0:
256,200,10737,1,0,0:0:0:0:
256,208,11037,1,0,0:0:0:0:
256,216,11337,6,0,L|256:288,1,70,0|0,2:0|0:0,0:0:0:0:
172,352,11937,1,8,0:0:0:0:
76,312,12237,2,0,P|32:240|48:172,2,157.500006008148,0|0|8,0:0|0:0|0:0,0:0:0:0:
172,352,13437,2,0,L|220:328,2,52.5000020027161,0|0|8,0:0|0:0|0:0,0:0:0:0:
156,248,14037,5,0,0:0:0:0:
256,212,14337,1,8,0:0:0:0:
356,248,14637,2,0,P|384:172|368:100,2,157.500006008148,0|0|8,0:0|0:0|0:0,0:0:0:0:
256,212,15837,2,0,L|256:160,2,52.5000020027161,0|0|8,0:0|0:0|0:0,0:0:0:0:
156,248,16437,5,0,0:0:0:0:
68,192,16737,1,8,0:0:0:0:
104,92,17037,2,0,B|145:65|178:83|211:100|256:72,2,157.500006008148,0|0|8,0:0|0:0|0:0,0:0:0:0:
68,192,18237,2,0,L|64:244,2,52.5000020027161,0|0|8,0:0|0:0|0:0,0:0:0:0:
168,224,18837,5,0,0:0:0:0:
256,164,19137,1,8,0:0:0:0:
344,224,19437,2,0,P|351:295|300:360,2,157.500006008148,0|0|8,0:0|0:0|0:0,0:0:0:0:
256,164,20637,2,0,L|256:112,2,52.5000020027161,0|0|8,0:0|0:0|0:0,0:0:0:0:
168,224,21237,6,0,P|133:127|180:37,1,210.000008010865
256,112,22137,1,8,0:0:0:0:
256,216,22437,2,0,P|343:164|348:64,1,210.000008010865
256,112,23337,6,0,L|212:148,2,52.5000020027161,8|0|0,0:0|0:0|0:0,0:0:0:0:
348,64,23937,2,0,P|396:84|428:124,1,105.000004005432,8|0,0:0|0:0,0:0:0:0:
340,180,24537,2,0,P|295:197|256:236,2,105.000004005432,8|0|8,0:0|0:0|0:0,0:0:0:0:
340,284,25437,6,0,P|238:265|184:180,1,210.000008010865
256,104,26337,1,8,0:0:0:0:
184,180,26637,2,0,P|132:168|88:136,1,105.000004005432,0|8,0:0|0:0,0:0:0:0:
8,204,27237,2,0,P|17:257|50:293,1,105.000004005432,0|8,0:0|0:0,0:0:0:0:
156,284,27837,6,0,B|216:244|256:272|296:300|356:260,1,210.000008010865
440,192,28737,1,8,0:0:0:0:
404,92,29037,2,0,P|368:56|320:32,1,105.000004005432,0|8,0:0|0:0,0:0:0:0:
256,116,29637,2,0,P|231:159|188:192,1,105.000004005432,0|8,0:0|0:0,0:0:0:0:
84,192,30237,2,0,L|64:144,2,52.5000020027161,0|0|8,0:0|0:0|0:0,0:0:0:0:
132,284,30837,6,0,B|164:324|216:336|256:304|256:304|296:336|348:324|380:284,1,280,0|0,0:0|0:0,0:0:0:0:
432,192,32337,2,0,L|416:160,1,35
344,84,32787,2,0,L|312:68,1,35
208,60,33237,6,0,B|184:128|184:128|206:192|206:192|184:256|184:256|208:324,1,280,0|0,0:0|0:0,0:0:0:0:
104,328,34737,2,0,L|84:300,1,35
52,200,35187,2,0,L|64:168,1,35
128,84,35637,6,0,B|172:96|228:80|256:47|256:47|284:80|340:96|384:84,1,280
444,172,37137,2,0,L|456:208,1,35
372,272,37587,2,0,L|340:256,1,35
256,192,38037,6,0,B|212:184|212:184|168:200|168:200|120:192,1,140
52,112,38937,1,0,0:0:0:0:
120,32,39237,2,0,B|148:48|148:48|184:36|184:36|216:48|216:48|248:36|248:36|284:48|284:48|312:32,1,210,0|4,0:0|2:0,0:0:0:0:
408,76,40437,6,0,P|448:112|476:156,1,105.000004005432,0|8,0:0|0:0,0:0:0:0:
372,144,41037,2,0,P|405:186|425:234,1,105.000004005432,0|8,0:0|0:0,0:0:0:0:
324,204,41637,2,0,P|349:251|360:302,1,105.000004005432,0|8,0:0|0:0,0:0:0:0:
256,352,42237,6,0,B|260:328|260:328|252:308|252:308|260:292|260:292|252:272|252:272|256:252,1,105.000004005432,0|4,0:0|2:0,0:0:0:0:
256,148,42837,6,0,P|224:104|184:72,1,105.000004005432,0|8,0:0|0:0,0:0:0:0:
185,177,43437,2,0,P|145:139|100:114,1,105.000004005432,0|8,0:0|0:0,0:0:0:0:
119,218,44037,2,0,P|73:187|25:171,1,105.000004005432,0|8,0:0|0:0,0:0:0:0:
12,284,44637,6,0,B|26:303|26:303|46:311|46:311|53:327|53:327|73:335|73:335|85:352,1,105.000004005432,0|4,0:0|2:0,0:0:0:0:
188,372,45237,6,0,P|240:360|284:335,1,105.000004005432,0|8,0:0|0:0,0:0:0:0:
188,296,45837,2,0,P|237:275|276:243,1,105.000004005432,0|8,0:0|0:0,0:0:0:0:
176,220,46437,2,0,P|220:190|254:152,1,105.000004005432,0|8,0:0|0:0,0:0:0:0:
196,52,47037,6,0,B|172:48|172:48|152:56|152:56|136:48|136:48|116:56|116:56|95:52,1,105.000004005432,0|4,0:0|2:0,0:0:0:0:
20,124,47637,6,0,P|35:173|70:212,1,105.000004005432,0|8,0:0|0:0,0:0:0:0:
176,220,48237,2,0,P|160:269|125:308,1,105.000004005432,0|8,0:0|0:0,0:0:0:0:
256,192,48837,8,6,50037,2:0:0:0:
256,192,52437,6,0,P|204:204|152:196,1,105.000004005432,0|8,0:0|0:0,0:0:0:0:
144,92,53037,2,0,P|253:91|318:21,2,210.000008010865
40,110,54537,1,8,0:0:0:0:
0,208,54837,6,0,P|36:248|80:276,1,105.000004005432,0|8,0:0|0:0,0:0:0:0:
160,208,55437,2,0,P|256:172|352:208,2,210.000008010865
80,276,56937,1,8,0:0:0:0:
0,208,57237,6,0,P|12:157|39:112,1,105.000004005432,0|8,0:0|0:0,0:0:0:0:
144,104,57837,2,0,P|255:104|322:40,2,210.000008010865
84,192,59337,1,8,0:0:0:0:
116,292,59637,6,0,P|160:320|212:328,1,105.000004005432,0|8,0:0|0:0,0:0:0:0:
256,232,60237,2,0,P|344:172|440:192,2,210.000008010865
300,328,61737,1,8,0:0:0:0:
200,356,62037,6,0,P|154:339|116:300,1,105.000004005432,0|8,0:0|0:0,0:0:0:0:
187,222,62637,2,0,P|207:170|203:122,1,105.000004005432,0|8,0:0|0:0,0:0:0:0:
99,114,63236,2,0,P|155:30|256:32,1,210.000008010865
308,124,64137,1,8,0:0:0:0:
228,192,64437,6,0,P|208:240|212:292,1,105.000004005432,0|8,0:0|0:0,0:0:0:0:
316,268,65037,2,0,P|336:316|332:368,1,105.000004005432,0|8,0:0|0:0,0:0:0:0:
228,384,65637,2,0,P|122:340|104:255,1,210.000008010865
188,192,66537,1,8,0:0:0:0:
256,112,66837,6,0,P|239:66|204:24,1,105.000004005432,0|8,0:0|0:0,0:0:0:0:
136,104,67437,2,0,P|119:150|84:192,1,105.000004005432,0|8,0:0|0:0,0:0:0:0:
24,280,68037,2,0,P|116:325|208:284,1,210.000008010865
256,192,68937,1,8,0:0:0:0:
256,88,69237,6,0,P|156:216|339:254,2,420.000016021729,0|0|4,0:0|0:0|0:0,0:0:0:0:
360,108,71937,6,0,L|424:192,2,105,0|0|0,0:0|0:0|0:0,0:0:0:0:
256,228,73287,1,0,0:0:0:0:
152,108,73737,6,0,L|84:124,2,70
256,228,74787,1,0,0:0:0:0:
128,320,75237,2,0,P|64:336|24:332,2,105
160,220,76437,5,0,0:0:0:0:
164,116,76737,2,0,P|204:84|256:72,1,105
356,192,77637,2,0,P|288:283|160:220,2,280
256,8,80637,1,0,0:0:0:0:
256,216,81237,6,0,P|180:284|84:256,1,210.000008010865,4|0,0:0|0:0,0:0:0:0:
157,180,82137,1,8,0:0:0:0:
256,216,82437,2,0,P|284:120|216:44,1,210.000008010865,0|0,0:0|0:0,0:0:0:0:
116,76,83337,1,8,0:0:0:0:
60,164,83637,6,0,P|65:215|74:267,1,105.000004005432
176,296,84237,2,0,P|181:244|190:192,1,105.000004005432
292,224,84837,2,0,P|297:275|306:327,1,105.000004005432
408,356,85437,2,0,P|413:304|422:252,1,105.000004005432
420,148,86037,6,0,P|353:71|256:88,1,210.000008010865,4|0,0:0|0:0,0:0:0:0:
256,192,86937,1,8,0:0:0:0:
256,296,87237,2,0,P|159:313|92:236,1,210.000008010865,4|0,0:0|0:0,0:0:0:0:
112,132,88137,1,8,0:0:0:0:
192,64,88437,6,0,B|256:48|256:48|332:68|332:68|396:52,2,210.000008010865,4|4|4,0:0|0:0|0:0,0:0:0:0:
112,132,89937,1,4,0:0:0:0:
112,236,90237,2,0,L|128:288,1,52.5000020027161
180,296,90537,2,0,L|220:332,1,52.5000020027161
272,328,90837,6,0,P|320:308|352:268,1,105.000004005432,4|8,0:0|0:0,0:0:0:0:
256,224,91437,2,0,P|224:180|208:132,1,105.000004005432,0|8,0:0|0:0,0:0:0:0:
288,64,92037,2,0,P|340:56|388:36,1,105.000004005432,4|8,0:0|0:0,0:0:0:0:
480,88,92637,2,0,P|484:144|480:192,1,105.000004005432,0|8,0:0|0:0,0:0:0:0:
400,264,93237,6,0,P|348:284|300:284,1,105.000004005432
240,184,93837,2,0,P|292:204|340:204,1,105.000004005432
400,104,94437,2,0,P|348:124|300:124,1,105.000004005432
240,24,95037,2,0,P|292:44|340:44,1,105.000004005432
460,44,95637,6,0,P|476:140|388:186,1,210.000008010865,4|0,0:0|0:0,0:0:0:0:
288,160,96537,1,8,0:0:0:0:
188,132,96837,2,0,P|100:178|116:274,1,210.000008010865,4|4,0:0|0:0,0:0:0:0:
212,320,97737,1,8,0:0:0:0:
280,240,98037,6,0,L|288:136,1,105.000004005432
380,88,98637,2,0,L|388:192,1,105.000004005432
256,192,99237,8,0,100437,0:0:0:0:
256,40,110037,6,0,P|312:56|352:80,1,105.000004005432,0|8,0:0|0:0,0:0:0:0:
256,124,110637,2,0,P|200:140|160:164,1,105.000004005432,0|8,0:0|0:0,0:0:0:0:
160,268,111237,2,0,P|256:304|352:268,1,210.000008010865
388,168,112137,1,0,0:0:0:0:
332,80,112437,6,0,P|283:71|228:76,1,105.000004005432,0|8,0:0|0:0,0:0:0:0:
204,178,113037,2,0,P|253:169|308:174,1,105.000004005432,0|8,0:0|0:0,0:0:0:0:
352,268,113637,2,0,P|256:304|160:268,1,210.000008010865
88,192,114537,1,0,0:0:0:0:
124,96,114837,6,0,P|156:52|200:28,1,105.000004005432,0|8,0:0|0:0,0:0:0:0:
240,124,115437,2,0,P|272:168|316:192,1,105.000004005432,0|8,0:0|0:0,0:0:0:0:
420,192,116037,2,0,P|372:280|271:287,1,210.000008010865
172,252,116937,1,0,0:0:0:0:
120,160,117237,6,0,P|160:66|256:32,1,210.000008010865
256,136,118137,1,8,0:0:0:0:
256,240,118437,2,0,P|352:206|392:112,1,210.000008010865
360,12,119337,1,8,0:0:0:0:
256,12,119637,6,6,B|236:76|236:76|276:132|276:132|232:193|232:193|276:252|276:252|236:308|236:308|256:372,1,420,0|4,0:0|0:0,0:0:0:0:
396,356,122037,5,8,0:0:0:0:
444,224,122637,2,0,P|417:154|369:110,1,140,0|8,0:0|0:0,0:0:0:0:
256,192,123837,6,0,B|220:208|188:192|156:176|116:192,2,140,0|8|0,0:0|0:0|0:0,0:0:0:0:
256,52,125637,1,8,0:0:0:0:
392,20,126237,6,0,P|428:84|416:148,1,140,0|8,0:0|0:0,0:0:0:0:
284,192,127437,2,0,P|220:156|156:168,1,140,0|8,0:0|0:0,0:0:0:0:
84,288,128637,5,0,0:0:0:0:
212,344,129237,1,8,0:0:0:0:
324,260,129837,2,0,P|308:192|256:148,2,140,0|8|0,0:0|0:0|0:0,0:0:0:0:
256,312,131337,5,0,0:0:0:0:
172,296,131637,2,0,L|144:232,1,70,8|0,0:0|0:0,0:0:0:0:
60,244,132237,2,0,L|116:372,2,140,0|8|0,0:0|0:0|0:0,0:0:0:0:
48,160,133737,5,0,0:0:0:0:
104,96,134037,2,0,L|172:76,1,70,8|0,0:0|0:0,0:0:0:0:
212,152,134637,2,0,L|144:172,1,70,0|0,0:0|0:0,0:0:0:0:
156,256,135237,2,0,P|224:272|292:256,1,140,8|0,0:0|0:0,0:0:0:0:
348,192,136137,5,0,0:0:0:0:
332,108,136437,2,0,P|384:52|444:32,1,140,8|0,0:0|0:0,0:0:0:0:
508,88,137337,1,0,0:0:0:0:
484,168,137637,2,0,L|432:216,1,70,8|0,0:0|0:0,0:0:0:0:
256,192,138237,12,4,140637,0:0:0:0:
88,188,150237,6,0,P|155:112|256:120,1,210.000008010865
256,224,151137,1,8,0:0:0:0:
340,288,151437,2,0,P|426:230|432:132,1,210.000008010865
364,52,152337,6,0,B|304:52|304:52|256:72,2,112,8|0|8,0:0|0:0|0:0,0:0:0:0:
432,132,153237,2,0,P|392:172|348:192,1,105.000004005432,0|8,0:0|0:0,0:0:0:0:
256,240,153837,2,0,P|304:304|396:336,1,157.500006008148
472,296,154587,5,0,0:0:0:0:
484,252,154737,2,0,B|468:188|468:188|436:144,2,119.000002269745,8|0|8,0:0|0:0|0:0,0:0:0:0:
392,304,155637,1,0,0:0:0:0:
288,288,155937,2,0,P|262:244|256:192,1,105.000004005432,8|0,0:0|0:0,0:0:0:0:
256,88,156537,2,0,L|296:48,1,52.5000020027161,8|0,0:0|0:0,0:0:0:0:
400,56,156987,5,0,0:0:0:0:
424,92,157137,2,0,P|412:153|372:200,2,125.999996154785,8|0|8,0:0|0:0|0:0,0:0:0:0:
324,56,158037,1,0,0:0:0:0:
228,96,158337,1,8,0:0:0:0:
180,192,158637,2,0,L|204:240,1,52.5000020027161
109,286,159087,2,0,L|62:192,1,105.000004005432
52,152,159537,1,8,0:0:0:0:
136,96,159837,6,0,P|200:100|256:124,1,125.999996154785,0|8,0:0|0:0,0:0:0:0:
280,248,160437,2,0,P|336:276|400:272,1,125.999996154785,0|8,0:0|0:0,0:0:0:0:
508,208,161037,1,0,0:0:0:0:
484,84,161337,2,0,L|436:44,1,62.9999980773926,8|0,0:0|0:0,0:0:0:0:
324,104,161787,2,0,L|372:144,1,62.9999980773926,0|8,0:0|0:0,0:0:0:0:
256,192,162237,6,0,P|220:140|220:80,1,125.999996154785,0|8,0:0|0:0,0:0:0:0:
100,36,162837,2,0,P|76:96|84:156,1,125.999996154785,0|8,0:0|0:0,0:0:0:0:
152,260,163437,1,0,0:0:0:0:
276,264,163737,2,0,L|332:236,1,62.9999980773926,8|0,0:0|0:0,0:0:0:0:
424,320,164187,2,0,L|368:348,1,62.9999980773926,0|8,0:0|0:0,0:0:0:0:
240,340,164637,6,0,P|204:288|204:228,1,125.999996154785,0|8,0:0|0:0,0:0:0:0:
132,124,165237,2,0,P|89:166|78:228,1,125.999996154785,0|8,0:0|0:0,0:0:0:0:
144,336,165837,2,0,B|200:368|200:368|256:343|256:343|312:368|312:368|368:336,1,251.999992309571
448,236,166737,1,8,0:0:0:0:
428,112,167037,6,0,P|388:64|336:28,1,125.999996154785,0|8,0:0|0:0,0:0:0:0:
256,124,167637,2,0,P|304:164|340:216,1,125.999996154785,0|8,0:0|0:0,0:0:0:0:
256,312,168237,2,0,P|192:324|136:304,2,125.999996154785,0|8|0,0:0|0:0|0:0,0:0:0:0:
204,196,169137,1,8,0:0:0:0:
280,96,169437,6,0,P|393:143|428:260,1,251.999992309571,4|0,0:0|0:0,0:0:0:0:
312,304,170337,1,8,0:0:0:0:
256,192,170637,2,0,P|144:238|120:356,1,251.999992309571
244,376,171537,1,8,0:0:0:0:
352,312,171837,6,0,B|404:232|360:192|316:152|366:74,1,251.999992309571,4|0,0:0|0:0,0:0:0:0:
492,60,172737,1,8,0:0:0:0:
480,184,173037,2,0,B|400:236|360:192|320:148|242:198,1,251.999992309571,0|0,0:0|0:0,0:0:0:0:
156,292,173937,1,8,0:0:0:0:
32,308,174237,6,0,P|1:253|0:192,1,125.999996154785,4|8,0:0|0:0,0:0:0:0:
124,204,174837,2,0,P|155:149|156:88,1,125.999996154785,0|8,0:0|0:0,0:0:0:0:
256,12,175437,2,0,B|274:88|274:88|237:177|237:177|256:252,1,251.999992309571,4|0,0:0|0:0,0:0:0:0:
380,272,176337,1,8,0:0:0:0:
476,192,176637,6,0,P|484:124|468:68,1,125.999996154785,4|0,0:0|0:0,0:0:0:0:
348,100,177237,2,0,P|292:132|232:140,1,125.999996154785,4|0,0:0|0:0,0:0:0:0:
256,192,177837,12,0,179037,0:0:0:0:
