osu file format v12

[General]
AudioFilename: Infinite of nuclear fusion.mp3
AudioLeadIn: 1000
PreviewTime: 81251
Countdown: 0
SampleSet: Normal
StackLeniency: 0.7
Mode: 1
LetterboxInBreaks: 0
SkinPreference:taiko
WidescreenStoryboard: 0

[Editor]
Bookmarks: 2051,11651,30851,40451,52451,71651,81251,102851,110051,121451,140651,150251,159851,179051
DistanceSpacing: 2
BeatDivisor: 2
GridSize: 4

[Metadata]
Title:Infinite of Nuclear Fusion
TitleUnicode:無限の太陽信仰
Artist:AU
ArtistUnicode:あう
Creator:OnosakiHito
Version:Muzukashii
Source:Touhou
Tags:utsuho reiuji okuu IoNF unyuu Saten Saten-san Regou techno
BeatmapID:114248
BeatmapSetID:35211

[Difficulty]
HPDrainRate:5
CircleSize:5
OverallDifficulty:5
ApproachRate:5
SliderMultiplier:1.4
SliderTickRate:1

[Events]
//Background and Video events
0,0,"Taiko_BG.jpg",0,0
//Break Periods
//Storyboard Layer 0 (Background)
//Storyboard Layer 1 (Fail)
//Storyboard Layer 2 (Pass)
//Storyboard Layer 3 (Foreground)
//Storyboard Sound Samples
//Background Colour Transformations
3,100,163,162,255

[TimingPoints]
2037,300,4,1,0,100,1,0
81237,-100,4,1,0,100,0,1
102837,-100,4,1,0,100,0,0
119637,300,6,1,0,100,1,0
121437,300,4,1,0,100,1,0
121437,-133.333333333333,4,1,0,100,0,0
159837,-100,4,1,0,100,0,1
179037,-100,4,1,0,100,0,0

[HitObjects]
256,192,2037,1,4,0:0:0:0:
256,192,2637,1,0,0:0:0:0:
256,192,2937,1,0,0:0:0:0:
256,192,3237,1,0,0:0:0:0:
256,192,3837,1,0,0:0:0:0:
256,192,4437,1,0,0:0:0:0:
256,192,5037,1,0,0:0:0:0:
256,192,5337,1,0,0:0:0:0:
256,192,5637,1,0,0:0:0:0:
256,192,5937,1,0,0:0:0:0:
256,192,6237,1,0,0:0:0:0:
256,192,6387,1,0,0:0:0:0:
256,192,6537,1,0,0:0:0:0:
256,192,6687,1,0,0:0:0:0:
256,192,6837,1,4,0:0:0:0:
256,192,7437,1,0,0:0:0:0:
256,192,7737,1,0,0:0:0:0:
256,192,8037,1,0,0:0:0:0:
256,192,8637,1,0,0:0:0:0:
256,192,8937,1,0,0:0:0:0:
256,192,9087,1,0,0:0:0:0:
256,192,9237,1,0,0:0:0:0:
256,192,9537,1,0,0:0:0:0:
256,192,9837,1,0,0:0:0:0:
256,192,10437,5,12,0:0:0:0:
256,192,10737,1,12,0:0:0:0:
256,192,11037,1,12,0:0:0:0:
256,192,11637,5,0,0:0:0:0:
256,192,11937,5,8,0:0:0:0:
256,192,12537,1,8,0:0:0:0:
256,192,12837,5,0,0:0:0:0:
256,192,13137,5,8,0:0:0:0:
256,192,13437,5,0,0:0:0:0:
256,192,13737,5,8,0:0:0:0:
256,192,13887,1,8,0:0:0:0:
256,192,14037,5,0,0:0:0:0:
256,192,14337,5,8,0:0:0:0:
256,192,14937,1,8,0:0:0:0:
256,192,15237,5,0,0:0:0:0:
256,192,15537,5,8,0:0:0:0:
256,192,15837,5,0,0:0:0:0:
256,192,15987,1,0,0:0:0:0:
256,192,16137,5,8,0:0:0:0:
256,192,16287,1,8,0:0:0:0:
256,192,16437,5,0,0:0:0:0:
256,192,16737,5,8,0:0:0:0:
256,192,17337,1,8,0:0:0:0:
256,192,17637,5,0,0:0:0:0:
256,192,17937,5,8,0:0:0:0:
256,192,18237,5,0,0:0:0:0:
256,192,18537,5,8,0:0:0:0:
256,192,18687,1,8,0:0:0:0:
256,192,18837,5,0,0:0:0:0:
256,192,19137,5,8,0:0:0:0:
256,192,19737,1,8,0:0:0:0:
256,192,20037,5,0,0:0:0:0:
256,192,20337,5,8,0:0:0:0:
256,192,20487,1,8,0:0:0:0:
256,192,20637,5,0,0:0:0:0:
256,192,20712,1,0,0:0:0:0:
256,192,20787,1,0,0:0:0:0:
256,192,20937,5,8,0:0:0:0:
256,192,21237,5,0,0:0:0:0:
256,192,21537,5,8,0:0:0:0:
256,192,21837,5,0,0:0:0:0:
256,192,21987,1,0,0:0:0:0:
256,192,22137,5,8,0:0:0:0:
256,192,22437,5,0,0:0:0:0:
256,192,22737,5,8,0:0:0:0:
256,192,23037,5,0,0:0:0:0:
256,192,23187,1,0,0:0:0:0:
256,192,23337,5,8,0:0:0:0:
256,192,23487,1,8,0:0:0:0:
256,192,23637,5,0,0:0:0:0:
256,192,23937,5,8,0:0:0:0:
256,192,24237,5,0,0:0:0:0:
256,192,24387,1,0,0:0:0:0:
256,192,24537,5,8,0:0:0:0:
256,192,24837,5,0,0:0:0:0:
256,192,25137,5,8,0:0:0:0:
256,192,25287,1,8,0:0:0:0:
256,192,25437,5,0,0:0:0:0:
256,192,25587,1,0,0:0:0:0:
256,192,25737,5,8,0:0:0:0:
256,192,25887,1,8,0:0:0:0:
256,192,26037,5,0,0:0:0:0:
256,192,26337,5,8,0:0:0:0:
256,192,26637,5,0,0:0:0:0:
256,192,26787,1,0,0:0:0:0:
256,192,26937,5,8,0:0:0:0:
256,192,27237,5,0,0:0:0:0:
256,192,27537,5,8,0:0:0:0:
256,192,27837,5,0,0:0:0:0:
256,192,28137,5,8,0:0:0:0:
256,192,28287,1,8,0:0:0:0:
256,192,28437,5,0,0:0:0:0:
256,192,28737,5,8,0:0:0:0:
256,192,29037,5,0,0:0:0:0:
256,192,29187,1,0,0:0:0:0:
256,192,29337,5,8,0:0:0:0:
256,192,29637,5,0,0:0:0:0:
256,192,29787,1,0,0:0:0:0:
256,192,29937,5,8,0:0:0:0:
256,192,30012,1,8,0:0:0:0:
256,192,30087,1,8,0:0:0:0:
256,192,30237,5,0,0:0:0:0:
256,192,30537,5,8,0:0:0:0:
256,192,30837,5,0,0:0:0:0:
256,192,31137,5,8,0:0:0:0:
256,192,31287,1,8,0:0:0:0:
256,192,31437,5,0,0:0:0:0:
256,192,31737,5,8,0:0:0:0:
256,192,31887,1,8,0:0:0:0:
256,192,32037,5,0,0:0:0:0:
256,192,32337,1,0,0:0:0:0:
256,192,32487,1,0,0:0:0:0:
256,192,32937,1,0,0:0:0:0:
256,192,33237,1,0,0:0:0:0:
256,192,33537,5,8,0:0:0:0:
256,192,33687,1,8,0:0:0:0:
256,192,33837,5,0,0:0:0:0:
256,192,34137,5,8,0:0:0:0:
256,192,34287,1,8,0:0:0:0:
256,192,34437,5,0,0:0:0:0:
256,192,34737,5,8,0:0:0:0:
256,192,34887,5,0,0:0:0:0:
256,192,35187,5,8,0:0:0:0:
256,192,35337,5,0,0:0:0:0:
256,192,35637,1,0,0:0:0:0:
256,192,35937,5,8,0:0:0:0:
256,192,36087,1,8,0:0:0:0:
256,192,36237,5,0,0:0:0:0:
256,192,36387,5,0,0:0:0:0:
256,192,36537,5,8,0:0:0:0:
256,192,36837,5,0,0:0:0:0:
256,192,37137,5,8,0:0:0:0:
256,192,37287,5,0,0:0:0:0:
256,192,37587,1,0,0:0:0:0:
256,192,37737,5,8,0:0:0:0:
256,192,38037,5,0,0:0:0:0:
256,192,38337,5,8,0:0:0:0:
256,192,38412,1,8,0:0:0:0:
256,192,38487,1,8,0:0:0:0:
256,192,38637,5,0,0:0:0:0:
256,192,38937,5,8,0:0:0:0:
256,192,39237,5,0,0:0:0:0:
256,192,39387,1,0,0:0:0:0:
256,192,39537,1,0,0:0:0:0:
256,192,39687,1,0,0:0:0:0:
256,192,39837,5,8,0:0:0:0:
256,192,39912,1,8,0:0:0:0:
256,192,39987,1,8,0:0:0:0:
256,192,40062,1,8,0:0:0:0:
256,192,40137,1,8,0:0:0:0:
256,192,40437,5,4,0:0:0:0:
256,192,40737,5,8,0:0:0:0:
256,192,41337,1,8,0:0:0:0:
256,192,41637,5,0,0:0:0:0:
256,192,41937,5,8,0:0:0:0:
256,192,42237,1,8,0:0:0:0:
256,192,42387,1,8,0:0:0:0:
256,192,42537,5,0,0:0:0:0:
256,192,42837,1,4,0:0:0:0:
256,192,43137,5,8,0:0:0:0:
256,192,43737,1,8,0:0:0:0:
256,192,44037,5,0,0:0:0:0:
256,192,44337,5,8,0:0:0:0:
256,192,44637,5,0,0:0:0:0:
256,192,44787,1,0,0:0:0:0:
256,192,44937,5,8,0:0:0:0:
256,192,45237,5,4,0:0:0:0:
256,192,45537,5,8,0:0:0:0:
256,192,46137,1,8,0:0:0:0:
256,192,46437,5,0,0:0:0:0:
256,192,46737,5,8,0:0:0:0:
256,192,47037,5,8,0:0:0:0:
256,192,47187,5,0,0:0:0:0:
256,192,47337,5,8,0:0:0:0:
256,192,47637,5,4,0:0:0:0:
256,192,47937,5,8,0:0:0:0:
256,192,48537,1,8,0:0:0:0:
256,192,48837,6,0,L|114:192|116:192,4,140
256,192,52437,1,0,0:0:0:0:
256,192,52737,1,0,0:0:0:0:
256,192,53037,5,8,0:0:0:0:
256,192,53187,5,0,0:0:0:0:
256,192,53487,1,0,0:0:0:0:
256,192,53637,5,8,0:0:0:0:
256,192,53937,1,8,0:0:0:0:
256,192,54087,5,0,0:0:0:0:
256,192,54387,1,0,0:0:0:0:
256,192,54537,5,8,0:0:0:0:
256,192,54687,1,8,0:0:0:0:
256,192,54837,5,0,0:0:0:0:
256,192,55137,1,0,0:0:0:0:
256,192,55437,5,8,0:0:0:0:
256,192,55587,5,0,0:0:0:0:
256,192,55887,1,0,0:0:0:0:
256,192,56037,5,8,0:0:0:0:
256,192,56187,1,8,0:0:0:0:
256,192,56337,5,0,0:0:0:0:
256,192,56487,1,0,0:0:0:0:
256,192,56787,1,0,0:0:0:0:
256,192,56937,1,0,0:0:0:0:
256,192,57087,5,8,0:0:0:0:
256,192,57237,5,0,0:0:0:0:
256,192,57537,1,0,0:0:0:0:
256,192,57837,5,8,0:0:0:0:
256,192,57987,5,0,0:0:0:0:
256,192,58287,1,0,0:0:0:0:
256,192,58437,5,8,0:0:0:0:
256,192,58587,1,8,0:0:0:0:
256,192,58737,5,0,0:0:0:0:
256,192,58887,5,8,0:0:0:0:
256,192,59037,5,0,0:0:0:0:
256,192,59187,1,0,0:0:0:0:
256,192,59337,5,8,0:0:0:0:
256,192,59637,5,0,0:0:0:0:
256,192,59937,1,0,0:0:0:0:
256,192,60237,5,8,0:0:0:0:
256,192,60387,1,8,0:0:0:0:
256,192,60537,5,0,0:0:0:0:
256,192,60687,5,8,0:0:0:0:
256,192,60837,1,8,0:0:0:0:
256,192,61137,5,0,0:0:0:0:
256,192,61287,5,8,0:0:0:0:
256,192,61437,5,0,0:0:0:0:
256,192,61587,1,0,0:0:0:0:
256,192,61737,5,8,0:0:0:0:
256,192,61887,1,8,0:0:0:0:
256,192,62037,5,0,0:0:0:0:
256,192,62337,1,0,0:0:0:0:
256,192,62637,5,8,0:0:0:0:
256,192,62787,5,0,0:0:0:0:
256,192,63087,1,0,0:0:0:0:
256,192,63237,5,8,0:0:0:0:
256,192,63537,1,8,0:0:0:0:
256,192,63687,5,0,0:0:0:0:
256,192,63987,1,0,0:0:0:0:
256,192,64137,5,8,0:0:0:0:
256,192,64287,1,8,0:0:0:0:
256,192,64437,5,0,0:0:0:0:
256,192,64737,1,0,0:0:0:0:
256,192,65037,5,8,0:0:0:0:
256,192,65187,5,0,0:0:0:0:
256,192,65337,1,0,0:0:0:0:
256,192,65487,1,0,0:0:0:0:
256,192,65637,5,8,0:0:0:0:
256,192,65937,5,8,0:0:0:0:
256,192,66087,5,0,0:0:0:0:
256,192,66387,1,0,0:0:0:0:
256,192,66537,5,8,0:0:0:0:
256,192,66687,1,8,0:0:0:0:
256,192,66837,5,0,0:0:0:0:
256,192,67137,1,0,0:0:0:0:
256,192,67437,5,8,0:0:0:0:
256,192,67587,5,0,0:0:0:0:
256,192,67887,1,0,0:0:0:0:
256,192,68037,5,8,0:0:0:0:
256,192,68187,5,0,0:0:0:0:
256,192,68337,5,8,0:0:0:0:
256,192,68487,1,8,0:0:0:0:
256,192,68637,5,0,0:0:0:0:
256,192,68787,5,8,0:0:0:0:
256,192,68937,5,0,0:0:0:0:
256,192,69237,5,8,0:0:0:0:
256,192,69387,1,8,0:0:0:0:
256,192,69537,1,8,0:0:0:0:
256,192,69687,1,8,0:0:0:0:
256,192,69837,1,8,0:0:0:0:
256,192,69912,1,8,0:0:0:0:
256,192,69987,1,8,0:0:0:0:
256,192,70137,1,8,0:0:0:0:
256,192,70287,1,8,0:0:0:0:
256,192,70437,2,8,L|116:192,3,140
256,192,71637,5,4,0:0:0:0:
256,192,71937,1,4,0:0:0:0:
256,192,72387,1,0,0:0:0:0:
256,192,72837,1,0,0:0:0:0:
256,192,73287,1,0,0:0:0:0:
256,192,73737,1,0,0:0:0:0:
256,192,74037,1,4,0:0:0:0:
256,192,74337,1,4,0:0:0:0:
256,192,74787,1,0,0:0:0:0:
256,192,75237,1,0,0:0:0:0:
256,192,75687,1,0,0:0:0:0:
256,192,76137,1,0,0:0:0:0:
256,192,76437,1,4,0:0:0:0:
256,192,76737,1,4,0:0:0:0:
256,192,77187,5,8,0:0:0:0:
256,192,77637,5,0,0:0:0:0:
256,192,77787,5,8,0:0:0:0:
256,192,77937,5,0,0:0:0:0:
256,192,78087,5,8,0:0:0:0:
256,192,78237,5,0,0:0:0:0:
256,192,78387,1,0,0:0:0:0:
256,192,78537,5,8,0:0:0:0:
256,192,78687,5,0,0:0:0:0:
256,192,78837,1,4,0:0:0:0:
256,192,79137,1,4,0:0:0:0:
256,192,79587,5,8,0:0:0:0:
256,192,80037,5,4,0:0:0:0:
256,192,80637,5,12,0:0:0:0:
256,192,81237,5,0,0:0:0:0:
256,192,81537,1,0,0:0:0:0:
256,192,81837,1,0,0:0:0:0:
256,192,81987,1,0,0:0:0:0:
256,192,82137,1,0,0:0:0:0:
256,192,82437,5,8,0:0:0:0:
256,192,82737,1,8,0:0:0:0:
256,192,83037,1,8,0:0:0:0:
256,192,83187,1,8,0:0:0:0:
256,192,83337,1,8,0:0:0:0:
256,192,83637,5,4,0:0:0:0:
256,192,83937,1,4,0:0:0:0:
256,192,84237,5,8,0:0:0:0:
256,192,84387,1,8,0:0:0:0:
256,192,84537,1,8,0:0:0:0:
256,192,84837,5,4,0:0:0:0:
256,192,85137,1,4,0:0:0:0:
256,192,85437,5,12,0:0:0:0:
256,192,85737,5,4,0:0:0:0:
256,192,86037,5,8,0:0:0:0:
256,192,86337,1,8,0:0:0:0:
256,192,86637,1,8,0:0:0:0:
256,192,86787,1,8,0:0:0:0:
256,192,86937,1,8,0:0:0:0:
256,192,87237,5,0,0:0:0:0:
256,192,87537,1,0,0:0:0:0:
256,192,87837,1,0,0:0:0:0:
256,192,87987,1,0,0:0:0:0:
256,192,88137,1,0,0:0:0:0:
256,192,88287,1,0,0:0:0:0:
256,192,88437,5,8,0:0:0:0:
256,192,88737,1,0,0:0:0:0:
256,192,88887,1,0,0:0:0:0:
256,192,89037,5,8,0:0:0:0:
256,192,89337,1,0,0:0:0:0:
256,192,89637,5,12,0:0:0:0:
256,192,89937,1,12,0:0:0:0:
256,192,90237,5,4,0:0:0:0:
256,192,90537,1,4,0:0:0:0:
256,192,90837,1,0,0:0:0:0:
256,192,91137,1,0,0:0:0:0:
256,192,91437,1,0,0:0:0:0:
256,192,91587,1,0,0:0:0:0:
256,192,91737,1,0,0:0:0:0:
256,192,92037,5,8,0:0:0:0:
256,192,92337,1,8,0:0:0:0:
256,192,92637,1,8,0:0:0:0:
256,192,92787,1,8,0:0:0:0:
256,192,92937,1,8,0:0:0:0:
256,192,93237,5,4,0:0:0:0:
256,192,93537,1,4,0:0:0:0:
256,192,93837,5,8,0:0:0:0:
256,192,93987,1,8,0:0:0:0:
256,192,94137,1,8,0:0:0:0:
256,192,94437,5,4,0:0:0:0:
256,192,94737,5,12,0:0:0:0:
256,192,95037,5,4,0:0:0:0:
256,192,95337,1,4,0:0:0:0:
256,192,95637,5,8,0:0:0:0:
256,192,95937,5,0,0:0:0:0:
256,192,96237,1,0,0:0:0:0:
256,192,96387,1,0,0:0:0:0:
256,192,96537,1,0,0:0:0:0:
256,192,96837,5,8,0:0:0:0:
256,192,97137,5,0,0:0:0:0:
256,192,97437,5,8,0:0:0:0:
256,192,97587,1,8,0:0:0:0:
256,192,97737,5,0,0:0:0:0:
256,192,97887,1,0,0:0:0:0:
256,192,98037,5,8,0:0:0:0:
256,192,98337,5,0,0:0:0:0:
256,192,98487,1,0,0:0:0:0:
256,192,98637,5,8,0:0:0:0:
256,192,98937,5,0,0:0:0:0:
256,192,99237,1,4,0:0:0:0:
256,192,99837,1,4,0:0:0:0:
256,192,100437,2,0,B|112:192|112:192,8,140
256,192,103437,5,8,0:0:0:0:
256,192,103512,1,8,0:0:0:0:
256,192,103587,1,8,0:0:0:0:
256,192,104037,5,0,0:0:0:0:
256,192,104337,5,8,0:0:0:0:
256,192,104487,5,0,0:0:0:0:
256,192,104787,1,0,0:0:0:0:
256,192,105087,1,0,0:0:0:0:
256,192,105387,1,0,0:0:0:0:
256,192,105537,5,8,0:0:0:0:
256,192,105687,1,8,0:0:0:0:
256,192,105837,5,0,0:0:0:0:
256,192,105912,1,0,0:0:0:0:
256,192,105987,1,0,0:0:0:0:
256,192,106437,1,0,0:0:0:0:
256,192,106737,5,8,0:0:0:0:
256,192,106887,5,0,0:0:0:0:
256,192,107187,1,0,0:0:0:0:
256,192,107487,1,0,0:0:0:0:
256,192,107787,1,0,0:0:0:0:
256,192,107937,5,8,0:0:0:0:
256,192,108087,1,8,0:0:0:0:
256,192,108237,5,0,0:0:0:0:
256,192,108387,1,0,0:0:0:0:
256,192,108537,5,8,0:0:0:0:
256,192,108837,2,8,L|184:192,6,70
280,192,110037,5,0,0:0:0:0:
280,192,110337,5,8,0:0:0:0:
280,192,110637,5,0,0:0:0:0:
280,192,110787,1,0,0:0:0:0:
280,192,110937,5,8,0:0:0:0:
280,192,111237,5,0,0:0:0:0:
280,192,111537,5,8,0:0:0:0:
280,192,111687,5,0,0:0:0:0:
280,192,111987,1,0,0:0:0:0:
280,192,112137,5,8,0:0:0:0:
280,192,112437,5,0,0:0:0:0:
280,192,112737,5,8,0:0:0:0:
280,192,113037,5,0,0:0:0:0:
280,192,113187,1,0,0:0:0:0:
280,192,113337,5,8,0:0:0:0:
280,192,113637,5,0,0:0:0:0:
280,192,113787,1,0,0:0:0:0:
280,192,113937,5,8,0:0:0:0:
280,192,114087,5,0,0:0:0:0:
280,192,114387,1,0,0:0:0:0:
280,192,114537,5,8,0:0:0:0:
280,192,114687,5,0,0:0:0:0:
280,192,114837,1,0,0:0:0:0:
280,192,115137,5,8,0:0:0:0:
280,192,115437,5,0,0:0:0:0:
280,192,115587,1,0,0:0:0:0:
280,192,115737,5,8,0:0:0:0:
280,192,116037,5,0,0:0:0:0:
280,192,116337,5,8,0:0:0:0:
280,192,116487,5,0,0:0:0:0:
280,192,116787,1,0,0:0:0:0:
280,192,116937,5,8,0:0:0:0:
280,192,117237,5,0,0:0:0:0:
280,192,117537,5,8,0:0:0:0:
280,192,117837,5,0,0:0:0:0:
280,192,117987,1,0,0:0:0:0:
280,192,118137,5,8,0:0:0:0:
280,192,118287,1,8,0:0:0:0:
280,192,118437,5,0,0:0:0:0:
280,192,118737,5,8,0:0:0:0:
280,192,118887,5,0,0:0:0:0:
280,192,119187,1,0,0:0:0:0:
280,192,119337,5,8,0:0:0:0:
280,192,119487,5,0,0:0:0:0:
280,192,119637,1,4,0:0:0:0:
288,200,121437,1,0,0:0:0:0:
288,200,121737,1,0,0:0:0:0:
288,200,122037,5,8,0:0:0:0:
288,200,122937,5,0,0:0:0:0:
288,200,123237,5,8,0:0:0:0:
288,200,123837,5,0,0:0:0:0:
288,200,124137,1,0,0:0:0:0:
288,200,124437,5,8,0:0:0:0:
288,200,125337,5,0,0:0:0:0:
288,200,125637,5,8,0:0:0:0:
288,200,125937,5,0,0:0:0:0:
288,200,126087,1,0,0:0:0:0:
288,200,126237,1,0,0:0:0:0:
288,200,126537,1,0,0:0:0:0:
288,200,126837,5,8,0:0:0:0:
288,200,127737,5,0,0:0:0:0:
288,200,128037,5,8,0:0:0:0:
288,200,128337,5,0,0:0:0:0:
288,200,128637,1,0,0:0:0:0:
288,200,128937,1,0,0:0:0:0:
288,200,129237,5,8,0:0:0:0:
288,200,129537,5,0,0:0:0:0:
288,200,129687,1,0,0:0:0:0:
288,200,129837,1,0,0:0:0:0:
288,200,130137,5,8,0:0:0:0:
288,200,130437,1,8,0:0:0:0:
288,200,130587,1,8,0:0:0:0:
288,200,130737,1,8,0:0:0:0:
288,200,130887,1,8,0:0:0:0:
288,200,131037,5,0,0:0:0:0:
288,200,131337,1,0,0:0:0:0:
288,200,131637,5,8,0:0:0:0:
288,200,132537,5,0,0:0:0:0:
288,200,132837,5,8,0:0:0:0:
288,200,133437,5,0,0:0:0:0:
288,200,133737,1,0,0:0:0:0:
288,200,134037,5,8,0:0:0:0:
288,200,134937,5,0,0:0:0:0:
288,200,135237,5,8,0:0:0:0:
288,200,135837,5,0,0:0:0:0:
288,200,136137,1,0,0:0:0:0:
288,200,136437,5,8,0:0:0:0:
288,200,137337,5,0,0:0:0:0:
288,200,137637,5,8,0:0:0:0:
288,200,138237,5,0,0:0:0:0:
288,200,138537,1,0,0:0:0:0:
288,200,138837,1,0,0:0:0:0:
288,200,139137,1,0,0:0:0:0:
256,192,139437,1,0,0:0:0:0:
256,192,139587,1,0,0:0:0:0:
256,192,139737,1,0,0:0:0:0:
256,192,139887,1,0,0:0:0:0:
256,192,140037,5,8,0:0:0:0:
256,192,140187,1,8,0:0:0:0:
256,192,140337,1,8,0:0:0:0:
256,192,140487,1,8,0:0:0:0:
256,192,140637,5,0,0:0:0:0:
256,192,140937,1,0,0:0:0:0:
256,192,141837,1,0,0:0:0:0:
256,192,142287,1,0,0:0:0:0:
256,192,142737,5,8,0:0:0:0:
256,192,143037,5,0,0:0:0:0:
256,192,143337,1,0,0:0:0:0:
256,192,144237,1,0,0:0:0:0:
256,192,144537,5,8,0:0:0:0:
256,192,144687,5,0,0:0:0:0:
256,192,144987,1,0,0:0:0:0:
256,192,145137,5,8,0:0:0:0:
256,192,145437,1,0,0:0:0:0:
256,192,145737,1,0,0:0:0:0:
256,192,146637,1,0,0:0:0:0:
256,192,147087,1,0,0:0:0:0:
256,192,147537,5,8,0:0:0:0:
256,192,147837,1,0,0:0:0:0:
256,192,148137,1,0,0:0:0:0:
256,192,148737,5,0,0:0:0:0:
256,192,149037,1,0,0:0:0:0:
256,192,149337,5,8,0:0:0:0:
256,192,149487,5,0,0:0:0:0:
256,192,149787,1,0,0:0:0:0:
256,192,149937,5,8,0:0:0:0:
256,192,150237,5,0,0:0:0:0:
256,192,150537,1,0,0:0:0:0:
256,192,151137,1,0,0:0:0:0:
256,192,151287,1,0,0:0:0:0:
256,192,151437,5,8,0:0:0:0:
256,192,151737,5,0,0:0:0:0:
256,192,151887,5,8,0:0:0:0:
256,192,152187,5,0,0:0:0:0:
256,192,152337,5,8,0:0:0:0:
256,192,152637,5,0,0:0:0:0:
256,192,152937,1,0,0:0:0:0:
256,192,153537,1,0,0:0:0:0:
256,192,153837,1,0,0:0:0:0:
256,192,153987,1,0,0:0:0:0:
256,192,154137,5,8,0:0:0:0:
256,192,154287,1,0,0:0:0:0:
256,192,154587,1,0,0:0:0:0:
256,192,154737,5,8,0:0:0:0:
256,192,155037,5,0,0:0:0:0:
256,192,155337,1,0,0:0:0:0:
256,192,155937,1,0,0:0:0:0:
256,192,156087,1,0,0:0:0:0:
256,192,156237,1,0,0:0:0:0:
256,192,156537,5,8,0:0:0:0:
256,192,156687,5,0,0:0:0:0:
256,192,156987,1,0,0:0:0:0:
256,192,157137,5,8,0:0:0:0:
256,192,157437,5,0,0:0:0:0:
256,192,157737,1,0,0:0:0:0:
256,192,158037,1,0,0:0:0:0:
256,192,158337,1,0,0:0:0:0:
256,192,158637,1,0,0:0:0:0:
256,192,158787,1,0,0:0:0:0:
256,192,159087,1,0,0:0:0:0:
256,192,159387,1,0,0:0:0:0:
256,192,159537,1,0,0:0:0:0:
256,192,159837,1,0,0:0:0:0:
256,192,159987,1,0,0:0:0:0:
256,192,160137,5,8,0:0:0:0:
256,192,160437,5,0,0:0:0:0:
256,192,160587,1,0,0:0:0:0:
256,192,160737,5,8,0:0:0:0:
256,192,161037,5,0,0:0:0:0:
256,192,161337,5,8,0:0:0:0:
256,192,161487,5,0,0:0:0:0:
256,192,161787,1,0,0:0:0:0:
256,192,161937,5,8,0:0:0:0:
256,192,162237,5,0,0:0:0:0:
256,192,162387,1,0,0:0:0:0:
256,192,162537,5,8,0:0:0:0:
256,192,162837,1,0,0:0:0:0:
256,192,162987,1,0,0:0:0:0:
256,192,163137,5,8,0:0:0:0:
256,192,163287,1,8,0:0:0:0:
256,192,163437,5,0,0:0:0:0:
256,192,163737,5,8,0:0:0:0:
256,192,163887,5,0,0:0:0:0:
256,192,164187,1,0,0:0:0:0:
256,192,164337,5,8,0:0:0:0:
256,192,164637,5,0,0:0:0:0:
256,192,164787,1,0,0:0:0:0:
256,192,164937,5,8,0:0:0:0:
256,192,165237,5,0,0:0:0:0:
256,192,165537,5,8,0:0:0:0:
256,192,165837,5,0,0:0:0:0:
256,192,165987,1,0,0:0:0:0:
256,192,166137,5,8,0:0:0:0:
256,192,166287,1,8,0:0:0:0:
256,192,166437,5,0,0:0:0:0:
256,192,166587,1,0,0:0:0:0:
256,192,166737,5,8,0:0:0:0:
256,192,167037,5,0,0:0:0:0:
256,192,167187,1,0,0:0:0:0:
256,192,167337,5,8,0:0:0:0:
256,192,167637,5,0,0:0:0:0:
256,192,167787,1,0,0:0:0:0:
256,192,167937,5,8,0:0:0:0:
256,192,168087,1,8,0:0:0:0:
256,192,168237,5,0,0:0:0:0:
256,192,168537,5,8,0:0:0:0:
256,192,168687,5,0,0:0:0:0:
256,192,168987,1,0,0:0:0:0:
256,192,169137,5,8,0:0:0:0:
256,192,169437,5,0,0:0:0:0:
256,192,169587,1,0,0:0:0:0:
256,192,169737,5,8,0:0:0:0:
256,192,170037,5,0,0:0:0:0:
256,192,170187,1,0,0:0:0:0:
256,192,170337,5,8,0:0:0:0:
256,192,170637,5,0,0:0:0:0:
256,192,170937,5,8,0:0:0:0:
256,192,171087,5,0,0:0:0:0:
256,192,171387,1,0,0:0:0:0:
256,192,171537,5,8,0:0:0:0:
256,192,171837,5,0,0:0:0:0:
256,192,171987,1,0,0:0:0:0:
256,192,172137,5,8,0:0:0:0:
256,192,172437,5,0,0:0:0:0:
256,192,172737,5,8,0:0:0:0:
256,192,173037,5,0,0:0:0:0:
256,192,173187,1,0,0:0:0:0:
256,192,173337,5,8,0:0:0:0:
256,192,173487,1,8,0:0:0:0:
256,192,173637,5,0,0:0:0:0:
256,192,173787,1,0,0:0:0:0:
256,192,173937,5,8,0:0:0:0:
256,192,174087,1,8,0:0:0:0:
256,192,174237,5,0,0:0:0:0:
256,192,174537,5,8,0:0:0:0:
256,192,174837,5,0,0:0:0:0:
256,192,174987,1,0,0:0:0:0:
256,192,175137,5,8,0:0:0:0:
256,192,175437,5,0,0:0:0:0:
256,192,175587,1,0,0:0:0:0:
256,192,175737,5,8,0:0:0:0:
256,192,175887,1,8,0:0:0:0:
256,192,176037,5,0,0:0:0:0:
256,192,176187,1,0,0:0:0:0:
256,192,176337,5,8,0:0:0:0:
256,192,176637,5,0,0:0:0:0:
256,192,176937,5,8,0:0:0:0:
256,192,177237,5,0,0:0:0:0:
256,192,177387,1,0,0:0:0:0:
256,192,177537,5,8,0:0:0:0:
256,192,177837,5,0,0:0:0:0:
256,192,178137,5,8,0:0:0:0:
256,192,178287,5,0,0:0:0:0:
256,192,178587,1,0,0:0:0:0:
256,192,178737,5,8,0:0:0:0:
256,192,178887,1,8,0:0:0:0:
256,192,179037,5,0,0:0:0:0:
