osu file format v12

[General]
AudioFilename: Infinite of nuclear fusion.mp3
AudioLeadIn: 1000
PreviewTime: 81251
Countdown: 0
SampleSet: Normal
StackLeniency: 0.6
Mode: 0
LetterboxInBreaks: 0
WidescreenStoryboard: 1

[Editor]
Bookmarks: 11641,21251,30841,40441,52451,67601,71651,100451,110051,131051,140651,150251,159851
DistanceSpacing: 1
BeatDivisor: 4
GridSize: 4

[Metadata]
Title:Infinite of Nuclear Fusion
TitleUnicode:無限の太陽信仰
Artist:AU
ArtistUnicode:あう
Creator:OnosakiHito
Version:Lunatic
Source:Touhou
Tags:utsuho reiuji okuu IoNF unyuu Saten Saten-san Regou techno
BeatmapID:291284
BeatmapSetID:35211

[Difficulty]
HPDrainRate:6
CircleSize:4
OverallDifficulty:8
ApproachRate:9
SliderMultiplier:1.5
SliderTickRate:2

[Events]
//Background and Video events
0,0,"BG.jpg",0,0
//Break Periods
2,100636,109437
2,140837,149637
//Storyboard Layer 0 (Background)
Sprite,Background,Centre,"BG_SB.jpg",320,240 S,0,119637,,0.802386 F,0,119637,121437,0,1 F,0,121437,143037,1,0.975
Sprite,Background,Centre,"BG_SB.jpg",320,240 F,0,71637,72837,0,1 S,0,71637,150162,0.8054401 M,0,71637,153513,320,240,320,239 F,0,72837,80037,1,0.996875 F,0,80037,81237,0.996875,0 F,0,81237,147837,0 F,0,121437,,1 F,0,121437,150237,0.7934503,1 F,0,121437,150237,1 F,0,147837,150237,0,1 S,0,150162,150237,0.8054401,0.823405 S,0,150237,150312,0.823405,0.8054401 F,0,150237,159837,1 S,0,150312,150462,0.8054401 S,0,150462,150537,0.8054401,0.8114284 S,0,150537,150612,0.8114284,0.8054401 S,0,150612,152562,0.8054401 S,0,152562,152637,0.8054401,0.8174167 S,0,152637,152712,0.8174167,0.8054401 S,0,152712,152862,0.8054401 S,0,152862,152937,0.8054401,0.8114284 S,0,152937,153012,0.8114284,0.8054401 S,0,153012,154962,0.8054401 M,0,153513,,320,239 S,0,154962,155037,0.8054401,0.8174167 S,0,155037,155112,0.8174167,0.8054401 S,0,155112,155262,0.8054401 S,0,155262,155337,0.8054401,0.8114284 S,0,155337,155412,0.8114284,0.8054401 S,0,155412,157362,0.8054401 S,0,157362,157437,0.8054401,0.8174167 S,0,157437,157512,0.8174167,0.8054401 S,0,157512,157962,0.8054401 S,0,157962,158037,0.8054401,0.8174167 S,0,158037,158112,0.8174167,0.8054401 S,0,158112,158562,0.8054401 S,0,158562,158637,0.8054401,0.8174167 S,0,158637,159837,0.8174167,0.8054401 F,0,159837,160137,1,0
//Storyboard Layer 1 (Fail)
//Storyboard Layer 2 (Pass)
//Storyboard Layer 3 (Foreground)
Sprite,Foreground,Centre,"BG_SB2.jpg",320,240 S,0,140637,,0.8054401 F,0,140637,143037,0,1 F,0,143037,149037,1,0.99625 F,0,149037,150237,0.99625,0
Sprite,Foreground,Centre,"l_3.png",320,240 S,0,81162,81237,1,1.17408 R,0,81162,102837,-50,-20.79552 M,0,81237,,101,90 S,0,81237,81312,1.17408,1 F,0,81237,100437,0.54944 S,0,81312,85962,1 S,0,85962,86037,1,1.18432 S,0,86037,86112,1.18432,1 S,0,86112,90762,1 S,0,90762,90837,1,1.22528 S,0,90837,90912,1.22528,1 S,0,90912,95562,1 S,0,95562,95637,1,1.22528 S,0,95637,95712,1.22528,1 S,0,95712,97962,1 S,0,97962,98037,1,1.256 S,0,98037,98112,1.256,1 S,0,98112,99162,1 S,0,99162,99237,1,1.17408 S,0,99237,99312,1.17408,1 S,0,99312,99762,1 S,0,99762,99837,1,1.1536 S,0,99837,99912,1.1536,1 S,0,99912,100362,1 S,0,100362,100437,1,1.143719 S,0,100437,100512,1.143719,1 F,0,100437,102837,0.54944,0
Sprite,Foreground,Centre,"l_2.png",320,240 M,0,83637,,548,391 S,0,83637,,2.01376 R,0,83637,84837,50,48.07488 F,0,83637,86037,0,0.30368 R,0,84837,86037,48.07488,44.79204 R,0,86037,87237,44.79204,40.1677 F,0,86037,93237,0.30368 R,0,87237,88437,40.1677,32.87175 R,0,88437,89637,32.87175,22.58407 R,0,89637,90837,22.58407,13.93675 R,0,90837,92037,13.93675,7.919044 R,0,92037,93237,7.919044,3.925024 R,0,93237,93837,3.925024,2.852897 F,0,93237,95637,0.30368,0 R,0,93837,94437,2.852897,1.917965 R,0,94437,95637,1.917965,0.1424368
Sprite,Foreground,Centre,"White.jpg",320,240 M,0,104037,,320,240 F,0,104037,107637,0,0.1972547 S,0,104037,109737,2.024 F,0,107637,109737,0.1972547,0.4863999 F,0,109737,109887,0.4863999,0 S,0,109737,109887,2.024
Sprite,Foreground,Centre,"w_3.png",320,240 F,0,78837,79437,1,0 M,0,78837,81237,18,-392,18,870 F,0,79437,80037,0,1 F,0,80037,80637,1,0 F,0,80637,81237,0,1
Sprite,Foreground,Centre,"w_3.png",320,240 R,0,78837,,-3.13344 F,0,78837,79437,1,0 M,0,78837,81237,618,871,623,-391 F,0,79437,80037,0,1 F,0,80037,80637,1,0 F,0,80637,81237,0,1
Sprite,Foreground,Centre,"w_2.png",320,240 F,0,78837,79437,1,0 M,0,78837,81237,1030,19,-391,20 F,0,79437,80037,0,1 F,0,80037,80637,1,0 F,0,80637,81237,0,1
Sprite,Foreground,Centre,"w_2.png",320,240 F,0,78837,79437,1,0 M,0,78837,81237,-391,461,1030,461 F,0,79437,80037,0,1 F,0,80037,80637,1,0 F,0,80637,81237,0,1
Sprite,Foreground,Centre,"w_3.png",320,240 F,0,147837,148437,0,1 M,0,147837,150237,18,-392,18,870 F,0,148437,149037,1,0 F,0,149037,149637,0,1 F,0,149637,150237,1,0
Sprite,Foreground,Centre,"w_3.png",320,240 R,0,147837,,-3.13344 F,0,147837,148437,0,1 M,0,147837,150237,618,871,623,-391 F,0,148437,149037,1,0 F,0,149037,149637,0,1 F,0,149637,150237,1,0
Sprite,Foreground,Centre,"w_3.png",320,240 F,0,78837,79437,1,0 M,0,78837,81237,18,-392,18,870 F,0,79437,80037,0,1 F,0,80037,80637,1,0 F,0,80637,81237,0,1
Sprite,Foreground,Centre,"w_3.png",320,240 R,0,78837,,-3.13344 F,0,78837,79437,1,0 M,0,78837,81237,618,871,623,-391 F,0,79437,80037,0,1 F,0,80037,80637,1,0 F,0,80637,81237,0,1
Sprite,Foreground,Centre,"w_2.png",320,240 F,0,78837,79437,1,0 M,0,78837,81237,1030,19,-391,20 F,0,79437,80037,0,1 F,0,80037,80637,1,0 F,0,80637,81237,0,1
Sprite,Foreground,Centre,"w_2.png",320,240 F,0,78837,79437,1,0 M,0,78837,81237,-391,461,1030,461 F,0,79437,80037,0,1 F,0,80037,80637,1,0 F,0,80637,81237,0,1
Sprite,Foreground,Centre,"w_3.png",320,240 F,0,157437,158037,0,1 M,0,157437,159837,18,-392,18,870 F,0,158037,158637,1,0 F,0,158637,159237,0,1 F,0,159237,159837,1,0
Sprite,Foreground,Centre,"w_3.png",320,240 R,0,157437,,-3.13344 F,0,157437,158037,0,1 M,0,157437,159837,618,871,623,-391 F,0,158037,158637,1,0 F,0,158637,159237,0,1 F,0,159237,159837,1,0
Sprite,Foreground,Centre,"w_2.png",320,240 F,0,157437,158037,0,1 M,0,157437,159837,1030,19,-391,20 F,0,158037,158637,1,0 F,0,158637,159237,0,1 F,0,159237,159837,1,0
Sprite,Foreground,Centre,"w_2.png",320,240 F,0,157437,158037,0,1 M,0,157437,159837,-391,461,1030,461 F,0,158037,158637,1,0 F,0,158637,159237,0,1 F,0,159237,159837,1,0
Sprite,Foreground,Centre,"l_1.png",320,240 M,0,150237,,320,240 F,0,150237,150312,0,0.21152 S,0,150237,150387,0.61088,0.6723199 R,0,150237,152637,0,-3.80928 F,0,150312,158637,0.21152 S,0,150387,150537,0.6723199,0.61088 S,0,150537,150687,0.61088,0.8054401 S,0,150687,152637,0.8054401,0.61088 S,0,152637,152712,0.61088,0.7235201 R,0,152637,155037,-3.80928,1.945601 S,0,152712,152787,0.7235201,0.61088 S,0,152787,152937,0.61088,0.8054399 S,0,152937,155037,0.8054399,0.7132801 S,0,155037,155112,0.7132801,0.7952056 R,0,155037,157437,1.945601,-6.184959 S,0,155112,155187,0.7952056,0.713291 S,0,155187,155337,0.713291,0.9590622 S,0,155337,157437,0.9590622,0.7134556 S,0,157437,157512,0.7134556,1.092336 R,0,157437,159874,-6.184959,8.253441 S,0,157512,158637,1.092336,0.7134556 S,0,158637,158712,0.7134556,1.031536 F,0,158637,159837,0.21152,0 S,0,158712,159837,1.031536,1.051376
Sprite,Foreground,Centre,"l_3.png",320,240 S,0,159762,159837,1,1.17408 R,0,159762,171837,-50,-33.73038 M,0,159837,,101,90 S,0,159837,159912,1.17408,1 F,0,159837,179037,0.54944 S,0,159912,171762,1 S,0,171762,171837,1,1.173661 S,0,171837,171912,1.173661,1 R,0,171837,175437,-33.73038,-23.82568 S,0,171912,175362,1 S,0,175362,175437,1,1.167673 S,0,175437,175512,1.167673,1 R,0,175437,177237,-23.82568,-13.60361 R,0,175437,177237,-26.37669,-19.90331 S,0,175512,177162,1 S,0,177162,177237,1,1.173661 S,0,177237,177312,1.173661,1 R,0,177237,177837,-13.60361,-9.89087 S,0,177312,178962,1 R,0,177837,179037,-9.89087,7.223704 S,0,178962,179037,1,1.173661 S,0,179037,179112,1.173661,1 F,0,179037,181437,0.54944,0 R,0,179037,181437,7.223704,12.31376
Sprite,Foreground,Centre,"l_2.png",320,240 S,0,159762,159837,1,1.17408 R,0,159762,169437,50,35.64941 M,0,159837,,520,385 S,0,159837,159912,1.17408,1 F,0,159837,179037,0.54944 S,0,159912,,1 S,0,159912,169362,1 S,0,169362,,1 S,0,169362,169437,1,1.22528 S,0,169437,169512,1.22528,1 R,0,169437,174237,35.64941,23.28399 S,0,169512,174162,1 S,0,174162,174237,1,1.22528 S,0,174237,174312,1.22528,1 R,0,174237,176637,23.28399,12.95737 S,0,174312,176562,1 S,0,176562,176637,1,1.256 S,0,176637,176712,1.256,1 R,0,176637,177837,12.95737,4.793921 S,0,176712,177762,1 S,0,177762,177912,1 R,0,177837,,13.03383 R,0,177837,179037,4.793921,-13.44646 S,0,177912,178362,1 S,0,178362,178512,1 F,0,179037,181437,0.54944,0 R,0,179037,181437,-13.44646,-19.50662
Sprite,Foreground,Centre,"w_2.png",320,240 M,0,7137,,335,64 F,0,7137,8037,0,1 F,0,8037,,1 F,0,8037,8347,1,0 F,0,8347,9237,0,1 F,0,9237,9537,1,0 F,0,9537,10437,0,1 F,0,10437,10737,1,0
Sprite,Foreground,Centre,"w_2.png",320,240 M,0,21237,,319,412 F,0,21537,22437,0,1 F,0,22437,22737,1,0.1560001 F,0,22737,23637,0.1560001,1 F,0,23637,23937,1,0.1 F,0,23937,24837,0.1,1 F,0,24837,25137,1,0.02
Sprite,Foreground,Centre,"w_2.png",320,240 M,0,52737,,331,65 F,0,52737,53637,0,1 F,0,53637,53937,1,0 F,0,53937,54837,0,1 F,0,54837,55137,1,0 F,0,55137,56037,0,1 F,0,56037,56337,1,0
Sprite,Foreground,Centre,"w_2.png",320,240 M,0,157437,,370,130 R,0,157437,,0.4479996 F,0,157437,158337,0,1 F,0,158337,158637,1,0 F,0,158637,159837,0,1 F,0,159837,160137,1,0
Sprite,Foreground,Centre,"w_2.png",320,240 M,0,131337,,326,93 F,0,131337,132237,0,1 F,0,132237,132537,1,0 F,0,132537,133437,0,1 F,0,133437,133737,1,0 F,0,133737,134637,0,1 F,0,134637,135237,1,0
//Storyboard Sound Samples
Sample,78837,0,"caution.mp3",45
Sample,147687,0,"caution.mp3",45
Sample,157437,0,"caution2.mp3",45
//Background Colour Transformations
3,100,163,162,255

[TimingPoints]
2037,300,4,1,1,40,1,0
2337,-100,4,2,1,40,0,0
6837,-100,4,1,1,40,0,0
6912,-100,4,2,1,55,0,0
10437,-100,4,1,3,75,0,0
11337,-133.333333333333,4,2,2,20,0,0
11637,-100,4,1,1,75,0,0
30837,-133.333333333333,4,1,1,50,0,0
31112,-133.333333333333,4,2,1,80,0,0
31437,-133.333333333333,4,1,1,50,0,0
31512,-133.333333333333,4,2,1,80,0,0
32037,-133.333333333333,4,1,1,50,0,0
33537,-133.333333333333,4,2,1,80,0,0
34437,-133.333333333333,4,1,1,50,0,0
35787,-133.333333333333,4,2,1,80,0,0
36237,-133.333333333333,4,1,1,50,0,0
36837,-133.333333333333,4,1,1,50,0,0
36987,-133.333333333333,4,2,1,50,0,0
37137,-133.333333333333,4,1,1,50,0,0
38112,-133.333333333333,4,2,1,50,0,0
38637,-133.333333333333,4,1,1,50,0,0
38712,-133.333333333333,4,2,1,50,0,0
39237,-100,4,2,1,70,0,0
39837,-100,4,1,1,40,0,0
40137,-100,4,2,1,50,0,0
40174,-100,4,1,1,50,0,0
40437,-100,4,1,1,80,0,0
48912,-100,4,1,1,70,0,0
50037,-200,4,2,1,50,0,0
51237,-100,4,2,1,50,0,0
51537,-100,4,2,1,70,0,0
51837,-100,4,2,1,80,0,0
52137,-100,4,2,1,90,0,0
52437,-100,4,1,1,80,0,0
70437,-100,4,1,1,70,0,0
71037,-100,4,1,1,60,0,0
71637,-200,4,2,1,80,0,0
76437,-133.333333333333,4,2,1,90,0,0
81237,-76.9230769230769,4,1,3,100,0,1
81537,-76.9230769230769,4,1,1,100,0,1
86037,-76.9230769230769,4,1,3,100,0,1
86337,-76.9230769230769,4,1,1,100,0,1
87237,-76.9230769230769,4,1,3,100,0,1
87537,-76.9230769230769,4,1,1,100,0,1
88437,-76.9230769230769,4,1,3,100,0,1
88737,-76.9230769230769,4,1,1,100,0,1
89037,-76.9230769230769,4,1,3,100,0,1
89337,-76.9230769230769,4,1,1,100,0,1
89637,-76.9230769230769,4,1,3,100,0,1
89937,-76.9230769230769,4,1,1,100,0,1
90837,-76.9230769230769,4,1,3,100,0,1
91137,-76.9230769230769,4,1,1,100,0,1
92037,-76.9230769230769,4,1,3,100,0,1
92337,-76.9230769230769,4,1,1,100,0,1
95637,-76.9230769230769,4,1,3,100,0,1
95937,-76.9230769230769,4,1,1,100,0,1
96837,-76.9230769230769,4,1,3,100,0,1
97137,-76.9230769230769,4,1,1,100,0,1
97437,-76.9230769230769,4,1,3,100,0,1
97737,-76.9230769230769,4,1,1,100,0,1
99237,-76.9230769230769,4,1,3,80,0,1
99537,-76.9230769230769,4,1,1,80,0,1
100437,-100,4,1,1,90,0,0
110037,-100,4,1,3,90,0,0
110337,-100,4,1,1,90,0,0
119637,300,6,2,1,40,1,8
119637,-200,6,2,1,40,0,0
121437,300,4,2,2,40,1,0
121437,-200,4,2,2,40,0,0
150237,-100,4,1,1,50,0,0
152337,-90.9090909090909,4,1,1,50,0,0
152937,-100,4,1,1,50,0,0
154737,-83.3333333333333,4,1,1,50,0,0
155337,-100,4,1,1,50,0,0
157137,-76.9230769230769,4,1,1,50,0,0
157737,-100,4,1,1,50,0,0
159837,-76.9230769230769,4,1,1,80,0,1
169437,-76.9230769230769,4,1,3,80,0,1
169737,-76.9230769230769,4,1,1,80,0,1
171837,-76.9230769230769,4,1,3,80,0,1
172137,-76.9230769230769,4,1,1,80,0,1
174237,-76.9230769230769,4,1,3,80,0,1
174537,-76.9230769230769,4,1,1,80,0,1
175437,-76.9230769230769,4,1,3,80,0,1
175737,-76.9230769230769,4,1,1,80,0,1
176637,-76.9230769230769,4,1,3,80,0,1
176937,-76.9230769230769,4,1,1,80,0,1
177237,-76.9230769230769,4,1,3,80,0,1
177537,-76.9230769230769,4,1,1,80,0,1
177837,-80,4,1,1,40,0,1
178137,-83.3333333333333,4,1,1,40,0,1
178437,-86.9565217391304,4,1,1,40,0,1
178737,-90.9090909090909,4,1,1,40,0,1
179037,-100,4,1,1,80,0,0

[HitObjects]
256,192,2037,2,0,P|191:162|153:95,1,150,0|0,0:0|0:0,0:0:0:0:
220,24,2487,1,0,0:0:0:0:
300,76,2637,2,0,P|336:92|372:96,1,75
256,192,2937,2,0,P|232:224|204:244,1,75
116,288,3237,5,0,0:0:0:0:
52,212,3387,1,0,0:0:0:0:
116,288,3537,2,0,P|140:320|168:340,1,75
396,288,3837,2,0,P|372:320|344:340,1,75
256,296,4137,1,0,0:0:0:0:
256,88,4287,1,0,0:0:0:0:
256,192,4437,6,0,P|292:208|328:216,1,75
428,136,4737,2,0,P|392:120|356:112,1,75,0|0,0:0|0:0,0:0:0:0:
256,192,5037,6,0,P|220:208|184:216,1,75
84,136,5337,2,0,P|120:120|156:112,1,75,0|0,0:0|0:0,0:0:0:0:
372,200,5637,6,0,P|371:237|356:272,1,75
140,184,5937,2,0,P|141:147|154:112,1,75
256,60,6237,5,0,0:0:0:0:
380,156,6387,1,0,0:0:0:0:
256,192,6537,1,0,0:0:0:0:
132,156,6687,1,0,0:0:0:0:
380,156,6837,6,0,P|408:232|392:296,1,150
304,340,7287,1,0,0:0:0:0:
208,320,7437,2,0,P|176:296|156:264,1,75
88,336,7737,2,0,P|64:304|52:272,1,75
64,176,8037,5,0,0:0:0:0:
448,176,8187,1,0,0:0:0:0:
168,136,8337,1,0,0:0:0:0:
344,136,8487,1,0,0:0:0:0:
256,192,8637,6,0,P|244:227|237:266,1,75
304,340,8937,1,0,0:0:0:0:
368,220,9087,1,0,0:0:0:0:
432,340,9237,6,0,P|472:324|496:304,1,75
231,323,9537,2,0,P|268:327|304:340,1,75
368,220,9837,2,0,P|408:204|432:184,1,75
167,203,10137,2,0,P|204:207|239:219,1,75
256,64,10437,5,0,0:0:0:0:
256,60,10737,5,0,0:0:0:0:
256,56,11037,5,0,0:0:0:0:
256,52,11337,6,0,L|256:168,1,112.500004291535,0|0,0:0|0:0,0:0:0:0:
212,272,11787,1,0,0:0:0:0:
100,280,11937,1,8,0:0:0:0:
28,192,12087,1,0,0:0:0:0:
52,84,12237,2,0,P|124:68|184:108,1,150,0|8,0:0|0:0,0:0:0:0:
256,192,12687,1,0,0:0:0:0:
152,228,12837,6,0,L|144:264,2,37.5
256,56,13137,1,8,0:0:0:0:
360,228,13287,1,0,0:0:0:0:
256,192,13437,2,0,P|220:172|196:148,1,75
304,120,13737,2,0,P|340:100|364:76,1,75,8|0,0:0|0:0,0:0:0:0:
256,24,14037,5,0,0:0:0:0:
148,56,14187,1,0,0:0:0:0:
120,164,14337,2,0,P|128:200|152:228,1,75,8|0,0:0|0:0,0:0:0:0:
256,192,14637,2,0,L|232:164,2,37.5
360,228,14937,1,8,0:0:0:0:
452,164,15087,1,0,0:0:0:0:
256,24,15237,6,0,L|220:16,2,37.5
352,136,15537,2,0,L|380:160,2,37.5,8|0|0,0:0|0:0|0:0,0:0:0:0:
208,100,15837,1,0,0:0:0:0:
172,108,15912,1,0,0:0:0:0:
144,132,15987,1,0,0:0:0:0:
128,168,16062,1,0,0:0:0:0:
124,204,16137,1,0,0:0:0:0:
196,288,16287,1,0,0:0:0:0:
256,192,16437,6,0,P|296:192|332:200,1,75
196,288,16737,2,0,P|188:248|192:212,1,75,8|0,0:0|0:0,0:0:0:0:
330,199,17037,2,0,P|392:152|408:84,1,150,0|8,0:0|0:0,0:0:0:0:
308,32,17487,1,0,0:0:0:0:
204,72,17637,6,0,L|176:100,2,37.5
308,312,17937,1,8,0:0:0:0:
256,192,18087,1,0,0:0:0:0:
328,104,18237,2,0,P|364:88|400:80,1,75
184,280,18537,2,0,P|148:296|112:304,1,75,8|0,0:0|0:0,0:0:0:0:
36,224,18837,5,0,0:0:0:0:
116,144,18987,1,0,0:0:0:0:
28,76,19137,2,0,P|48:48|76:20,1,75,8|0,0:0|0:0,0:0:0:0:
176,72,19437,2,0,L|196:104,2,37.5
36,224,19737,1,8,0:0:0:0:
176,72,19887,1,0,0:0:0:0:
256,260,20037,6,0,L|232:292,2,37.5
336,72,20337,6,0,L|360:104,2,37.5,8|0|0,0:0|0:0|0:0,0:0:0:0:
256,148,20637,6,0,L|244:164,8,18.75,0|0|0|0|0|0|0|0|0,0:0|0:0|0:0|0:0|0:0|0:0|0:0|0:0|0:0,0:0:0:0:
340,224,21087,1,0,0:0:0:0:
448,192,21237,6,0,P|480:160|492:128,1,75
384,100,21537,2,0,P|352:80|328:52,1,75,8|0,0:0|0:0,0:0:0:0:
216,36,21837,1,0,0:0:0:0:
196,68,21912,1,0,0:0:0:0:
176,100,21987,1,0,0:0:0:0:
156,132,22062,1,0,0:0:0:0:
136,164,22137,1,8,0:0:0:0:
176,268,22287,1,0,0:0:0:0:
280,308,22437,6,0,P|320:312|352:300,1,75
348,148,22737,2,0,P|312:145|276:156,1,75,8|0,0:0|0:0,0:0:0:0:
176,268,23037,1,0,0:0:0:0:
276,156,23187,1,0,0:0:0:0:
280,308,23337,1,8,0:0:0:0:
264,340,23412,1,0,0:0:0:0:
236,368,23487,1,0,0:0:0:0:
200,376,23562,1,0,0:0:0:0:
164,376,23637,6,0,L|100:336,1,75
32,232,23937,2,0,L|96:192,1,75,8|0,0:0|0:0,0:0:0:0:
176,268,24237,1,0,0:0:0:0:
200,300,24312,1,0,0:0:0:0:
240,308,24387,1,0,0:0:0:0:
280,308,24462,1,0,0:0:0:0:
316,288,24537,1,8,0:0:0:0:
376,192,24687,1,0,0:0:0:0:
256,40,24837,6,0,L|220:28,2,37.5
256,192,25137,6,0,L|292:180,2,37.5,8|0|0,0:0|0:0|0:0,0:0:0:0:
256,344,25437,1,0,0:0:0:0:
292,352,25512,1,0,0:0:0:0:
328,348,25587,1,0,0:0:0:0:
360,332,25662,1,0,0:0:0:0:
384,304,25737,1,8,0:0:0:0:
376,192,25887,1,0,0:0:0:0:
256,112,26037,6,0,P|216:108|180:108,1,75
180,260,26337,2,0,P|220:264|256:264,1,75,8|0,0:0|0:0,0:0:0:0:
256,112,26637,1,0,0:0:0:0:
228,84,26712,1,0,0:0:0:0:
192,76,26787,1,0,0:0:0:0:
156,80,26862,1,0,0:0:0:0:
120,96,26937,1,8,0:0:0:0:
60,192,27087,1,0,0:0:0:0:
100,296,27237,6,0,L|120:328,2,37.5
256,192,27537,2,0,L|236:160,2,37.5,8|0|0,0:0|0:0|0:0,0:0:0:0:
412,296,27837,1,0,0:0:0:0:
480,164,27987,1,0,0:0:0:0:
412,296,28137,1,8,0:0:0:0:
384,324,28212,1,0,0:0:0:0:
348,336,28287,1,0,0:0:0:0:
312,336,28362,1,0,0:0:0:0:
280,320,28437,6,0,P|252:296|232:264,1,75
348,208,28737,2,0,P|376:184|396:152,1,75,8|0,0:0|0:0,0:0:0:0:
328,60,29037,1,0,0:0:0:0:
292,60,29112,1,0,0:0:0:0:
256,60,29187,1,0,0:0:0:0:
220,60,29262,1,0,0:0:0:0:
184,60,29337,1,8,0:0:0:0:
115,151,29487,1,0,0:0:0:0:
164,256,29637,6,0,L|184:288,2,37.5
348,256,29937,6,0,L|328:288,2,37.5,8|0|0,0:0|0:0|0:0,0:0:0:0:
256,192,30237,6,0,L|256:172,8,18.75
256,60,30687,1,0,0:0:0:0:
368,36,30837,6,0,P|420:60|452:108,1,112.500004291535,4|0,2:0|0:0,0:0:0:0:
380,192,31287,1,0,0:0:0:0:
292,260,31437,1,0,0:0:0:0:
264,264,31512,1,0,0:0:0:0:
236,268,31587,1,0,0:0:0:0:
208,272,31662,1,0,0:0:0:0:
180,276,31737,1,0,0:0:0:0:
80,228,31887,1,0,0:0:0:0:
48,120,32037,6,0,P|68:64|104:24,1,112.500004291535
156,124,32487,2,0,P|204:160|256:168,1,112.500004291535
256,56,32937,1,0,0:0:0:0:
228,52,33012,1,0,0:0:0:0:
200,48,33087,1,0,0:0:0:0:
172,44,33162,1,0,0:0:0:0:
144,40,33237,6,0,L|92:60,1,56.2500021457673
116,168,33537,2,0,L|168:148,1,56.2500021457673
256,216,33837,2,0,L|256:232,8,14.0625005364418,0|0|0|0|0|0|0|0|0,0:0|0:0|0:0|0:0|0:0|0:0|0:0|0:0|0:0,0:0:0:0:
343,147,34287,1,0,0:0:0:0:
456,160,34437,6,0,P|496:208|504:256,1,112.500004291535
392,244,34887,2,0,P|340:272|312:316,1,112.500004291535
200,316,35337,2,0,L|172:304,2,28.1250010728836
256,216,35637,5,0,0:0:0:0:
184,132,35787,1,0,0:0:0:0:
256,216,35937,1,0,0:0:0:0:
284,220,36012,1,0,0:0:0:0:
312,216,36087,1,0,0:0:0:0:
336,204,36162,1,0,0:0:0:0:
356,184,36237,2,0,L|368:152,3,28.1250010728836
356,116,36537,2,0,L|308:88,1,56.2500021457673
172,48,36837,6,0,P|124:76|104:132,1,112.500004291535
256,216,37287,2,0,P|208:188|188:132,1,112.500004291535
256,44,37737,1,0,0:0:0:0:
256,44,37812,1,0,0:0:0:0:
256,44,37887,2,0,L|308:20,1,56.2500021457673
416,48,38187,5,0,0:0:0:0:
348,140,38337,1,0,0:0:0:0:
348,168,38412,1,0,0:0:0:0:
348,196,38487,1,0,0:0:0:0:
348,224,38562,1,0,0:0:0:0:
348,252,38637,2,0,P|320:300|272:328,1,112.500004291535
160,312,39087,1,0,0:0:0:0:
92,224,39237,5,0,0:0:0:0:
92,188,39312,1,0,0:0:0:0:
108,152,39387,1,0,0:0:0:0:
140,132,39462,1,0,0:0:0:0:
176,124,39537,6,0,L|212:132,3,37.5
248,148,39837,6,0,L|256:164,8,18.75,0|0|0|0|0|0|0|0|4,0:0|0:0|0:0|0:0|0:0|0:0|0:0|0:0|0:0,0:0:0:0:
248,148,40437,6,0,P|277:120|304:101,1,75
396,193,40737,2,0,P|367:220|340:240,1,75,8|0,0:0|0:0,0:0:0:0:
172,240,41037,1,0,0:0:0:0:
256,56,41187,1,0,0:0:0:0:
340,240,41337,2,0,P|323:279|300:302,1,75,8|0,0:0|0:0,0:0:0:0:
176,332,41637,6,0,L|144:312,2,37.5
256,192,41937,2,0,L|288:172,2,37.5
104,192,42237,1,0,0:0:0:0:
83,160,42312,1,0,0:0:0:0:
78,122,42387,1,0,0:0:0:0:
90,88,42462,1,0,0:0:0:0:
116,61,42537,1,4,2:0:0:0:
116,61,42837,6,0,P|156:68|192:64,1,75
396,61,43137,2,0,P|356:68|320:64,1,75,8|0,0:0|0:0,0:0:0:0:
192,136,43437,1,0,0:0:0:0:
320,136,43587,1,0,0:0:0:0:
256,248,43737,2,0,P|216:264|184:268,1,75,8|0,0:0|0:0,0:0:0:0:
76,232,44037,6,0,L|44:212,2,37.5
120,376,44337,2,0,L|152:356,2,37.5
76,232,44637,1,0,0:0:0:0:
84,196,44712,1,0,0:0:0:0:
104,164,44787,1,0,0:0:0:0:
136,140,44862,1,0,0:0:0:0:
172,128,44937,1,4,2:0:0:0:
172,128,45237,6,0,L|244:148,1,75
328,276,45537,2,0,L|256:296,1,75,8|0,0:0|0:0,0:0:0:0:
156,248,45837,1,0,0:0:0:0:
356,136,45987,1,0,0:0:0:0:
256,192,46137,2,0,P|236:156|232:120,1,75,8|0,0:0|0:0,0:0:0:0:
344,68,46437,6,0,L|380:52,2,37.5
168,68,46737,2,0,L|132:52,2,37.5
256,192,47037,1,0,0:0:0:0:
236,224,47112,1,0,0:0:0:0:
204,240,47187,1,0,0:0:0:0:
168,244,47262,1,0,0:0:0:0:
132,236,47337,1,4,2:0:0:0:
132,236,47637,6,0,L|88:176,1,75
224,96,47937,2,0,L|180:156,1,75,8|0,0:0|0:0,0:0:0:0:
256,288,48237,1,0,0:0:0:0:
332,156,48387,1,0,0:0:0:0:
256,288,48537,1,8,0:0:0:0:
180,156,48687,1,0,0:0:0:0:
256,28,48837,5,0,0:0:0:0:
292,20,48912,1,0,0:0:0:0:
328,24,48987,1,0,0:0:0:0:
360,40,49062,1,0,0:0:0:0:
376,72,49137,1,0,0:0:0:0:
380,108,49212,1,0,0:0:0:0:
360,140,49287,1,0,0:0:0:0:
344,172,49362,1,0,0:0:0:0:
336,208,49437,5,0,0:0:0:0:
344,244,49512,1,0,0:0:0:0:
364,276,49587,1,0,0:0:0:0:
400,288,49662,1,0,0:0:0:0:
436,284,49737,1,0,0:0:0:0:
468,268,49812,1,0,0:0:0:0:
488,236,49887,1,0,0:0:0:0:
484,200,49962,1,0,0:0:0:0:
468,168,50037,6,2,P|331:138|278:266,1,300,2|0,0:0|0:0,0:0:0:0:
192,340,51387,1,0,0:0:0:0:
88,292,51537,5,0,0:0:0:0:
64,264,51612,1,0,0:0:0:0:
56,228,51687,1,0,0:0:0:0:
68,192,51762,1,0,0:0:0:0:
96,168,51837,1,0,0:0:0:0:
132,160,51912,1,0,0:0:0:0:
168,172,51987,1,0,0:0:0:0:
196,196,52062,1,0,0:0:0:0:
232,200,52137,1,0,0:0:0:0:
268,188,52212,1,0,0:0:0:0:
292,160,52287,1,0,0:0:0:0:
296,124,52362,1,0,0:0:0:0:
280,92,52437,6,0,L|132:72,1,150,0|8,0:0|0:0,0:0:0:0:
132,72,53037,2,0,P|112:108|104:144,1,75
168,264,53337,2,0,P|188:228|196:192,1,75,8|0,0:0|0:0,0:0:0:0:
196,196,53562,1,0,0:0:0:0:
196,196,53637,1,0,0:0:0:0:
256,100,53787,1,0,0:0:0:0:
316,196,53937,2,0,P|356:208|388:208,2,75,8|0|0,0:0|0:0|0:0,0:0:0:0:
256,100,54387,1,0,0:0:0:0:
340,24,54537,6,0,P|416:44|452:104,1,150,8|0,0:0|0:0,0:0:0:0:
451,101,55137,1,8,0:0:0:0:
451,101,55437,2,0,P|432:136|424:172,1,75
344,248,55737,2,0,P|324:216|316:180,1,75,8|0,0:0|0:0,0:0:0:0:
315,179,55962,1,0,0:0:0:0:
315,179,56037,1,0,0:0:0:0:
424,170,56187,1,0,0:0:0:0:
484,268,56337,2,0,P|480:308|468:340,2,75,8|0|0,0:0|0:0|0:0,0:0:0:0:
424,170,56787,1,0,0:0:0:0:
315,179,56937,6,0,P|288:148|276:116,2,75,8|0|0,0:0|0:0|0:0,0:0:0:0:
315,179,57537,1,8,0:0:0:0:
315,179,57837,2,0,P|288:204|256:224,1,75
144,160,58137,2,0,P|171:135|203:115,1,75,8|0,0:0|0:0,0:0:0:0:
203,114,58362,1,0,0:0:0:0:
203,114,58437,1,0,0:0:0:0:
255,224,58587,5,0,0:0:0:0:
312,100,58737,1,8,0:0:0:0:
256,236,58887,1,0,0:0:0:0:
192,88,59037,1,0,0:0:0:0:
256,248,59187,1,0,0:0:0:0:
324,76,59337,6,0,P|396:100|440:160,1,150,8|0,0:0|0:0,0:0:0:0:
439,157,59937,1,8,0:0:0:0:
439,157,60237,2,0,P|404:184|384:208,1,75
468,332,60537,2,0,P|432:356|400:368,1,75,8|0,0:0|0:0,0:0:0:0:
402,367,60762,1,0,0:0:0:0:
402,367,60837,2,0,L|340:324,1,75
220,280,61137,1,8,0:0:0:0:
104,336,61287,2,0,L|72:268,1,75
176,192,61587,2,0,L|208:124,1,75,0|8,0:0|0:0,0:0:0:0:
207,124,61887,1,0,0:0:0:0:
207,124,62037,6,0,P|296:96|352:108,1,150,0|8,0:0|0:0,0:0:0:0:
350,107,62637,2,0,P|332:140|328:176,1,75
256,284,62937,2,0,P|216:280|184:268,1,75,8|0,0:0|0:0,0:0:0:0:
183,267,63162,1,0,0:0:0:0:
183,267,63237,1,0,0:0:0:0:
183,267,63537,2,0,P|200:228|200:192,1,75,8|0,0:0|0:0,0:0:0:0:
92,128,63837,2,0,P|100:88|120:56,1,75
240,100,64137,6,0,P|316:112|384:88,2,150,8|0|8,0:0|0:0|0:0,0:0:0:0:
240,100,65037,2,0,P|216:136|208:168,1,75
332,192,65337,2,0,P|356:228|364:260,1,75,8|0,0:0|0:0,0:0:0:0:
363,258,65562,1,0,0:0:0:0:
363,258,65637,2,0,L|312:312,1,75
188,340,65937,1,8,0:0:0:0:
108,240,66087,2,0,P|100:200|104:164,1,75
232,156,66387,2,0,P|272:144|304:124,2,75,0|8|0,0:0|0:0|0:0,0:0:0:0:
232,156,66837,6,0,P|176:100|108:80,1,150,0|8,0:0|0:0,0:0:0:0:
109,80,67437,2,0,P|120:116|116:152,1,75
144,352,67737,2,0,P|155:316|151:280,1,75,8|0,0:0|0:0,0:0:0:0:
150,279,67962,1,0,0:0:0:0:
150,279,68037,2,0,P|178:247|210:231,2,75,0|0|8,0:0|0:0|0:0,0:0:0:0:
362,279,68487,2,0,P|333:247|301:231,2,75
256,342,68937,6,0,L|256:192,1,150,8|0,0:0|0:0,0:0:0:0:
256,188,69387,1,0,0:0:0:0:
256,184,69537,1,8,0:0:0:0:
256,180,69687,1,0,0:0:0:0:
256,176,69837,5,0,0:0:0:0:
284,152,69912,1,0,0:0:0:0:
320,144,69987,1,0,0:0:0:0:
356,156,70062,1,0,0:0:0:0:
384,180,70137,6,0,L|404:212,3,37.5,8|0|0|0,0:0|0:0|0:0|0:0,0:0:0:0:
440,216,70437,6,0,L|456:196,11,25
488,192,71037,6,0,L|500:208,16,18.75,0|0|0|0|0|0|0|0|0|0|0|0|0|0|0|0|4,0:0|0:0|0:0|0:0|0:0|0:0|0:0|0:0|0:0|0:0|0:0|0:0|0:0|0:0|0:0|0:0|0:0,0:0:0:0:
432,332,71937,5,0,0:0:0:0:
256,192,72387,2,0,P|176:196|144:208,2,112.5
256,192,73737,1,0,0:0:0:0:
80,332,74037,5,0,0:0:0:0:
28,192,74337,2,0,P|56:144|100:108,2,112.5
28,192,75687,1,0,0:0:0:0:
256,36,76137,1,0,0:0:0:0:
484,192,76437,5,0,0:0:0:0:
332,360,76737,2,0,P|272:312|256:224,2,168.750006437302
436,312,77787,1,0,0:0:0:0:
424,200,77937,2,0,L|400:148,1,56.2500021457673
300,200,78237,2,0,L|260:160,1,56.2500021457673
184,244,78537,2,0,L|128:232,1,56.2500021457673
128,232,78837,5,0,0:0:0:0:
128,232,79137,2,0,P|140:148|200:96,1,168.750006437302
200,95,80037,6,0,P|281:135|404:96,1,225.000008583069
403,96,81237,6,0,P|440:180|384:260,1,194.999991073609,4|8,0:0|0:0,0:0:0:0:
292,248,81687,1,0,0:0:0:0:
204,204,81837,2,0,P|184:164|180:112,1,97.4999955368044
300,156,82137,2,0,P|320:116|324:64,1,97.4999955368044,8|0,0:0|0:0,0:0:0:0:
180,111,82437,6,0,P|123:190|129:284,1,194.999991073609,0|8,0:0|0:0,0:0:0:0:
216,332,82887,1,0,0:0:0:0:
312,308,83037,2,0,L|368:228,1,97.4999955368044
236,192,83337,2,0,L|180:112,1,97.4999955368044,8|0,0:0|0:0,0:0:0:0:
256,36,83637,5,0,0:0:0:0:
276,36,83937,1,0,0:0:0:0:
296,36,84237,1,0,0:0:0:0:
360,108,84387,1,0,0:0:0:0:
340,204,84537,1,0,0:0:0:0:
320,204,84837,1,0,0:0:0:0:
300,204,85137,1,0,0:0:0:0:
280,204,85437,1,0,0:0:0:0:
260,204,85737,1,0,0:0:0:0:
240,204,86037,6,0,P|272:288|364:324,1,194.999991073609,4|8,0:0|0:0,0:0:0:0:
444,264,86487,1,0,0:0:0:0:
488,176,86637,2,0,P|480:124|456:88,1,97.4999955368044
288,80,86937,2,0,P|311:121|351:149,1,97.4999955368044,8|0,0:0|0:0,0:0:0:0:
488,176,87237,6,0,P|444:260|352:288,1,194.999991073609,4|8,0:0|0:0,0:0:0:0:
256,272,87687,1,0,0:0:0:0:
200,192,87837,2,0,L|160:104,1,97.4999955368044
44,192,88137,2,0,L|4:280,1,97.4999955368044,8|0,0:0|0:0,0:0:0:0:
3,280,88437,6,0,P|88:336|172:308,1,194.999991073609,4|0,0:0|0:0,0:0:0:0:
508,280,89037,2,0,P|424:336|340:308,1,194.999991073609,4|0,0:0|0:0,0:0:0:0:
172,308,89637,5,0,0:0:0:0:
340,308,89937,1,0,0:0:0:0:
256,164,90237,2,0,P|288:124|328:96,1,97.4999955368044
256,164,90537,2,0,P|224:124|184:96,1,97.4999955368044
76,164,90837,6,0,P|93:258|172:308,1,194.999991073609,4|8,0:0|0:0,0:0:0:0:
256,260,91287,1,0,0:0:0:0:
328,196,91437,2,0,L|372:108,1,97.4999955368044
184,196,91737,2,0,L|140:108,1,97.4999955368044,8|0,0:0|0:0,0:0:0:0:
256,32,92037,6,0,L|452:32,1,194.999991073609,4|8,0:0|0:0,0:0:0:0:
480,124,92487,1,0,0:0:0:0:
428,208,92637,2,0,P|388:240|344:252,1,97.4999955368044
84,208,92937,2,0,P|124:240|168:252,1,97.4999955368044,8|0,0:0|0:0,0:0:0:0:
256,192,93237,5,0,0:0:0:0:
256,192,93537,1,0,0:0:0:0:
256,192,93837,1,0,0:0:0:0:
200,112,93987,1,0,0:0:0:0:
280,56,94137,1,0,0:0:0:0:
280,56,94437,1,0,0:0:0:0:
280,56,94737,1,0,0:0:0:0:
280,56,95037,1,0,0:0:0:0:
280,56,95337,1,0,0:0:0:0:
280,56,95637,6,0,P|360:95|380:192,1,194.999991073609,4|8,0:0|0:0,0:0:0:0:
312,260,96087,1,0,0:0:0:0:
216,248,96237,2,0,L|128:208,1,97.4999955368044
276,140,96537,2,0,L|364:100,1,97.4999955368044,8|0,0:0|0:0,0:0:0:0:
488,192,96837,6,0,L|388:360,1,194.999991073609,4|8,0:0|0:0,0:0:0:0:
292,364,97287,1,0,0:0:0:0:
256,272,97437,2,0,P|276:228|312:196,1,97.4999955368044,4|0,0:0|0:0,0:0:0:0:
256,60,97737,2,0,P|204:68|168:96,1,97.4999955368044,8|0,0:0|0:0,0:0:0:0:
169,94,98037,5,0,0:0:0:0:
169,94,98337,1,0,0:0:0:0:
169,94,98637,1,0,0:0:0:0:
169,94,98937,1,0,0:0:0:0:
169,94,99237,5,0,0:0:0:0:
156,128,99312,1,0,0:0:0:0:
160,160,99387,1,0,0:0:0:0:
172,192,99462,1,0,0:0:0:0:
200,212,99537,1,0,0:0:0:0:
232,224,99612,1,0,0:0:0:0:
264,220,99687,1,0,0:0:0:0:
296,204,99762,1,0,0:0:0:0:
312,176,99837,2,0,L|296:128,8,48.7499977684022,0|0|0|0|0|0|0|0|0,0:0|0:0|0:0|0:0|0:0|0:0|0:0|0:0|0:0,0:0:0:0:
260,32,110037,6,0,L|336:48,1,75
288,136,110337,2,0,L|356:168,1,75,8|0,0:0|0:0,0:0:0:0:
256,280,110637,1,0,0:0:0:0:
356,168,110787,1,0,0:0:0:0:
256,280,110937,2,0,P|264:320|284:348,1,75,8|0,0:0|0:0,0:0:0:0:
392,244,111237,6,0,L|432:180,1,75
296,116,111537,2,0,L|256:52,1,75,8|0,0:0|0:0,0:0:0:0:
132,88,111837,1,0,0:0:0:0:
232,168,111987,1,0,0:0:0:0:
132,248,112137,1,0,0:0:0:0:
232,328,112287,1,0,0:0:0:0:
132,248,112437,6,0,P|108:208|104:180,1,75
232,168,112737,2,0,P|256:128|260:100,1,75,8|0,0:0|0:0,0:0:0:0:
172,28,113037,1,0,0:0:0:0:
64,60,113187,1,0,0:0:0:0:
28,168,113337,2,0,P|32:208|48:240,1,75,8|0,0:0|0:0,0:0:0:0:
120,328,113637,6,0,L|192:308,1,75
392,56,113937,2,0,L|320:76,1,75,8|0,0:0|0:0,0:0:0:0:
208,96,114237,1,0,0:0:0:0:
304,288,114387,1,0,0:0:0:0:
154,158,114537,1,0,0:0:0:0:
357,225,114687,1,0,0:0:0:0:
256,192,114837,6,0,P|268:152|288:124,1,75
392,56,115137,2,0,P|416:88|444:108,1,75,8|0,0:0|0:0,0:0:0:0:
508,244,115437,1,0,0:0:0:0:
444,108,115587,1,0,0:0:0:0:
508,244,115737,2,0,P|492:280|468:308,1,75,8|0,0:0|0:0,0:0:0:0:
352,356,116037,6,0,P|320:336|292:308,1,75
180,328,116337,2,0,P|148:300|132:272,1,75,8|0,0:0|0:0,0:0:0:0:
152,160,116637,1,0,0:0:0:0:
360,160,116787,1,0,0:0:0:0:
152,160,116937,1,0,0:0:0:0:
360,160,117087,1,0,0:0:0:0:
256,52,117237,6,0,P|216:40|184:36,1,75
80,176,117537,2,0,P|120:164|152:160,1,75,8|0,0:0|0:0,0:0:0:0:
256,208,117837,1,0,0:0:0:0:
176,336,117987,1,0,0:0:0:0:
256,208,118137,2,0,P|252:168|240:136,1,75,8|0,0:0|0:0,0:0:0:0:
116,48,118437,6,0,L|68:108,1,75
116,336,118737,2,0,L|68:276,1,75,8|0,0:0|0:0,0:0:0:0:
144,192,119037,1,0,0:0:0:0:
256,292,119187,1,0,0:0:0:0:
368,192,119337,1,0,0:0:0:0:
256,292,119487,1,0,0:0:0:0:
144,192,119637,6,6,B|96:120|168:32|256:96|256:96|344:32|416:120|368:192,1,450,2|4,0:0|0:0,0:0:0:0:
256,296,121737,5,0,0:0:0:0:
112,260,122037,1,8,0:0:0:0:
112,260,122187,2,0,P|84:228|72:196,1,75,0|0,0:0|0:0,0:0:0:0:
148,188,122637,2,0,P|192:168|212:152,1,75
156,104,123087,1,0,0:0:0:0:
120,108,123237,1,8,0:0:0:0:
84,96,123387,1,0,0:0:0:0:
60,64,123537,1,0,0:0:0:0:
256,20,123837,5,0,0:0:0:0:
452,64,124137,1,0,0:0:0:0:
316,212,124437,1,8,0:0:0:0:
316,212,124587,2,0,P|276:208|240:200,1,75
216,272,125037,2,0,P|176:264|144:248,1,75
108,184,125487,1,0,0:0:0:0:
140,116,125637,2,0,P|192:104|212:88,1,75,8|0,0:0|0:0,0:0:0:0:
256,32,126087,5,0,0:0:0:0:
303,91,126237,2,0,P|320:104|372:116,1,75
371,116,126837,1,8,0:0:0:0:
371,116,126987,2,0,P|384:160|384:192,1,75
324,232,127437,2,0,L|284:256,2,37.5
272,180,127887,2,0,L|236:172,2,37.5,0|8|0,0:0|0:0|0:0,0:0:0:0:
300,108,128337,6,0,P|272:80|240:60,1,75
242,61,128937,1,0,0:0:0:0:
242,61,129237,2,0,P|208:80|172:84,1,75,8|0,0:0|0:0,0:0:0:0:
100,64,129687,1,0,0:0:0:0:
32,96,129837,2,0,L|12:168,1,75,0|8,0:0|0:0,0:0:0:0:
32,188,130437,5,8,0:0:0:0:
32,188,130587,1,8,0:0:0:0:
32,188,130737,1,8,0:0:0:0:
32,188,130887,1,8,0:0:0:0:
32,188,131037,6,0,P|69:208|101:212,1,75
256,48,131637,1,8,0:0:0:0:
256,48,131787,2,0,L|324:80,1,75
324,192,132237,2,0,P|284:184|256:164,1,75
164,104,132687,1,0,0:0:0:0:
52,116,132837,2,0,L|24:148,2,37.5,8|0|0,0:0|0:0|0:0,0:0:0:0:
52,116,133437,6,0,L|52:192,1,75
256,284,134037,1,8,0:0:0:0:
256,284,134187,2,0,P|232:252|216:220,1,75
256,116,134637,2,0,P|292:132|324:152,1,75
322,150,135087,1,0,0:0:0:0:
322,150,135237,2,0,P|364:148|396:136,1,75,8|0,0:0|0:0,0:0:0:0:
492,192,135687,1,0,0:0:0:0:
468,300,135837,6,0,L|400:332,1,75,0|0,0:0|0:0,0:0:0:0:
400,331,136437,1,8,0:0:0:0:
400,331,136587,2,0,L|400:256,1,75
308,192,137037,2,0,L|272:168,2,37.5
196,192,137487,2,0,L|160:176,2,37.5,0|8|0,0:0|0:0|0:0,0:0:0:0:
84,212,137937,6,0,P|56:240|44:272,1,75
43,272,138387,1,0,0:0:0:0:
43,272,138537,1,0,0:0:0:0:
43,272,138687,1,0,0:0:0:0:
43,272,138837,5,8,0:0:0:0:
80,284,138912,1,0,0:0:0:0:
116,280,138987,1,0,0:0:0:0:
144,256,139062,1,0,0:0:0:0:
156,220,139137,1,0,0:0:0:0:
152,184,139212,1,0,0:0:0:0:
124,156,139287,1,0,0:0:0:0:
88,144,139362,1,0,0:0:0:0:
52,148,139437,6,0,L|44:160,11,12.5,0|0|0|0|0|0|8|0|0|0|0|0,0:0|0:0|0:0|0:0|0:0|0:0|0:0|0:0|0:0|0:0|0:0|0:0,0:0:0:0:
52,184,140037,6,0,L|60:196,16,9.375,8|0|0|0|8|0|0|0|8|0|0|0|8|0|0|0|4,0:0|0:0|0:0|0:0|0:0|0:0|0:0|0:0|0:0|0:0|0:0|0:0|0:0|0:0|0:0|0:0|0:0,0:0:0:0:
52,140,150237,6,0,P|108:192|180:192,1,150,0|8,0:0|0:0,0:0:0:0:
178,192,150837,1,0,0:0:0:0:
256,112,150987,1,0,0:0:0:0:
178,192,151137,1,8,0:0:0:0:
256,272,151287,1,0,0:0:0:0:
333,192,151437,2,0,P|366:129|351:55,1,150,0|8,0:0|0:0,0:0:0:0:
178,192,151887,2,0,P|145:125|161:54,1,150
256,112,152337,6,0,B|272:168|272:168|256:212|256:212|256:272,2,165.000005035401,8|0|8,0:0|0:0|0:0,0:0:0:0:
256,112,153237,1,0,0:0:0:0:
178,192,153387,1,0,0:0:0:0:
100,112,153537,1,8,0:0:0:0:
20,192,153687,1,0,0:0:0:0:
100,112,153837,2,0,P|128:88|164:72,1,75
162,72,154287,2,0,P|189:136|256:176,1,150
256,176,154737,6,0,P|226:255|140:288,2,179.999994506836,8|0|8,0:0|0:0|0:0,0:0:0:0:
256,176,155637,1,0,0:0:0:0:
336,96,155787,1,0,0:0:0:0:
256,176,155937,1,8,0:0:0:0:
176,96,156087,1,0,0:0:0:0:
336,96,156237,2,0,B|375:124|375:124|400:171|400:171|438:200,1,150,0|8,0:0|0:0,0:0:0:0:
176,96,156687,2,0,B|137:123|137:123|112:171|112:171|74:199,1,150
256,284,157137,6,0,B|268:223|268:223|241:160|241:160|256:98,2,194.999991073609,8|0|8,0:0|0:0|0:0,0:0:0:0:
256,284,158037,1,0,0:0:0:0:
148,312,158187,1,0,0:0:0:0:
56,248,158337,1,8,0:0:0:0:
148,312,158487,1,0,0:0:0:0:
256,284,158637,2,0,P|276:244|280:212,1,75
279,214,159087,2,0,P|341:178|416:188,1,150
420,192,159537,1,8,0:0:0:0:
424,196,159687,1,0,0:0:0:0:
428,200,159837,6,0,L|460:108,1,97.4999955368044
336,24,160137,2,0,L|304:116,1,97.4999955368044,8|0,0:0|0:0,0:0:0:0:
224,172,160437,1,0,0:0:0:0:
128,188,160587,1,0,0:0:0:0:
224,172,160737,2,0,P|232:116|220:76,1,97.4999955368044,8|0,0:0|0:0,0:0:0:0:
60,124,161037,2,0,P|43:221|108:280,1,194.999991073609,0|8,0:0|0:0,0:0:0:0:
452,124,161487,2,0,P|469:221|404:280,1,194.999991073609
256,288,161937,6,0,L|256:92,1,194.999991073609,8|0,0:0|0:0,0:0:0:0:
256,93,162537,1,8,0:0:0:0:
256,93,162837,2,0,P|208:72|164:60,1,97.4999955368044
164,60,163062,1,0,0:0:0:0:
164,60,163137,1,8,0:0:0:0:
72,92,163287,1,0,0:0:0:0:
36,184,163437,6,0,L|104:256,1,97.4999955368044
248,232,163737,2,0,L|180:160,1,97.4999955368044,8|0,0:0|0:0,0:0:0:0:
256,36,164037,1,0,0:0:0:0:
182,161,164187,1,0,0:0:0:0:
256,36,164337,1,8,0:0:0:0:
330,161,164487,1,0,0:0:0:0:
256,36,164637,6,0,P|160:32|60:40,1,194.999991073609,0|8,0:0|0:0,0:0:0:0:
61,39,165237,1,0,0:0:0:0:
112,176,165387,1,0,0:0:0:0:
160,32,165537,1,8,0:0:0:0:
212,176,165687,1,0,0:0:0:0:
256,36,165837,6,0,P|308:32|352:40,1,97.4999955368044
352,40,166062,1,0,0:0:0:0:
352,40,166137,1,8,0:0:0:0:
432,164,166287,1,0,0:0:0:0:
296,112,166437,2,0,P|244:108|200:116,1,97.4999955368044
199,116,166662,1,0,0:0:0:0:
199,116,166737,6,0,P|176:212|104:272,1,194.999991073609,8|0,0:0|0:0,0:0:0:0:
104,271,167337,1,8,0:0:0:0:
104,271,167637,1,0,0:0:0:0:
48,192,167787,1,0,0:0:0:0:
48,192,167862,1,0,0:0:0:0:
48,192,167937,2,0,L|88:104,1,97.4999955368044,8|0,0:0|0:0,0:0:0:0:
336,168,168237,6,0,L|296:256,1,97.4999955368044,0|0,0:0|0:0,0:0:0:0:
172,224,168538,2,0,L|212:136,1,97.4999955368044,8|0,0:0|0:0,0:0:0:0:
460,200,168837,2,0,L|420:288,1,97.4999955368044,0|0,0:0|0:0,0:0:0:0:
308,348,169137,1,8,0:0:0:0:
272,336,169212,1,0,0:0:0:0:
236,324,169287,1,0,0:0:0:0:
200,312,169362,1,0,0:0:0:0:
168,304,169437,5,4,0:0:0:0:
168,304,169737,1,8,0:0:0:0:
168,304,170037,2,0,P|152:256|144:208,1,97.4999955368044
144,209,170262,1,0,0:0:0:0:
144,209,170337,1,8,0:0:0:0:
200,132,170487,1,0,0:0:0:0:
288,96,170637,6,0,P|336:112|376:144,2,97.4999955368044,0|0|8,0:0|0:0|0:0,0:0:0:0:
100,120,171087,2,0,P|64:84|48:40,2,97.4999955368044
200,132,171537,1,8,0:0:0:0:
200,132,171837,5,4,0:0:0:0:
200,132,172137,1,8,0:0:0:0:
200,132,172437,2,0,L|256:212,1,97.4999955368044
255,211,172662,1,0,0:0:0:0:
255,211,172737,1,8,0:0:0:0:
232,308,172887,1,0,0:0:0:0:
136,324,173037,6,0,P|88:296|64:260,1,97.4999955368044
352,260,173337,2,0,P|400:232|423:198,1,97.4999955368044,8|0,0:0|0:0,0:0:0:0:
184,196,173637,2,0,P|136:168|112:134,1,97.4999955368044
304,132,173937,2,0,P|352:104|375:70,1,97.4999955368044,8|0,0:0|0:0,0:0:0:0:
256,24,174237,6,0,L|60:24,1,194.999991073609,4|8,0:0|0:0,0:0:0:0:
61,24,174837,1,0,0:0:0:0:
16,112,174987,1,0,0:0:0:0:
60,200,175137,2,0,P|104:220|152:224,1,97.4999955368044,8|0,0:0|0:0,0:0:0:0:
152,223,175362,1,0,0:0:0:0:
152,223,175437,2,0,L|204:140,2,97.4999955368044,4|0|8,0:0|0:0|0:0,0:0:0:0:
256,284,175887,1,0,0:0:0:0:
359,223,176037,2,0,L|308:140,2,97.4999955368044,0|0|8,0:0|0:0|0:0,0:0:0:0:
256,284,176637,5,4,0:0:0:0:
256,284,176937,1,8,0:0:0:0:
256,284,177237,2,0,P|212:304|164:312,1,97.4999955368044,4|0,0:0|0:0,0:0:0:0:
163,312,177462,1,0,0:0:0:0:
163,312,177537,1,8,0:0:0:0:
80,264,177687,1,0,0:0:0:0:
68,168,177837,6,0,L|120:88,1,93.75,0|0,0:0|0:0,0:0:0:0:
180,164,178137,2,0,L|240:96,1,89.9999972534181
288,180,178437,2,0,L|356:128,1,86.2500016450882,0|0,0:0|0:0,0:0:0:0:
392,216,178737,2,0,L|464:176,1,82.5000025177003
512,252,179037,1,0,0:0:0:0:
