osu file format v12

[General]
AudioFilename: Infinite of nuclear fusion.mp3
AudioLeadIn: 1000
PreviewTime: 81251
Countdown: 0
SampleSet: Normal
StackLeniency: 0.7
Mode: 1
LetterboxInBreaks: 0
SkinPreference:taiko
WidescreenStoryboard: 1

[Editor]
Bookmarks: 2051,11651,30851,40451,52451,71651,110051,121451,140651,150251,159851,179051
DistanceSpacing: 2
BeatDivisor: 1
GridSize: 4

[Metadata]
Title:Infinite of Nuclear Fusion
TitleUnicode:無限の太陽信仰
Artist:AU
ArtistUnicode:あう
Creator:OnosakiHito
Version:Kantan
Source:Touhou
Tags:utsuho reiuji okuu IoNF unyuu Saten Saten-san Regou techno
BeatmapID:285041
BeatmapSetID:35211

[Difficulty]
HPDrainRate:3
CircleSize:5
OverallDifficulty:3
ApproachRate:5
SliderMultiplier:1.4
SliderTickRate:1

[Events]
//Background and Video events
0,0,"Taiko_BG.jpg",0,0
//Break Periods
//Storyboard Layer 0 (Background)
//Storyboard Layer 1 (Fail)
//Storyboard Layer 2 (Pass)
//Storyboard Layer 3 (Foreground)
//Storyboard Sound Samples
//Background Colour Transformations
3,100,163,162,255

[TimingPoints]
2037,300,4,1,0,100,1,0
81237,-100,4,1,0,100,0,1
102837,-100,4,1,0,100,0,0
119637,300,6,1,0,100,1,0
121437,300,4,1,0,100,1,0
159837,-100,4,1,0,100,0,1
179037,-100,4,1,0,100,0,0

[HitObjects]
256,192,2037,1,0,0:0:0:0:
256,192,2637,1,0,0:0:0:0:
256,192,3237,1,0,0:0:0:0:
256,192,3837,1,0,0:0:0:0:
256,192,4437,1,0,0:0:0:0:
256,192,5637,1,0,0:0:0:0:
256,192,6837,1,0,0:0:0:0:
256,192,7437,1,0,0:0:0:0:
256,192,8037,1,0,0:0:0:0:
256,192,8637,1,0,0:0:0:0:
256,192,9237,1,0,0:0:0:0:
256,192,10437,5,8,0:0:0:0:
256,192,10737,1,8,0:0:0:0:
256,192,11037,1,8,0:0:0:0:
256,192,11637,5,0,0:0:0:0:
256,192,12237,5,8,0:0:0:0:
256,192,13437,5,0,0:0:0:0:
256,192,14037,1,0,0:0:0:0:
256,192,14637,5,8,0:0:0:0:
256,192,15537,1,0,0:0:0:0:
256,192,15837,5,0,0:0:0:0:
256,192,16137,1,0,0:0:0:0:
256,192,16437,1,0,0:0:0:0:
256,192,17037,5,8,0:0:0:0:
256,192,18237,1,0,0:0:0:0:
256,192,18837,1,0,0:0:0:0:
256,192,19437,5,8,0:0:0:0:
256,192,20637,5,12,0:0:0:0:
256,192,21237,5,0,0:0:0:0:
256,192,21837,5,8,0:0:0:0:
256,192,23037,5,0,0:0:0:0:
256,192,23637,1,0,0:0:0:0:
256,192,24237,5,8,0:0:0:0:
256,192,25137,5,0,0:0:0:0:
256,192,25437,1,0,0:0:0:0:
256,192,25737,1,0,0:0:0:0:
256,192,26037,1,0,0:0:0:0:
256,192,26637,5,8,0:0:0:0:
256,192,27837,5,0,0:0:0:0:
256,192,28437,1,0,0:0:0:0:
256,192,29037,5,8,0:0:0:0:
256,192,30237,5,12,0:0:0:0:
256,192,30837,5,4,0:0:0:0:
256,192,32037,1,0,0:0:0:0:
256,192,32637,1,0,0:0:0:0:
256,192,33237,1,0,0:0:0:0:
256,192,34437,1,0,0:0:0:0:
256,192,35037,1,0,0:0:0:0:
256,192,35637,1,0,0:0:0:0:
256,192,36837,1,0,0:0:0:0:
256,192,38037,1,0,0:0:0:0:
256,192,39237,1,0,0:0:0:0:
256,192,39837,1,0,0:0:0:0:
256,192,40437,1,4,0:0:0:0:
256,192,41037,5,8,0:0:0:0:
256,192,42237,1,8,0:0:0:0:
256,192,42837,5,4,0:0:0:0:
256,192,43437,5,8,0:0:0:0:
256,192,44637,1,8,0:0:0:0:
256,192,45237,5,4,0:0:0:0:
256,192,45837,5,8,0:0:0:0:
256,192,47037,1,8,0:0:0:0:
256,192,47637,5,4,0:0:0:0:
256,192,48237,5,8,0:0:0:0:
256,192,48837,6,0,L|116:192,4,140
256,192,52437,1,0,0:0:0:0:
256,192,52737,1,0,0:0:0:0:
256,192,53037,1,0,0:0:0:0:
256,192,54237,5,8,0:0:0:0:
256,192,54837,5,0,0:0:0:0:
256,192,55137,1,0,0:0:0:0:
256,192,55437,1,0,0:0:0:0:
256,192,56037,1,0,0:0:0:0:
256,192,56637,5,8,0:0:0:0:
256,192,57237,5,0,0:0:0:0:
256,192,57537,1,0,0:0:0:0:
256,192,57837,1,0,0:0:0:0:
256,192,59037,5,8,0:0:0:0:
256,192,59637,5,0,0:0:0:0:
256,192,59937,1,0,0:0:0:0:
256,192,60237,1,0,0:0:0:0:
256,192,60837,5,8,0:0:0:0:
256,192,61437,5,0,0:0:0:0:
256,192,62037,1,0,0:0:0:0:
256,192,62337,1,0,0:0:0:0:
256,192,62637,1,0,0:0:0:0:
256,192,63837,5,8,0:0:0:0:
256,192,64437,5,0,0:0:0:0:
256,192,64737,1,0,0:0:0:0:
256,192,65037,1,0,0:0:0:0:
256,192,65637,1,0,0:0:0:0:
256,192,66237,5,8,0:0:0:0:
256,192,66837,5,0,0:0:0:0:
256,192,67137,1,0,0:0:0:0:
256,192,67437,1,0,0:0:0:0:
256,192,68637,5,8,0:0:0:0:
256,192,69237,5,0,0:0:0:0:
256,192,69837,1,0,0:0:0:0:
256,192,70437,5,8,0:0:0:0:
256,192,70737,1,8,0:0:0:0:
256,192,71037,1,8,0:0:0:0:
256,192,71637,5,4,0:0:0:0:
256,192,71937,1,4,0:0:0:0:
256,192,74037,1,4,0:0:0:0:
256,192,74337,1,4,0:0:0:0:
256,192,76437,1,4,0:0:0:0:
256,192,76737,1,4,0:0:0:0:
256,192,77637,5,8,0:0:0:0:
256,192,78237,1,8,0:0:0:0:
256,192,78837,5,4,0:0:0:0:
256,192,79137,1,4,0:0:0:0:
256,192,80037,5,12,0:0:0:0:
256,192,80637,1,12,0:0:0:0:
256,192,81237,5,0,0:0:0:0:
256,192,81537,1,0,0:0:0:0:
256,192,81837,1,0,0:0:0:0:
256,192,82437,5,8,0:0:0:0:
256,192,82737,1,8,0:0:0:0:
256,192,83037,1,8,0:0:0:0:
256,192,83637,5,0,0:0:0:0:
256,192,84237,5,8,0:0:0:0:
256,192,84837,5,0,0:0:0:0:
256,192,85437,5,8,0:0:0:0:
256,192,86037,5,0,0:0:0:0:
256,192,86337,1,0,0:0:0:0:
256,192,86637,1,0,0:0:0:0:
256,192,87237,5,8,0:0:0:0:
256,192,87537,1,8,0:0:0:0:
256,192,87837,1,8,0:0:0:0:
256,192,88437,5,0,0:0:0:0:
256,192,89037,1,0,0:0:0:0:
256,192,89637,5,8,0:0:0:0:
256,192,89937,1,8,0:0:0:0:
256,192,90237,1,8,0:0:0:0:
256,192,90837,5,0,0:0:0:0:
256,192,91437,1,0,0:0:0:0:
256,192,92037,5,8,0:0:0:0:
256,192,92637,1,8,0:0:0:0:
256,192,93237,5,0,0:0:0:0:
256,192,93537,1,0,0:0:0:0:
256,192,93837,1,0,0:0:0:0:
256,192,94437,5,8,0:0:0:0:
256,192,94737,1,8,0:0:0:0:
256,192,95037,1,8,0:0:0:0:
256,192,95637,5,0,0:0:0:0:
256,192,96237,1,0,0:0:0:0:
256,192,96837,5,8,0:0:0:0:
256,192,97437,1,8,0:0:0:0:
256,192,98037,5,4,0:0:0:0:
256,192,98637,1,4,0:0:0:0:
256,192,99237,5,12,0:0:0:0:
256,192,99837,5,4,0:0:0:0:
256,192,100437,12,0,102837,0:0:0:0:
256,192,104037,5,0,0:0:0:0:
256,192,104637,1,0,0:0:0:0:
256,192,105237,1,0,0:0:0:0:
256,192,106437,5,8,0:0:0:0:
256,192,107037,1,8,0:0:0:0:
256,192,107637,1,8,0:0:0:0:
256,192,108837,6,0,L|116:192,2,140
256,192,110037,1,0,0:0:0:0:
256,192,110637,5,8,0:0:0:0:
256,192,111237,5,0,0:0:0:0:
256,192,111837,5,8,0:0:0:0:
256,192,112437,5,0,0:0:0:0:
256,192,113037,5,8,0:0:0:0:
256,192,113637,5,0,0:0:0:0:
256,192,114237,5,8,0:0:0:0:
256,192,114537,1,8,0:0:0:0:
256,192,114837,5,0,0:0:0:0:
256,192,115437,5,8,0:0:0:0:
256,192,116037,5,0,0:0:0:0:
256,192,116637,5,8,0:0:0:0:
256,192,117237,5,0,0:0:0:0:
256,192,117837,5,8,0:0:0:0:
256,192,118437,5,0,0:0:0:0:
256,192,119037,5,8,0:0:0:0:
256,192,119337,1,8,0:0:0:0:
256,192,119637,5,4,0:0:0:0:
256,192,121437,1,0,0:0:0:0:
256,192,122037,5,8,0:0:0:0:
256,192,123237,1,8,0:0:0:0:
256,192,123837,5,0,0:0:0:0:
256,192,124437,5,8,0:0:0:0:
256,192,125637,1,8,0:0:0:0:
256,192,126237,5,0,0:0:0:0:
256,192,126837,5,8,0:0:0:0:
256,192,128037,1,8,0:0:0:0:
256,192,128637,5,0,0:0:0:0:
256,192,129237,5,8,0:0:0:0:
256,192,129837,5,0,0:0:0:0:
256,192,130437,5,8,0:0:0:0:
256,192,130737,1,8,0:0:0:0:
256,192,131037,5,0,0:0:0:0:
256,192,131637,5,8,0:0:0:0:
256,192,132837,1,8,0:0:0:0:
256,192,133437,5,0,0:0:0:0:
256,192,134037,5,8,0:0:0:0:
256,192,135237,1,8,0:0:0:0:
256,192,135837,5,0,0:0:0:0:
256,192,136437,5,8,0:0:0:0:
256,192,137637,1,8,0:0:0:0:
256,192,138237,5,0,0:0:0:0:
256,192,138837,5,8,0:0:0:0:
256,192,139437,5,0,0:0:0:0:
256,192,139737,1,0,0:0:0:0:
256,192,140037,5,8,0:0:0:0:
256,192,140337,1,8,0:0:0:0:
256,192,140637,5,0,0:0:0:0:
256,192,143037,1,0,0:0:0:0:
256,192,145437,1,0,0:0:0:0:
256,192,147837,1,0,0:0:0:0:
256,192,149037,1,0,0:0:0:0:
256,192,150237,1,0,0:0:0:0:
256,192,150537,1,0,0:0:0:0:
256,192,151437,1,0,0:0:0:0:
256,192,152337,5,12,0:0:0:0:
256,192,152637,5,0,0:0:0:0:
256,192,152937,1,0,0:0:0:0:
256,192,153837,1,0,0:0:0:0:
256,192,154737,5,12,0:0:0:0:
256,192,155037,5,0,0:0:0:0:
256,192,155337,1,0,0:0:0:0:
256,192,156237,1,0,0:0:0:0:
256,192,157137,5,12,0:0:0:0:
256,192,157437,5,0,0:0:0:0:
256,192,158037,1,0,0:0:0:0:
256,192,158637,1,0,0:0:0:0:
256,192,158937,1,0,0:0:0:0:
256,192,159237,1,0,0:0:0:0:
256,192,159837,1,0,0:0:0:0:
256,192,160437,1,0,0:0:0:0:
256,192,161037,5,8,0:0:0:0:
256,192,161337,1,8,0:0:0:0:
256,192,161637,1,8,0:0:0:0:
256,192,161937,1,8,0:0:0:0:
256,192,162237,5,0,0:0:0:0:
256,192,162837,1,0,0:0:0:0:
256,192,163437,5,8,0:0:0:0:
256,192,163737,1,8,0:0:0:0:
256,192,164037,1,8,0:0:0:0:
256,192,164637,5,0,0:0:0:0:
256,192,165237,1,0,0:0:0:0:
256,192,165837,5,8,0:0:0:0:
256,192,166137,1,8,0:0:0:0:
256,192,166437,1,8,0:0:0:0:
256,192,166737,1,8,0:0:0:0:
256,192,167037,5,0,0:0:0:0:
256,192,167637,1,0,0:0:0:0:
256,192,168237,5,8,0:0:0:0:
256,192,168537,1,8,0:0:0:0:
256,192,168837,1,8,0:0:0:0:
256,192,169437,5,0,0:0:0:0:
256,192,170037,1,0,0:0:0:0:
256,192,170637,5,8,0:0:0:0:
256,192,170937,1,8,0:0:0:0:
256,192,171237,1,8,0:0:0:0:
256,192,171537,1,8,0:0:0:0:
256,192,171837,5,0,0:0:0:0:
256,192,172437,1,0,0:0:0:0:
256,192,173037,5,8,0:0:0:0:
256,192,173337,1,8,0:0:0:0:
256,192,173637,1,8,0:0:0:0:
256,192,174237,5,0,0:0:0:0:
256,192,174837,5,8,0:0:0:0:
256,192,175437,5,0,0:0:0:0:
256,192,175737,1,0,0:0:0:0:
256,192,176037,5,8,0:0:0:0:
256,192,176337,1,8,0:0:0:0:
256,192,176637,5,0,0:0:0:0:
256,192,177237,1,8,0:0:0:0:
256,192,177837,6,0,L|115:192,4,140
