osu file format v12

[General]
AudioFilename: Infinite of nuclear fusion.mp3
AudioLeadIn: 1000
PreviewTime: 81251
Countdown: 0
SampleSet: Normal
StackLeniency: 0.7
Mode: 1
LetterboxInBreaks: 0
SkinPreference:taiko
WidescreenStoryboard: 0

[Editor]
Bookmarks: 2051,11651,30851,40451,52451,81251,102851,110051,121451,140651,150251,159851,179051
DistanceSpacing: 2
BeatDivisor: 4
GridSize: 8

[Metadata]
Title:Infinite of Nuclear Fusion
TitleUnicode:無限の太陽信仰
Artist:AU
ArtistUnicode:あう
Creator:OnosakiHito
Version:Inner Oni
Source:Touhou
Tags:utsuho reiuji okuu IoNF unyuu Saten Saten-san Regou techno
BeatmapID:114249
BeatmapSetID:35211

[Difficulty]
HPDrainRate:7
CircleSize:5
OverallDifficulty:6
ApproachRate:5
SliderMultiplier:1.4
SliderTickRate:1

[Events]
//Background and Video events
0,0,"Taiko_BG.jpg",0,0
//Break Periods
//Storyboard Layer 0 (Background)
//Storyboard Layer 1 (Fail)
//Storyboard Layer 2 (Pass)
//Storyboard Layer 3 (Foreground)
//Storyboard Sound Samples
//Background Colour Transformations
3,100,163,162,255

[TimingPoints]
2037,300,4,1,0,100,1,0
81237,-100,4,1,0,100,0,1
83637,-66.6666666666667,4,1,0,100,0,1
86037,-100,4,1,0,100,0,1
93237,-66.6666666666667,4,1,0,100,0,1
95637,-100,4,1,0,100,0,1
102837,-100,4,1,0,100,0,0
119637,300,6,1,0,100,1,0
121437,300,4,1,0,100,1,0
121437,-133.333333333333,4,1,0,100,0,0
140937,-153.846153846153,4,1,0,100,0,0
141237,-200,4,1,0,100,0,0
150237,-133.333333333333,4,1,0,100,0,0
159837,-100,4,1,0,100,0,1
179037,-100,4,1,0,100,0,0

[HitObjects]
256,192,2037,1,0,0:0:0:0:
256,192,2187,5,8,0:0:0:0:
256,192,2337,5,0,0:0:0:0:
256,192,2487,5,8,0:0:0:0:
256,192,2637,5,0,0:0:0:0:
256,192,2787,5,8,0:0:0:0:
256,192,2937,5,0,0:0:0:0:
256,192,3087,5,8,0:0:0:0:
256,192,3237,5,0,0:0:0:0:
256,192,3387,5,8,0:0:0:0:
256,192,3537,5,0,0:0:0:0:
256,192,3687,5,8,0:0:0:0:
256,192,3837,5,0,0:0:0:0:
256,192,3987,5,8,0:0:0:0:
256,192,4137,5,0,0:0:0:0:
256,192,4287,1,0,0:0:0:0:
256,192,4437,1,0,0:0:0:0:
256,192,4587,5,8,0:0:0:0:
256,192,4737,5,0,0:0:0:0:
256,192,4887,5,8,0:0:0:0:
256,192,5037,5,0,0:0:0:0:
256,192,5187,5,8,0:0:0:0:
256,192,5337,5,0,0:0:0:0:
256,192,5487,5,8,0:0:0:0:
256,192,5637,5,0,0:0:0:0:
256,192,5787,5,8,0:0:0:0:
256,192,5937,5,0,0:0:0:0:
256,192,6087,5,8,0:0:0:0:
256,192,6237,5,0,0:0:0:0:
256,192,6387,1,0,0:0:0:0:
256,192,6537,1,0,0:0:0:0:
256,192,6687,1,0,0:0:0:0:
256,192,6837,1,0,0:0:0:0:
256,192,6987,5,8,0:0:0:0:
256,192,7137,5,0,0:0:0:0:
256,192,7287,5,8,0:0:0:0:
256,192,7437,5,0,0:0:0:0:
256,192,7587,5,8,0:0:0:0:
256,192,7737,5,0,0:0:0:0:
256,192,7887,5,8,0:0:0:0:
256,192,8037,5,0,0:0:0:0:
256,192,8187,5,8,0:0:0:0:
256,192,8337,5,0,0:0:0:0:
256,192,8487,5,8,0:0:0:0:
256,192,8637,5,0,0:0:0:0:
256,192,8787,5,8,0:0:0:0:
256,192,8937,5,0,0:0:0:0:
256,192,9087,1,0,0:0:0:0:
256,192,9237,1,0,0:0:0:0:
256,192,9387,5,8,0:0:0:0:
256,192,9537,5,0,0:0:0:0:
256,192,9687,5,8,0:0:0:0:
256,192,9837,5,0,0:0:0:0:
256,192,9987,5,8,0:0:0:0:
256,192,10137,5,0,0:0:0:0:
256,192,10287,5,8,0:0:0:0:
256,192,10437,5,4,0:0:0:0:
256,192,10737,1,4,0:0:0:0:
256,192,11037,1,4,0:0:0:0:
256,192,11637,1,0,0:0:0:0:
256,192,11787,1,0,0:0:0:0:
256,192,11937,1,0,0:0:0:0:
256,192,12087,1,0,0:0:0:0:
256,192,12237,5,8,0:0:0:0:
256,192,12387,5,0,0:0:0:0:
256,192,12537,1,0,0:0:0:0:
256,192,12687,5,8,0:0:0:0:
256,192,12837,5,0,0:0:0:0:
256,192,12987,1,0,0:0:0:0:
256,192,13137,5,8,0:0:0:0:
256,192,13287,5,0,0:0:0:0:
256,192,13437,1,0,0:0:0:0:
256,192,13587,5,8,0:0:0:0:
256,192,13737,5,0,0:0:0:0:
256,192,13887,5,8,0:0:0:0:
256,192,14037,5,0,0:0:0:0:
256,192,14187,1,0,0:0:0:0:
256,192,14337,1,0,0:0:0:0:
256,192,14487,1,0,0:0:0:0:
256,192,14637,5,8,0:0:0:0:
256,192,14787,5,0,0:0:0:0:
256,192,14937,1,0,0:0:0:0:
256,192,15087,5,8,0:0:0:0:
256,192,15237,5,0,0:0:0:0:
256,192,15387,1,0,0:0:0:0:
256,192,15537,5,8,0:0:0:0:
256,192,15687,5,0,0:0:0:0:
256,192,15837,1,0,0:0:0:0:
256,192,15987,5,8,0:0:0:0:
256,192,16137,5,0,0:0:0:0:
256,192,16287,5,8,0:0:0:0:
256,192,16437,5,0,0:0:0:0:
256,192,16587,1,0,0:0:0:0:
256,192,16737,1,0,0:0:0:0:
256,192,16887,1,0,0:0:0:0:
256,192,17037,5,8,0:0:0:0:
256,192,17187,5,0,0:0:0:0:
256,192,17337,1,0,0:0:0:0:
256,192,17487,5,8,0:0:0:0:
256,192,17637,5,0,0:0:0:0:
256,192,17787,1,0,0:0:0:0:
256,192,17937,5,8,0:0:0:0:
256,192,18087,5,0,0:0:0:0:
256,192,18237,1,0,0:0:0:0:
256,192,18387,5,8,0:0:0:0:
256,192,18537,5,0,0:0:0:0:
256,192,18687,5,8,0:0:0:0:
256,192,18837,5,0,0:0:0:0:
256,192,18987,1,0,0:0:0:0:
256,192,19137,1,0,0:0:0:0:
256,192,19287,1,0,0:0:0:0:
256,192,19437,5,8,0:0:0:0:
256,192,19587,5,0,0:0:0:0:
256,192,19737,1,0,0:0:0:0:
256,192,19887,5,8,0:0:0:0:
256,192,20037,5,0,0:0:0:0:
256,192,20187,1,0,0:0:0:0:
256,192,20337,5,8,0:0:0:0:
256,192,20487,5,0,0:0:0:0:
256,192,20637,5,8,0:0:0:0:
256,192,20712,1,8,0:0:0:0:
256,192,20787,1,8,0:0:0:0:
256,192,20862,1,8,0:0:0:0:
256,192,20937,5,0,0:0:0:0:
256,192,21087,5,8,0:0:0:0:
256,192,21237,5,0,0:0:0:0:
256,192,21387,1,0,0:0:0:0:
256,192,21537,5,8,0:0:0:0:
256,192,21687,5,0,0:0:0:0:
256,192,21837,5,8,0:0:0:0:
256,192,21987,1,8,0:0:0:0:
256,192,22137,5,0,0:0:0:0:
256,192,22287,5,8,0:0:0:0:
256,192,22437,5,0,0:0:0:0:
256,192,22587,5,8,0:0:0:0:
256,192,22737,1,8,0:0:0:0:
256,192,22887,5,0,0:0:0:0:
256,192,23037,5,8,0:0:0:0:
256,192,23187,1,8,0:0:0:0:
256,192,23337,5,0,0:0:0:0:
256,192,23487,5,8,0:0:0:0:
256,192,23637,5,0,0:0:0:0:
256,192,23787,5,8,0:0:0:0:
256,192,23937,1,8,0:0:0:0:
256,192,24087,5,0,0:0:0:0:
256,192,24237,5,8,0:0:0:0:
256,192,24387,1,8,0:0:0:0:
256,192,24537,5,0,0:0:0:0:
256,192,24687,1,0,0:0:0:0:
256,192,24837,5,8,0:0:0:0:
256,192,24987,5,0,0:0:0:0:
256,192,25137,5,8,0:0:0:0:
256,192,25287,1,8,0:0:0:0:
256,192,25437,5,0,0:0:0:0:
256,192,25587,5,8,0:0:0:0:
256,192,25737,5,0,0:0:0:0:
256,192,25887,5,8,0:0:0:0:
256,192,26037,5,0,0:0:0:0:
256,192,26187,5,8,0:0:0:0:
256,192,26337,5,0,0:0:0:0:
256,192,26487,1,0,0:0:0:0:
256,192,26637,5,8,0:0:0:0:
256,192,26787,5,0,0:0:0:0:
256,192,26937,1,0,0:0:0:0:
256,192,27087,5,8,0:0:0:0:
256,192,27237,5,0,0:0:0:0:
256,192,27387,1,0,0:0:0:0:
256,192,27537,5,8,0:0:0:0:
256,192,27687,5,0,0:0:0:0:
256,192,27837,1,0,0:0:0:0:
256,192,27987,5,8,0:0:0:0:
256,192,28137,5,0,0:0:0:0:
256,192,28287,1,0,0:0:0:0:
256,192,28437,1,0,0:0:0:0:
256,192,28587,5,8,0:0:0:0:
256,192,28737,5,0,0:0:0:0:
256,192,28887,5,8,0:0:0:0:
256,192,29037,1,8,0:0:0:0:
256,192,29187,5,0,0:0:0:0:
256,192,29337,1,0,0:0:0:0:
256,192,29487,5,8,0:0:0:0:
256,192,29637,5,0,0:0:0:0:
256,192,29787,5,8,0:0:0:0:
256,192,29937,5,0,0:0:0:0:
256,192,30087,5,8,0:0:0:0:
256,192,30237,1,8,0:0:0:0:
256,192,30312,1,8,0:0:0:0:
256,192,30387,1,8,0:0:0:0:
256,192,30462,1,8,0:0:0:0:
256,192,30537,5,0,0:0:0:0:
256,192,30687,5,8,0:0:0:0:
256,192,30837,5,0,0:0:0:0:
256,192,30987,5,8,0:0:0:0:
256,192,31062,1,8,0:0:0:0:
256,192,31137,1,8,0:0:0:0:
256,192,31287,1,8,0:0:0:0:
256,192,31437,5,0,0:0:0:0:
256,192,31512,5,8,0:0:0:0:
256,192,31587,1,8,0:0:0:0:
256,192,31737,1,8,0:0:0:0:
256,192,31887,1,8,0:0:0:0:
256,192,32037,5,0,0:0:0:0:
256,192,32187,5,8,0:0:0:0:
256,192,32262,1,8,0:0:0:0:
256,192,32337,1,8,0:0:0:0:
256,192,32487,5,0,0:0:0:0:
256,192,32637,5,8,0:0:0:0:
256,192,32712,1,8,0:0:0:0:
256,192,32787,1,8,0:0:0:0:
256,192,32937,5,0,0:0:0:0:
256,192,33087,5,8,0:0:0:0:
256,192,33237,5,0,0:0:0:0:
256,192,33387,5,8,0:0:0:0:
256,192,33462,1,8,0:0:0:0:
256,192,33537,1,8,0:0:0:0:
256,192,33687,1,8,0:0:0:0:
256,192,33837,5,0,0:0:0:0:
256,192,33987,5,8,0:0:0:0:
256,192,34062,1,8,0:0:0:0:
256,192,34137,1,8,0:0:0:0:
256,192,34287,1,8,0:0:0:0:
256,192,34437,5,0,0:0:0:0:
256,192,34587,5,8,0:0:0:0:
256,192,34662,1,8,0:0:0:0:
256,192,34737,1,8,0:0:0:0:
256,192,34812,1,8,0:0:0:0:
256,192,34887,5,0,0:0:0:0:
256,192,35037,5,8,0:0:0:0:
256,192,35112,1,8,0:0:0:0:
256,192,35187,1,8,0:0:0:0:
256,192,35337,5,0,0:0:0:0:
256,192,35487,5,8,0:0:0:0:
256,192,35637,5,0,0:0:0:0:
256,192,35712,5,8,0:0:0:0:
256,192,35787,1,8,0:0:0:0:
256,192,35937,1,8,0:0:0:0:
256,192,36087,1,8,0:0:0:0:
256,192,36162,1,8,0:0:0:0:
256,192,36237,5,0,0:0:0:0:
256,192,36387,5,8,0:0:0:0:
256,192,36537,5,0,0:0:0:0:
256,192,36612,5,8,0:0:0:0:
256,192,36687,1,8,0:0:0:0:
256,192,36837,5,0,0:0:0:0:
256,192,37137,1,0,0:0:0:0:
256,192,37212,5,8,0:0:0:0:
256,192,37287,5,0,0:0:0:0:
256,192,37587,5,8,0:0:0:0:
256,192,37662,1,8,0:0:0:0:
256,192,37737,5,0,0:0:0:0:
256,192,38037,1,0,0:0:0:0:
256,192,38187,5,8,0:0:0:0:
256,192,38262,1,8,0:0:0:0:
256,192,38337,1,8,0:0:0:0:
256,192,38487,1,8,0:0:0:0:
256,192,38637,5,0,0:0:0:0:
256,192,38787,5,8,0:0:0:0:
256,192,38862,1,8,0:0:0:0:
256,192,38937,1,8,0:0:0:0:
256,192,39087,1,8,0:0:0:0:
256,192,39237,1,8,0:0:0:0:
256,192,39312,1,8,0:0:0:0:
256,192,39387,5,0,0:0:0:0:
256,192,39462,1,0,0:0:0:0:
256,192,39537,1,0,0:0:0:0:
256,192,39612,1,0,0:0:0:0:
256,192,39687,1,0,0:0:0:0:
256,192,39762,1,0,0:0:0:0:
256,192,39837,1,0,0:0:0:0:
256,192,39887,1,0,0:0:0:0:
256,192,39937,1,0,0:0:0:0:
256,192,39987,1,0,0:0:0:0:
256,192,40037,1,0,0:0:0:0:
256,192,40087,1,0,0:0:0:0:
256,192,40137,5,8,0:0:0:0:
256,192,40437,5,0,0:0:0:0:
256,192,40587,1,0,0:0:0:0:
256,192,40737,5,8,0:0:0:0:
256,192,40887,5,0,0:0:0:0:
256,192,41037,5,8,0:0:0:0:
256,192,41187,5,0,0:0:0:0:
256,192,41337,1,0,0:0:0:0:
256,192,41487,5,8,0:0:0:0:
256,192,41637,5,0,0:0:0:0:
256,192,41787,1,0,0:0:0:0:
256,192,41937,5,8,0:0:0:0:
256,192,42087,5,0,0:0:0:0:
256,192,42237,1,0,0:0:0:0:
256,192,42312,1,0,0:0:0:0:
256,192,42387,1,0,0:0:0:0:
256,192,42462,1,0,0:0:0:0:
256,192,42537,5,8,0:0:0:0:
256,192,42837,5,0,0:0:0:0:
256,192,42987,1,0,0:0:0:0:
256,192,43137,5,8,0:0:0:0:
256,192,43287,5,0,0:0:0:0:
256,192,43437,5,8,0:0:0:0:
256,192,43587,5,0,0:0:0:0:
256,192,43737,1,0,0:0:0:0:
256,192,43887,5,8,0:0:0:0:
256,192,44037,5,0,0:0:0:0:
256,192,44187,5,8,0:0:0:0:
256,192,44337,5,0,0:0:0:0:
256,192,44487,5,8,0:0:0:0:
256,192,44637,5,0,0:0:0:0:
256,192,44712,1,0,0:0:0:0:
256,192,44787,5,8,0:0:0:0:
256,192,44862,5,0,0:0:0:0:
256,192,44937,5,8,0:0:0:0:
256,192,45237,5,0,0:0:0:0:
256,192,45387,1,0,0:0:0:0:
256,192,45537,5,8,0:0:0:0:
256,192,45687,5,0,0:0:0:0:
256,192,45837,5,8,0:0:0:0:
256,192,45987,1,8,0:0:0:0:
256,192,46137,5,0,0:0:0:0:
256,192,46287,5,8,0:0:0:0:
256,192,46437,1,8,0:0:0:0:
256,192,46587,5,0,0:0:0:0:
256,192,46737,5,8,0:0:0:0:
256,192,46887,5,0,0:0:0:0:
256,192,47037,1,0,0:0:0:0:
256,192,47112,5,8,0:0:0:0:
256,192,47187,5,0,0:0:0:0:
256,192,47262,5,8,0:0:0:0:
256,192,47337,5,0,0:0:0:0:
256,192,47637,1,0,0:0:0:0:
256,192,47787,1,0,0:0:0:0:
256,192,47937,5,8,0:0:0:0:
256,192,48087,5,0,0:0:0:0:
256,192,48237,5,8,0:0:0:0:
256,192,48387,1,8,0:0:0:0:
256,192,48537,5,0,0:0:0:0:
256,192,48687,5,8,0:0:0:0:
256,192,48837,1,8,0:0:0:0:
256,192,48912,1,8,0:0:0:0:
256,192,48987,5,0,0:0:0:0:
256,192,49062,1,0,0:0:0:0:
256,192,49137,1,0,0:0:0:0:
256,192,49212,1,0,0:0:0:0:
256,192,49287,5,8,0:0:0:0:
256,192,49362,1,8,0:0:0:0:
256,192,49437,5,0,0:0:0:0:
256,192,49512,1,0,0:0:0:0:
256,192,49587,1,0,0:0:0:0:
256,192,49662,1,0,0:0:0:0:
256,192,49737,5,8,0:0:0:0:
256,192,49812,1,8,0:0:0:0:
256,192,49887,5,0,0:0:0:0:
256,192,49962,1,0,0:0:0:0:
256,192,50037,12,0,52287,0:0:0:0:
256,192,52437,5,4,0:0:0:0:
256,192,52737,5,4,0:0:0:0:
256,192,53037,1,0,0:0:0:0:
256,192,53112,1,0,0:0:0:0:
256,192,53187,5,8,0:0:0:0:
256,192,53487,1,8,0:0:0:0:
256,192,53562,1,8,0:0:0:0:
256,192,53637,5,0,0:0:0:0:
256,192,53937,1,0,0:0:0:0:
256,192,54012,1,0,0:0:0:0:
256,192,54087,5,8,0:0:0:0:
256,192,54387,1,8,0:0:0:0:
256,192,54462,1,8,0:0:0:0:
256,192,54537,5,0,0:0:0:0:
256,192,54837,5,12,0:0:0:0:
256,192,55137,1,12,0:0:0:0:
256,192,55437,5,0,0:0:0:0:
256,192,55587,5,8,0:0:0:0:
256,192,55737,5,0,0:0:0:0:
256,192,56037,5,8,0:0:0:0:
256,192,56337,5,0,0:0:0:0:
256,192,56487,5,8,0:0:0:0:
256,192,56787,1,8,0:0:0:0:
256,192,56937,5,0,0:0:0:0:
256,192,57237,1,4,0:0:0:0:
256,192,57537,1,4,0:0:0:0:
256,192,57837,1,0,0:0:0:0:
256,192,57912,1,0,0:0:0:0:
256,192,57987,5,8,0:0:0:0:
256,192,58137,1,8,0:0:0:0:
256,192,58287,5,0,0:0:0:0:
256,192,58362,1,0,0:0:0:0:
256,192,58437,5,8,0:0:0:0:
256,192,58587,1,8,0:0:0:0:
256,192,58737,5,0,0:0:0:0:
256,192,58887,5,8,0:0:0:0:
256,192,59037,5,0,0:0:0:0:
256,192,59112,1,0,0:0:0:0:
256,192,59187,5,8,0:0:0:0:
256,192,59262,1,8,0:0:0:0:
256,192,59337,1,8,0:0:0:0:
256,192,59637,1,12,0:0:0:0:
256,192,59937,1,12,0:0:0:0:
256,192,60237,5,0,0:0:0:0:
256,192,60387,5,8,0:0:0:0:
256,192,60537,5,0,0:0:0:0:
256,192,60612,1,0,0:0:0:0:
256,192,60687,5,8,0:0:0:0:
256,192,60762,1,8,0:0:0:0:
256,192,60837,5,0,0:0:0:0:
256,192,60987,1,0,0:0:0:0:
256,192,61137,5,8,0:0:0:0:
256,192,61212,1,8,0:0:0:0:
256,192,61287,5,0,0:0:0:0:
256,192,61437,1,0,0:0:0:0:
256,192,61587,5,8,0:0:0:0:
256,192,61737,1,8,0:0:0:0:
256,192,62037,1,4,0:0:0:0:
256,192,62337,1,4,0:0:0:0:
256,192,62637,1,0,0:0:0:0:
256,192,62712,1,0,0:0:0:0:
256,192,62787,5,8,0:0:0:0:
256,192,63087,5,8,0:0:0:0:
256,192,63162,1,8,0:0:0:0:
256,192,63237,5,0,0:0:0:0:
256,192,63537,5,0,0:0:0:0:
256,192,63612,1,0,0:0:0:0:
256,192,63687,5,8,0:0:0:0:
256,192,63987,1,8,0:0:0:0:
256,192,64062,5,8,0:0:0:0:
256,192,64137,5,0,0:0:0:0:
256,192,64437,5,12,0:0:0:0:
256,192,64737,1,12,0:0:0:0:
256,192,65037,5,0,0:0:0:0:
256,192,65112,5,8,0:0:0:0:
256,192,65187,1,8,0:0:0:0:
256,192,65487,5,0,0:0:0:0:
256,192,65562,1,0,0:0:0:0:
256,192,65637,5,8,0:0:0:0:
256,192,65787,5,0,0:0:0:0:
256,192,65937,5,8,0:0:0:0:
256,192,66087,5,0,0:0:0:0:
256,192,66387,1,0,0:0:0:0:
256,192,66537,5,8,0:0:0:0:
256,192,66837,5,4,0:0:0:0:
256,192,67137,1,4,0:0:0:0:
256,192,67437,1,0,0:0:0:0:
256,192,67512,1,0,0:0:0:0:
256,192,67587,5,8,0:0:0:0:
256,192,67737,1,8,0:0:0:0:
256,192,67887,5,0,0:0:0:0:
256,192,67962,1,0,0:0:0:0:
256,192,68037,5,8,0:0:0:0:
256,192,68187,5,0,0:0:0:0:
256,192,68337,5,8,0:0:0:0:
256,192,68487,5,0,0:0:0:0:
256,192,68637,5,8,0:0:0:0:
256,192,68712,1,8,0:0:0:0:
256,192,68787,5,0,0:0:0:0:
256,192,68862,1,0,0:0:0:0:
256,192,68937,5,8,0:0:0:0:
256,192,69237,1,12,0:0:0:0:
256,192,69537,1,12,0:0:0:0:
256,192,69837,5,0,0:0:0:0:
256,192,69912,5,8,0:0:0:0:
256,192,69987,1,8,0:0:0:0:
256,192,70137,5,0,0:0:0:0:
256,192,70287,5,8,0:0:0:0:
256,192,70362,1,8,0:0:0:0:
256,192,70437,5,0,0:0:0:0:
256,192,70587,1,0,0:0:0:0:
256,192,70662,5,8,0:0:0:0:
256,192,70737,5,0,0:0:0:0:
256,192,70887,1,0,0:0:0:0:
256,192,71037,5,8,0:0:0:0:
256,192,71112,1,8,0:0:0:0:
256,192,71187,1,8,0:0:0:0:
256,192,71262,1,8,0:0:0:0:
256,192,71337,5,0,0:0:0:0:
256,192,71412,1,0,0:0:0:0:
256,192,71487,1,0,0:0:0:0:
256,192,71562,1,0,0:0:0:0:
256,192,71637,5,12,0:0:0:0:
256,192,71937,1,12,0:0:0:0:
256,192,72237,5,0,0:0:0:0:
256,192,72387,5,8,0:0:0:0:
256,192,72537,5,0,0:0:0:0:
256,192,72837,5,8,0:0:0:0:
256,192,73137,5,0,0:0:0:0:
256,192,73287,5,8,0:0:0:0:
256,192,73587,5,0,0:0:0:0:
256,192,73737,5,8,0:0:0:0:
256,192,74037,1,12,0:0:0:0:
256,192,74337,1,12,0:0:0:0:
256,192,74637,5,0,0:0:0:0:
256,192,74787,5,8,0:0:0:0:
256,192,74937,5,0,0:0:0:0:
256,192,75237,5,8,0:0:0:0:
256,192,75537,5,0,0:0:0:0:
256,192,75687,5,8,0:0:0:0:
256,192,75987,5,0,0:0:0:0:
256,192,76062,1,0,0:0:0:0:
256,192,76137,5,8,0:0:0:0:
256,192,76437,1,12,0:0:0:0:
256,192,76737,1,12,0:0:0:0:
256,192,77037,5,0,0:0:0:0:
256,192,77187,5,8,0:0:0:0:
256,192,77337,5,0,0:0:0:0:
256,192,77637,5,12,0:0:0:0:
256,192,77787,5,4,0:0:0:0:
256,192,77937,5,12,0:0:0:0:
256,192,78087,1,12,0:0:0:0:
256,192,78237,5,4,0:0:0:0:
256,192,78387,5,12,0:0:0:0:
256,192,78537,1,12,0:0:0:0:
256,192,78687,5,4,0:0:0:0:
256,192,78837,1,0,0:0:0:0:
256,192,79137,1,0,0:0:0:0:
256,192,79587,5,12,0:0:0:0:
256,192,80037,6,0,B|112:192,1,140
256,192,80637,2,4,B|112:192|112:192,1,140
256,192,81237,1,0,0:0:0:0:
256,192,81387,5,8,0:0:0:0:
256,192,81462,1,8,0:0:0:0:
256,192,81537,5,0,0:0:0:0:
256,192,81687,1,0,0:0:0:0:
256,192,81837,5,8,0:0:0:0:
256,192,81912,1,8,0:0:0:0:
256,192,81987,1,8,0:0:0:0:
256,192,82137,5,0,0:0:0:0:
256,192,82287,5,8,0:0:0:0:
256,192,82437,5,0,0:0:0:0:
256,192,82587,5,8,0:0:0:0:
256,192,82662,1,8,0:0:0:0:
256,192,82737,5,0,0:0:0:0:
256,192,82887,1,0,0:0:0:0:
256,192,83037,5,8,0:0:0:0:
256,192,83112,1,8,0:0:0:0:
256,192,83187,1,8,0:0:0:0:
256,192,83262,1,8,0:0:0:0:
256,192,83337,5,0,0:0:0:0:
256,192,83487,5,8,0:0:0:0:
256,192,83637,5,4,0:0:0:0:
256,192,83937,1,4,0:0:0:0:
256,192,84237,1,4,0:0:0:0:
256,192,84387,1,4,0:0:0:0:
256,192,84537,1,4,0:0:0:0:
256,192,84837,1,4,0:0:0:0:
256,192,85137,1,4,0:0:0:0:
256,192,85437,1,4,0:0:0:0:
256,192,85737,1,4,0:0:0:0:
256,192,86037,1,0,0:0:0:0:
256,192,86187,1,0,0:0:0:0:
256,192,86262,1,0,0:0:0:0:
256,192,86337,5,8,0:0:0:0:
256,192,86487,5,0,0:0:0:0:
256,192,86637,5,8,0:0:0:0:
256,192,86712,5,0,0:0:0:0:
256,192,86787,1,0,0:0:0:0:
256,192,86937,1,0,0:0:0:0:
256,192,87087,5,8,0:0:0:0:
256,192,87237,5,0,0:0:0:0:
256,192,87387,5,8,0:0:0:0:
256,192,87462,1,8,0:0:0:0:
256,192,87537,5,0,0:0:0:0:
256,192,87687,1,0,0:0:0:0:
256,192,87837,5,8,0:0:0:0:
256,192,87912,1,8,0:0:0:0:
256,192,87987,5,0,0:0:0:0:
256,192,88137,1,0,0:0:0:0:
256,192,88287,1,0,0:0:0:0:
256,192,88437,1,0,0:0:0:0:
256,192,88512,1,0,0:0:0:0:
256,192,88587,1,0,0:0:0:0:
256,192,88662,1,0,0:0:0:0:
256,192,88737,5,8,0:0:0:0:
256,192,88887,5,0,0:0:0:0:
256,192,88962,1,0,0:0:0:0:
256,192,89037,5,8,0:0:0:0:
256,192,89187,5,0,0:0:0:0:
256,192,89262,1,0,0:0:0:0:
256,192,89337,5,8,0:0:0:0:
256,192,89412,1,8,0:0:0:0:
256,192,89487,5,0,0:0:0:0:
256,192,89637,12,0,89937,0:0:0:0:
256,192,90237,12,0,90537,0:0:0:0:
256,192,90837,5,0,0:0:0:0:
256,192,90987,1,0,0:0:0:0:
256,192,91137,5,8,0:0:0:0:
256,192,91287,1,8,0:0:0:0:
256,192,91437,5,0,0:0:0:0:
256,192,91512,1,0,0:0:0:0:
256,192,91587,5,8,0:0:0:0:
256,192,91662,1,8,0:0:0:0:
256,192,91737,5,0,0:0:0:0:
256,192,91887,1,0,0:0:0:0:
256,192,92037,5,8,0:0:0:0:
256,192,92112,1,8,0:0:0:0:
256,192,92187,5,0,0:0:0:0:
256,192,92337,5,8,0:0:0:0:
256,192,92412,1,8,0:0:0:0:
256,192,92487,5,0,0:0:0:0:
256,192,92637,1,0,0:0:0:0:
256,192,92787,5,8,0:0:0:0:
256,192,92862,1,8,0:0:0:0:
256,192,92937,5,0,0:0:0:0:
256,192,93087,5,8,0:0:0:0:
256,192,93237,5,4,0:0:0:0:
256,192,93537,1,4,0:0:0:0:
256,192,93837,1,4,0:0:0:0:
256,192,93987,1,4,0:0:0:0:
256,192,94137,1,4,0:0:0:0:
256,192,94437,1,4,0:0:0:0:
256,192,94737,1,4,0:0:0:0:
256,192,95037,1,4,0:0:0:0:
256,192,95337,1,4,0:0:0:0:
256,192,95637,5,8,0:0:0:0:
256,192,95712,5,0,0:0:0:0:
256,192,95787,1,0,0:0:0:0:
256,192,95937,5,8,0:0:0:0:
256,192,96012,1,8,0:0:0:0:
256,192,96087,5,0,0:0:0:0:
256,192,96237,1,0,0:0:0:0:
256,192,96312,1,0,0:0:0:0:
256,192,96387,5,8,0:0:0:0:
256,192,96462,1,8,0:0:0:0:
256,192,96537,5,0,0:0:0:0:
256,192,96687,1,0,0:0:0:0:
256,192,96837,5,8,0:0:0:0:
256,192,96912,1,8,0:0:0:0:
256,192,96987,5,0,0:0:0:0:
256,192,97137,5,8,0:0:0:0:
256,192,97212,1,8,0:0:0:0:
256,192,97287,5,0,0:0:0:0:
256,192,97437,1,0,0:0:0:0:
256,192,97587,5,8,0:0:0:0:
256,192,97662,1,8,0:0:0:0:
256,192,97737,5,0,0:0:0:0:
256,192,97887,1,0,0:0:0:0:
256,192,98037,1,0,0:0:0:0:
256,192,98187,1,0,0:0:0:0:
256,192,98337,5,8,0:0:0:0:
256,192,98412,1,8,0:0:0:0:
256,192,98487,5,0,0:0:0:0:
256,192,98637,5,8,0:0:0:0:
256,192,98712,1,8,0:0:0:0:
256,192,98787,5,0,0:0:0:0:
256,192,98862,1,0,0:0:0:0:
256,192,98937,5,8,0:0:0:0:
256,192,99012,1,8,0:0:0:0:
256,192,99087,5,0,0:0:0:0:
256,192,99237,12,0,99537,0:0:0:0:
256,192,99837,12,0,100137,0:0:0:0:
256,192,100437,6,0,L|116:192,8,140
256,192,103437,5,8,0:0:0:0:
256,192,103512,1,8,0:0:0:0:
256,192,103587,1,8,0:0:0:0:
256,192,103662,1,8,0:0:0:0:
256,192,103737,5,0,0:0:0:0:
256,192,104037,5,8,0:0:0:0:
256,192,104187,5,0,0:0:0:0:
256,192,104337,5,8,0:0:0:0:
256,192,104487,1,8,0:0:0:0:
256,192,104637,5,0,0:0:0:0:
256,192,104787,5,8,0:0:0:0:
256,192,104937,5,0,0:0:0:0:
256,192,105237,1,0,0:0:0:0:
256,192,105387,5,8,0:0:0:0:
256,192,105537,5,0,0:0:0:0:
256,192,105687,5,8,0:0:0:0:
256,192,105762,1,8,0:0:0:0:
256,192,105837,5,0,0:0:0:0:
256,192,105912,1,0,0:0:0:0:
256,192,105987,1,0,0:0:0:0:
256,192,106137,1,0,0:0:0:0:
256,192,106287,5,8,0:0:0:0:
256,192,106437,1,8,0:0:0:0:
256,192,106737,1,8,0:0:0:0:
256,192,106887,1,8,0:0:0:0:
256,192,107037,5,0,0:0:0:0:
256,192,107187,5,8,0:0:0:0:
256,192,107337,5,0,0:0:0:0:
256,192,107637,1,0,0:0:0:0:
256,192,107787,5,8,0:0:0:0:
256,192,107937,5,0,0:0:0:0:
256,192,108087,5,8,0:0:0:0:
256,192,108237,5,8,0:0:0:0:
256,192,108312,1,8,0:0:0:0:
256,192,108387,5,0,0:0:0:0:
256,192,108462,1,0,0:0:0:0:
256,192,108537,5,8,0:0:0:0:
256,192,108612,1,8,0:0:0:0:
256,192,108687,5,0,0:0:0:0:
256,192,108837,5,8,0:0:0:0:
256,192,108912,1,8,0:0:0:0:
256,192,108987,5,0,0:0:0:0:
256,192,109062,1,0,0:0:0:0:
256,192,109137,1,0,0:0:0:0:
256,192,109212,1,0,0:0:0:0:
256,192,109287,1,0,0:0:0:0:
256,192,109362,1,0,0:0:0:0:
256,192,109437,1,0,0:0:0:0:
256,192,109487,1,0,0:0:0:0:
256,192,109537,1,0,0:0:0:0:
256,192,109587,1,0,0:0:0:0:
256,192,109637,1,0,0:0:0:0:
256,192,109687,1,0,0:0:0:0:
256,192,109737,5,8,0:0:0:0:
256,192,110037,5,0,0:0:0:0:
256,192,110187,5,8,0:0:0:0:
256,192,110337,1,8,0:0:0:0:
256,192,110487,5,0,0:0:0:0:
256,192,110637,5,8,0:0:0:0:
256,192,110787,1,8,0:0:0:0:
256,192,110937,5,0,0:0:0:0:
256,192,111087,5,8,0:0:0:0:
256,192,111237,1,8,0:0:0:0:
256,192,111387,5,0,0:0:0:0:
256,192,111537,5,8,0:0:0:0:
256,192,111687,1,8,0:0:0:0:
256,192,111837,5,0,0:0:0:0:
256,192,111987,5,8,0:0:0:0:
256,192,112137,1,8,0:0:0:0:
256,192,112287,5,0,0:0:0:0:
256,192,112437,1,0,0:0:0:0:
256,192,112587,5,8,0:0:0:0:
256,192,112737,1,8,0:0:0:0:
256,192,112887,5,0,0:0:0:0:
256,192,113037,5,8,0:0:0:0:
256,192,113187,1,8,0:0:0:0:
256,192,113337,5,0,0:0:0:0:
256,192,113487,5,8,0:0:0:0:
256,192,113637,1,8,0:0:0:0:
256,192,113787,5,0,0:0:0:0:
256,192,113937,5,8,0:0:0:0:
256,192,114087,1,8,0:0:0:0:
256,192,114237,5,0,0:0:0:0:
256,192,114387,5,8,0:0:0:0:
256,192,114537,5,0,0:0:0:0:
256,192,114687,5,8,0:0:0:0:
256,192,114837,1,8,0:0:0:0:
256,192,114987,5,0,0:0:0:0:
256,192,115137,5,8,0:0:0:0:
256,192,115287,1,8,0:0:0:0:
256,192,115437,5,0,0:0:0:0:
256,192,115587,5,8,0:0:0:0:
256,192,115737,5,0,0:0:0:0:
256,192,115887,5,8,0:0:0:0:
256,192,116037,1,8,0:0:0:0:
256,192,116187,5,0,0:0:0:0:
256,192,116337,1,0,0:0:0:0:
256,192,116487,5,8,0:0:0:0:
256,192,116637,5,0,0:0:0:0:
256,192,116787,5,8,0:0:0:0:
256,192,116937,1,8,0:0:0:0:
256,192,117087,5,0,0:0:0:0:
256,192,117237,5,8,0:0:0:0:
256,192,117387,5,0,0:0:0:0:
256,192,117537,1,0,0:0:0:0:
256,192,117687,5,8,0:0:0:0:
256,192,117837,5,0,0:0:0:0:
256,192,117987,5,8,0:0:0:0:
256,192,118137,5,0,0:0:0:0:
256,192,118287,5,8,0:0:0:0:
256,192,118437,1,8,0:0:0:0:
256,192,118587,5,0,0:0:0:0:
256,192,118737,5,8,0:0:0:0:
256,192,118887,5,0,0:0:0:0:
256,192,119037,5,8,0:0:0:0:
256,192,119187,1,8,0:0:0:0:
256,192,119337,1,8,0:0:0:0:
256,192,119487,5,0,0:0:0:0:
256,192,121437,5,8,0:0:0:0:
256,192,121737,1,8,0:0:0:0:
256,192,122037,5,0,0:0:0:0:
256,192,122187,5,8,0:0:0:0:
256,192,122487,5,0,0:0:0:0:
256,192,122562,1,0,0:0:0:0:
256,192,122637,5,8,0:0:0:0:
256,192,122937,1,8,0:0:0:0:
256,192,123087,5,0,0:0:0:0:
256,192,123387,1,0,0:0:0:0:
256,192,123537,5,8,0:0:0:0:
256,192,123837,5,0,0:0:0:0:
256,192,124137,1,0,0:0:0:0:
256,192,124437,1,0,0:0:0:0:
256,192,124512,1,0,0:0:0:0:
256,192,124587,5,8,0:0:0:0:
256,192,124887,5,0,0:0:0:0:
256,192,124962,5,8,0:0:0:0:
256,192,125037,1,8,0:0:0:0:
256,192,125337,1,8,0:0:0:0:
256,192,125487,5,0,0:0:0:0:
256,192,125937,1,0,0:0:0:0:
256,192,126087,1,0,0:0:0:0:
256,192,126237,5,8,0:0:0:0:
256,192,126537,1,8,0:0:0:0:
256,192,126837,5,0,0:0:0:0:
256,192,126987,5,8,0:0:0:0:
256,192,127287,5,0,0:0:0:0:
256,192,127362,1,0,0:0:0:0:
256,192,127437,5,8,0:0:0:0:
256,192,127587,5,0,0:0:0:0:
256,192,127737,5,8,0:0:0:0:
256,192,127887,1,8,0:0:0:0:
256,192,128037,5,0,0:0:0:0:
256,192,128187,5,8,0:0:0:0:
256,192,128337,1,8,0:0:0:0:
256,192,128637,5,0,0:0:0:0:
256,192,128937,1,0,0:0:0:0:
256,192,129237,1,0,0:0:0:0:
256,192,129312,5,8,0:0:0:0:
256,192,129387,1,8,0:0:0:0:
256,192,129537,5,0,0:0:0:0:
256,192,129687,5,8,0:0:0:0:
256,192,129762,1,8,0:0:0:0:
256,192,129837,5,0,0:0:0:0:
256,192,129987,1,0,0:0:0:0:
256,192,130137,5,8,0:0:0:0:
256,192,130287,1,8,0:0:0:0:
256,192,130437,5,0,0:0:0:0:
256,192,130587,5,8,0:0:0:0:
256,192,130737,1,8,0:0:0:0:
256,192,130887,5,0,0:0:0:0:
256,192,131037,5,8,0:0:0:0:
256,192,131337,1,8,0:0:0:0:
256,192,131637,5,0,0:0:0:0:
256,192,131787,5,8,0:0:0:0:
256,192,132087,5,0,0:0:0:0:
256,192,132162,1,0,0:0:0:0:
256,192,132237,5,8,0:0:0:0:
256,192,132537,1,8,0:0:0:0:
256,192,132687,5,0,0:0:0:0:
256,192,132837,1,0,0:0:0:0:
256,192,132987,1,0,0:0:0:0:
256,192,133137,5,8,0:0:0:0:
256,192,133437,1,8,0:0:0:0:
256,192,133737,1,8,0:0:0:0:
256,192,134037,5,0,0:0:0:0:
256,192,134187,5,8,0:0:0:0:
256,192,134487,5,0,0:0:0:0:
256,192,134562,1,0,0:0:0:0:
256,192,134637,5,8,0:0:0:0:
256,192,134787,5,0,0:0:0:0:
256,192,134937,5,8,0:0:0:0:
256,192,135087,1,8,0:0:0:0:
256,192,135237,5,0,0:0:0:0:
256,192,135387,5,8,0:0:0:0:
256,192,135537,1,8,0:0:0:0:
256,192,135837,5,0,0:0:0:0:
256,192,136137,1,0,0:0:0:0:
256,192,136437,5,8,0:0:0:0:
256,192,136512,5,0,0:0:0:0:
256,192,136587,1,0,0:0:0:0:
256,192,136737,5,8,0:0:0:0:
256,192,136887,5,0,0:0:0:0:
256,192,136962,1,0,0:0:0:0:
256,192,137037,5,8,0:0:0:0:
256,192,137187,1,8,0:0:0:0:
256,192,137337,5,0,0:0:0:0:
256,192,137487,1,0,0:0:0:0:
256,192,137637,5,8,0:0:0:0:
256,192,137787,5,0,0:0:0:0:
256,192,137937,5,8,0:0:0:0:
256,192,138087,5,0,0:0:0:0:
256,192,138237,1,0,0:0:0:0:
256,192,138537,1,0,0:0:0:0:
256,192,138837,1,0,0:0:0:0:
256,192,138987,1,0,0:0:0:0:
256,192,139137,1,0,0:0:0:0:
256,192,139287,1,0,0:0:0:0:
256,192,139437,1,0,0:0:0:0:
256,192,139587,1,0,0:0:0:0:
256,192,139737,1,0,0:0:0:0:
256,192,139887,1,0,0:0:0:0:
256,192,140037,1,0,0:0:0:0:
256,192,140112,1,0,0:0:0:0:
256,192,140187,1,0,0:0:0:0:
256,192,140262,1,0,0:0:0:0:
256,192,140337,1,0,0:0:0:0:
256,192,140412,1,0,0:0:0:0:
256,192,140487,1,0,0:0:0:0:
256,192,140562,1,0,0:0:0:0:
256,192,140637,5,8,0:0:0:0:
256,192,140937,1,8,0:0:0:0:
256,192,141237,5,0,0:0:0:0:
256,192,141387,1,0,0:0:0:0:
256,192,141687,1,0,0:0:0:0:
256,192,141837,1,0,0:0:0:0:
256,192,142137,1,0,0:0:0:0:
256,192,142287,1,0,0:0:0:0:
256,192,142587,1,0,0:0:0:0:
256,192,142737,5,8,0:0:0:0:
256,192,143037,5,0,0:0:0:0:
256,192,143337,1,0,0:0:0:0:
256,192,143637,1,0,0:0:0:0:
256,192,143787,5,8,0:0:0:0:
256,192,143937,5,0,0:0:0:0:
256,192,144237,5,8,0:0:0:0:
256,192,144537,5,0,0:0:0:0:
256,192,144687,5,8,0:0:0:0:
256,192,144987,5,0,0:0:0:0:
256,192,145137,5,8,0:0:0:0:
256,192,145437,1,8,0:0:0:0:
256,192,145737,1,8,0:0:0:0:
256,192,146037,5,0,0:0:0:0:
256,192,146187,1,0,0:0:0:0:
256,192,146487,5,8,0:0:0:0:
256,192,146637,1,8,0:0:0:0:
256,192,146937,5,0,0:0:0:0:
256,192,147087,1,0,0:0:0:0:
256,192,147387,5,8,0:0:0:0:
256,192,147537,1,8,0:0:0:0:
256,192,147837,5,0,0:0:0:0:
256,192,148137,1,0,0:0:0:0:
256,192,148437,1,0,0:0:0:0:
256,192,148587,1,0,0:0:0:0:
256,192,148737,5,8,0:0:0:0:
256,192,149037,5,0,0:0:0:0:
256,192,149337,5,8,0:0:0:0:
256,192,149487,5,0,0:0:0:0:
256,192,149787,1,0,0:0:0:0:
256,192,149937,5,8,0:0:0:0:
256,192,150237,5,0,0:0:0:0:
256,192,150537,1,0,0:0:0:0:
256,192,150837,1,0,0:0:0:0:
256,192,151137,1,0,0:0:0:0:
256,192,151287,1,0,0:0:0:0:
256,192,151437,1,0,0:0:0:0:
256,192,151737,1,0,0:0:0:0:
256,192,151887,1,0,0:0:0:0:
256,192,152187,1,0,0:0:0:0:
256,192,152337,5,12,0:0:0:0:
256,192,152637,5,0,0:0:0:0:
256,192,152937,1,0,0:0:0:0:
256,192,153237,1,0,0:0:0:0:
256,192,153537,1,0,0:0:0:0:
256,192,153687,1,0,0:0:0:0:
256,192,153837,1,0,0:0:0:0:
256,192,153987,1,0,0:0:0:0:
256,192,154287,1,0,0:0:0:0:
256,192,154587,1,0,0:0:0:0:
256,192,154737,5,12,0:0:0:0:
256,192,155037,5,0,0:0:0:0:
256,192,155337,1,0,0:0:0:0:
256,192,155637,1,0,0:0:0:0:
256,192,155937,1,0,0:0:0:0:
256,192,156087,1,0,0:0:0:0:
256,192,156237,1,0,0:0:0:0:
256,192,156537,1,0,0:0:0:0:
256,192,156687,1,0,0:0:0:0:
256,192,156987,1,0,0:0:0:0:
256,192,157137,5,12,0:0:0:0:
256,192,157437,5,0,0:0:0:0:
256,192,157737,1,0,0:0:0:0:
256,192,158037,1,0,0:0:0:0:
256,192,158187,1,0,0:0:0:0:
256,192,158337,1,0,0:0:0:0:
256,192,158487,1,0,0:0:0:0:
256,192,158637,1,0,0:0:0:0:
256,192,158787,1,0,0:0:0:0:
256,192,158937,1,0,0:0:0:0:
256,192,159087,1,0,0:0:0:0:
256,192,159237,1,0,0:0:0:0:
256,192,159312,1,0,0:0:0:0:
256,192,159387,1,0,0:0:0:0:
256,192,159462,1,0,0:0:0:0:
256,192,159537,1,0,0:0:0:0:
256,192,159612,1,0,0:0:0:0:
256,192,159687,1,0,0:0:0:0:
256,192,159837,5,12,0:0:0:0:
256,192,160137,5,4,0:0:0:0:
176,248,160437,5,8,0:0:0:0:
256,192,160587,5,0,0:0:0:0:
256,192,160887,1,0,0:0:0:0:
256,192,160962,1,0,0:0:0:0:
256,192,161037,5,8,0:0:0:0:
256,192,161337,5,0,0:0:0:0:
256,192,161487,5,8,0:0:0:0:
256,192,161787,1,8,0:0:0:0:
256,192,161937,5,0,0:0:0:0:
256,192,162237,1,4,0:0:0:0:
256,192,162537,1,4,0:0:0:0:
256,192,162837,1,0,0:0:0:0:
256,192,162912,1,0,0:0:0:0:
256,192,162987,1,0,0:0:0:0:
256,192,163287,1,0,0:0:0:0:
256,192,163362,1,0,0:0:0:0:
256,192,163437,5,8,0:0:0:0:
256,192,163737,1,8,0:0:0:0:
256,192,163887,5,0,0:0:0:0:
256,192,164037,1,0,0:0:0:0:
256,192,164187,1,0,0:0:0:0:
256,192,164337,5,8,0:0:0:0:
256,192,164487,5,0,0:0:0:0:
256,192,164637,5,12,0:0:0:0:
256,192,164937,5,4,0:0:0:0:
256,192,165237,1,0,0:0:0:0:
256,192,165387,5,8,0:0:0:0:
256,192,165537,1,8,0:0:0:0:
256,192,165687,5,0,0:0:0:0:
256,192,165762,1,0,0:0:0:0:
256,192,165837,5,8,0:0:0:0:
256,192,165987,5,0,0:0:0:0:
256,192,166137,5,8,0:0:0:0:
256,192,166287,5,0,0:0:0:0:
256,192,166437,5,8,0:0:0:0:
256,192,166587,1,8,0:0:0:0:
256,192,166737,5,0,0:0:0:0:
256,192,166887,1,0,0:0:0:0:
256,192,167037,1,4,0:0:0:0:
256,192,167337,1,4,0:0:0:0:
256,192,167637,1,0,0:0:0:0:
256,192,167712,5,8,0:0:0:0:
256,192,167787,1,8,0:0:0:0:
256,192,167937,5,0,0:0:0:0:
256,192,168087,1,0,0:0:0:0:
256,192,168237,5,8,0:0:0:0:
256,192,168387,5,0,0:0:0:0:
256,192,168537,5,8,0:0:0:0:
256,192,168687,1,8,0:0:0:0:
256,192,168837,5,0,0:0:0:0:
256,192,168987,5,8,0:0:0:0:
256,192,169137,5,0,0:0:0:0:
256,192,169287,1,0,0:0:0:0:
256,192,169437,5,12,0:0:0:0:
256,192,169737,1,12,0:0:0:0:
256,192,170037,5,0,0:0:0:0:
256,192,170187,5,8,0:0:0:0:
256,192,170487,5,0,0:0:0:0:
256,192,170562,1,0,0:0:0:0:
256,192,170637,5,8,0:0:0:0:
256,192,170937,5,0,0:0:0:0:
256,192,171087,5,8,0:0:0:0:
256,192,171387,5,0,0:0:0:0:
256,192,171537,5,8,0:0:0:0:
256,192,171837,1,12,0:0:0:0:
256,192,172137,1,12,0:0:0:0:
256,192,172437,5,0,0:0:0:0:
256,192,172587,5,8,0:0:0:0:
256,192,172737,5,0,0:0:0:0:
256,192,172887,1,0,0:0:0:0:
256,192,173037,5,8,0:0:0:0:
256,192,173187,5,0,0:0:0:0:
256,192,173337,5,8,0:0:0:0:
256,192,173412,1,8,0:0:0:0:
256,192,173487,5,0,0:0:0:0:
256,192,173637,1,0,0:0:0:0:
256,192,173787,1,0,0:0:0:0:
256,192,173862,1,0,0:0:0:0:
256,192,173937,5,8,0:0:0:0:
256,192,174087,5,0,0:0:0:0:
256,192,174237,1,4,0:0:0:0:
256,192,174537,1,4,0:0:0:0:
256,192,174837,1,0,0:0:0:0:
256,192,174987,5,8,0:0:0:0:
256,192,175287,5,0,0:0:0:0:
256,192,175362,1,0,0:0:0:0:
256,192,175437,5,8,0:0:0:0:
256,192,175587,5,0,0:0:0:0:
256,192,175737,5,8,0:0:0:0:
256,192,175887,5,0,0:0:0:0:
256,192,176037,1,0,0:0:0:0:
256,192,176112,1,0,0:0:0:0:
256,192,176187,1,0,0:0:0:0:
256,192,176262,1,0,0:0:0:0:
256,192,176337,5,8,0:0:0:0:
256,192,176487,5,0,0:0:0:0:
256,192,176637,1,4,0:0:0:0:
256,192,176937,1,4,0:0:0:0:
256,192,177237,5,8,0:0:0:0:
256,192,177312,1,8,0:0:0:0:
256,192,177387,5,0,0:0:0:0:
256,192,177537,1,0,0:0:0:0:
256,192,177687,1,0,0:0:0:0:
256,192,177837,1,0,0:0:0:0:
256,192,177912,1,0,0:0:0:0:
256,192,177987,1,0,0:0:0:0:
256,192,178062,1,0,0:0:0:0:
256,192,178137,5,8,0:0:0:0:
256,192,178212,1,8,0:0:0:0:
256,192,178287,1,8,0:0:0:0:
256,192,178362,1,8,0:0:0:0:
256,192,178437,5,0,0:0:0:0:
256,192,178512,1,0,0:0:0:0:
256,192,178587,5,8,0:0:0:0:
256,192,178662,5,0,0:0:0:0:
256,192,178737,5,8,0:0:0:0:
256,192,178812,1,8,0:0:0:0:
256,192,178887,1,8,0:0:0:0:
256,192,178962,1,8,0:0:0:0:
256,192,179037,5,0,0:0:0:0:
