osu file format v12

[General]
AudioFilename: Infinite of nuclear fusion.mp3
AudioLeadIn: 1000
PreviewTime: 81251
Countdown: 0
SampleSet: Normal
StackLeniency: 0.7
Mode: 0
LetterboxInBreaks: 0
WidescreenStoryboard: 1

[Editor]
DistanceSpacing: 1
BeatDivisor: 4
GridSize: 4

[Metadata]
Title:Infinite of Nuclear Fusion
TitleUnicode:無限の太陽信仰
Artist:AU
ArtistUnicode:あう
Creator:OnosakiHito
Version:Hard
Source:Touhou
Tags:utsuho reiuji okuu IoNF unyuu Saten Saten-san Regou techno
BeatmapID:291283
BeatmapSetID:35211

[Difficulty]
HPDrainRate:5
CircleSize:4
OverallDifficulty:6
ApproachRate:8
SliderMultiplier:1.4
SliderTickRate:2

[Events]
//Background and Video events
0,0,"BG.jpg",0,0
//Break Periods
2,100637,109287
2,140837,149487
//Storyboard Layer 0 (Background)
Sprite,Background,Centre,"BG_SB.jpg",320,240 S,0,119637,,0.802386 F,0,119637,121437,0,1 F,0,121437,143037,1,0.975
Sprite,Background,Centre,"BG_SB.jpg",320,240 F,0,71637,72837,0,1 S,0,71637,150162,0.8054401 M,0,71637,153513,320,240,320,239 F,0,72837,80037,1,0.996875 F,0,80037,81237,0.996875,0 F,0,81237,147837,0 F,0,121437,,1 F,0,121437,150237,0.7934503,1 F,0,121437,150237,1 F,0,147837,150237,0,1 S,0,150162,150237,0.8054401,0.823405 S,0,150237,150312,0.823405,0.8054401 F,0,150237,159837,1 S,0,150312,150462,0.8054401 S,0,150462,150537,0.8054401,0.8114284 S,0,150537,150612,0.8114284,0.8054401 S,0,150612,152562,0.8054401 S,0,152562,152637,0.8054401,0.8174167 S,0,152637,152712,0.8174167,0.8054401 S,0,152712,152862,0.8054401 S,0,152862,152937,0.8054401,0.8114284 S,0,152937,153012,0.8114284,0.8054401 S,0,153012,154962,0.8054401 M,0,153513,,320,239 S,0,154962,155037,0.8054401,0.8174167 S,0,155037,155112,0.8174167,0.8054401 S,0,155112,155262,0.8054401 S,0,155262,155337,0.8054401,0.8114284 S,0,155337,155412,0.8114284,0.8054401 S,0,155412,157362,0.8054401 S,0,157362,157437,0.8054401,0.8174167 S,0,157437,157512,0.8174167,0.8054401 S,0,157512,157962,0.8054401 S,0,157962,158037,0.8054401,0.8174167 S,0,158037,158112,0.8174167,0.8054401 S,0,158112,158562,0.8054401 S,0,158562,158637,0.8054401,0.8174167 S,0,158637,159837,0.8174167,0.8054401 F,0,159837,160137,1,0
//Storyboard Layer 1 (Fail)
//Storyboard Layer 2 (Pass)
//Storyboard Layer 3 (Foreground)
Sprite,Foreground,Centre,"BG_SB2.jpg",320,240 S,0,140637,,0.8054401 F,0,140637,143037,0,1 F,0,143037,149037,1,0.99625 F,0,149037,150237,0.99625,0
Sprite,Foreground,Centre,"l_3.png",320,240 S,0,81162,81237,1,1.17408 R,0,81162,102837,-50,-20.79552 M,0,81237,,101,90 S,0,81237,81312,1.17408,1 F,0,81237,100437,0.54944 S,0,81312,85962,1 S,0,85962,86037,1,1.18432 S,0,86037,86112,1.18432,1 S,0,86112,90762,1 S,0,90762,90837,1,1.22528 S,0,90837,90912,1.22528,1 S,0,90912,95562,1 S,0,95562,95637,1,1.22528 S,0,95637,95712,1.22528,1 S,0,95712,97962,1 S,0,97962,98037,1,1.256 S,0,98037,98112,1.256,1 S,0,98112,99162,1 S,0,99162,99237,1,1.17408 S,0,99237,99312,1.17408,1 S,0,99312,99762,1 S,0,99762,99837,1,1.1536 S,0,99837,99912,1.1536,1 S,0,99912,100362,1 S,0,100362,100437,1,1.143719 S,0,100437,100512,1.143719,1 F,0,100437,102837,0.54944,0
Sprite,Foreground,Centre,"l_2.png",320,240 M,0,83637,,548,391 S,0,83637,,2.01376 R,0,83637,84837,50,48.07488 F,0,83637,86037,0,0.30368 R,0,84837,86037,48.07488,44.79204 R,0,86037,87237,44.79204,40.1677 F,0,86037,93237,0.30368 R,0,87237,88437,40.1677,32.87175 R,0,88437,89637,32.87175,22.58407 R,0,89637,90837,22.58407,13.93675 R,0,90837,92037,13.93675,7.919044 R,0,92037,93237,7.919044,3.925024 R,0,93237,93837,3.925024,2.852897 F,0,93237,95637,0.30368,0 R,0,93837,94437,2.852897,1.917965 R,0,94437,95637,1.917965,0.1424368
Sprite,Foreground,Centre,"White.jpg",320,240 M,0,104037,,320,240 F,0,104037,107637,0,0.1972547 S,0,104037,109737,2.024 F,0,107637,109737,0.1972547,0.4863999 F,0,109737,109887,0.4863999,0 S,0,109737,109887,2.024
Sprite,Foreground,Centre,"w_3.png",320,240 F,0,78837,79437,1,0 M,0,78837,81237,18,-392,18,870 F,0,79437,80037,0,1 F,0,80037,80637,1,0 F,0,80637,81237,0,1
Sprite,Foreground,Centre,"w_3.png",320,240 R,0,78837,,-3.13344 F,0,78837,79437,1,0 M,0,78837,81237,618,871,623,-391 F,0,79437,80037,0,1 F,0,80037,80637,1,0 F,0,80637,81237,0,1
Sprite,Foreground,Centre,"w_2.png",320,240 F,0,78837,79437,1,0 M,0,78837,81237,1030,19,-391,20 F,0,79437,80037,0,1 F,0,80037,80637,1,0 F,0,80637,81237,0,1
Sprite,Foreground,Centre,"w_2.png",320,240 F,0,78837,79437,1,0 M,0,78837,81237,-391,461,1030,461 F,0,79437,80037,0,1 F,0,80037,80637,1,0 F,0,80637,81237,0,1
Sprite,Foreground,Centre,"w_3.png",320,240 F,0,147837,148437,0,1 M,0,147837,150237,18,-392,18,870 F,0,148437,149037,1,0 F,0,149037,149637,0,1 F,0,149637,150237,1,0
Sprite,Foreground,Centre,"w_3.png",320,240 R,0,147837,,-3.13344 F,0,147837,148437,0,1 M,0,147837,150237,618,871,623,-391 F,0,148437,149037,1,0 F,0,149037,149637,0,1 F,0,149637,150237,1,0
Sprite,Foreground,Centre,"w_3.png",320,240 F,0,78837,79437,1,0 M,0,78837,81237,18,-392,18,870 F,0,79437,80037,0,1 F,0,80037,80637,1,0 F,0,80637,81237,0,1
Sprite,Foreground,Centre,"w_3.png",320,240 R,0,78837,,-3.13344 F,0,78837,79437,1,0 M,0,78837,81237,618,871,623,-391 F,0,79437,80037,0,1 F,0,80037,80637,1,0 F,0,80637,81237,0,1
Sprite,Foreground,Centre,"w_2.png",320,240 F,0,78837,79437,1,0 M,0,78837,81237,1030,19,-391,20 F,0,79437,80037,0,1 F,0,80037,80637,1,0 F,0,80637,81237,0,1
Sprite,Foreground,Centre,"w_2.png",320,240 F,0,78837,79437,1,0 M,0,78837,81237,-391,461,1030,461 F,0,79437,80037,0,1 F,0,80037,80637,1,0 F,0,80637,81237,0,1
Sprite,Foreground,Centre,"w_3.png",320,240 F,0,157437,158037,0,1 M,0,157437,159837,18,-392,18,870 F,0,158037,158637,1,0 F,0,158637,159237,0,1 F,0,159237,159837,1,0
Sprite,Foreground,Centre,"w_3.png",320,240 R,0,157437,,-3.13344 F,0,157437,158037,0,1 M,0,157437,159837,618,871,623,-391 F,0,158037,158637,1,0 F,0,158637,159237,0,1 F,0,159237,159837,1,0
Sprite,Foreground,Centre,"w_2.png",320,240 F,0,157437,158037,0,1 M,0,157437,159837,1030,19,-391,20 F,0,158037,158637,1,0 F,0,158637,159237,0,1 F,0,159237,159837,1,0
Sprite,Foreground,Centre,"w_2.png",320,240 F,0,157437,158037,0,1 M,0,157437,159837,-391,461,1030,461 F,0,158037,158637,1,0 F,0,158637,159237,0,1 F,0,159237,159837,1,0
Sprite,Foreground,Centre,"l_1.png",320,240 M,0,150237,,320,240 F,0,150237,150312,0,0.21152 S,0,150237,150387,0.61088,0.6723199 R,0,150237,152637,0,-3.80928 F,0,150312,158637,0.21152 S,0,150387,150537,0.6723199,0.61088 S,0,150537,150687,0.61088,0.8054401 S,0,150687,152637,0.8054401,0.61088 S,0,152637,152712,0.61088,0.7235201 R,0,152637,155037,-3.80928,1.945601 S,0,152712,152787,0.7235201,0.61088 S,0,152787,152937,0.61088,0.8054399 S,0,152937,155037,0.8054399,0.7132801 S,0,155037,155112,0.7132801,0.7952056 R,0,155037,157437,1.945601,-6.184959 S,0,155112,155187,0.7952056,0.713291 S,0,155187,155337,0.713291,0.9590622 S,0,155337,157437,0.9590622,0.7134556 S,0,157437,157512,0.7134556,1.092336 R,0,157437,159874,-6.184959,8.253441 S,0,157512,158637,1.092336,0.7134556 S,0,158637,158712,0.7134556,1.031536 F,0,158637,159837,0.21152,0 S,0,158712,159837,1.031536,1.051376
Sprite,Foreground,Centre,"l_3.png",320,240 S,0,159762,159837,1,1.17408 R,0,159762,171837,-50,-33.73038 M,0,159837,,101,90 S,0,159837,159912,1.17408,1 F,0,159837,179037,0.54944 S,0,159912,171762,1 S,0,171762,171837,1,1.173661 S,0,171837,171912,1.173661,1 R,0,171837,175437,-33.73038,-23.82568 S,0,171912,175362,1 S,0,175362,175437,1,1.167673 S,0,175437,175512,1.167673,1 R,0,175437,177237,-23.82568,-13.60361 R,0,175437,177237,-26.37669,-19.90331 S,0,175512,177162,1 S,0,177162,177237,1,1.173661 S,0,177237,177312,1.173661,1 R,0,177237,177837,-13.60361,-9.89087 S,0,177312,178962,1 R,0,177837,179037,-9.89087,7.223704 S,0,178962,179037,1,1.173661 S,0,179037,179112,1.173661,1 F,0,179037,181437,0.54944,0 R,0,179037,181437,7.223704,12.31376
Sprite,Foreground,Centre,"l_2.png",320,240 S,0,159762,159837,1,1.17408 R,0,159762,169437,50,35.64941 M,0,159837,,520,385 S,0,159837,159912,1.17408,1 F,0,159837,179037,0.54944 S,0,159912,,1 S,0,159912,169362,1 S,0,169362,,1 S,0,169362,169437,1,1.22528 S,0,169437,169512,1.22528,1 R,0,169437,174237,35.64941,23.28399 S,0,169512,174162,1 S,0,174162,174237,1,1.22528 S,0,174237,174312,1.22528,1 R,0,174237,176637,23.28399,12.95737 S,0,174312,176562,1 S,0,176562,176637,1,1.256 S,0,176637,176712,1.256,1 R,0,176637,177837,12.95737,4.793921 S,0,176712,177762,1 S,0,177762,177912,1 R,0,177837,,13.03383 R,0,177837,179037,4.793921,-13.44646 S,0,177912,178362,1 S,0,178362,178512,1 F,0,179037,181437,0.54944,0 R,0,179037,181437,-13.44646,-19.50662
Sprite,Foreground,Centre,"w_2.png",320,240 M,0,7137,,335,64 F,0,7137,8037,0,1 F,0,8037,,1 F,0,8037,8347,1,0 F,0,8347,9237,0,1 F,0,9237,9537,1,0 F,0,9537,10437,0,1 F,0,10437,10737,1,0
Sprite,Foreground,Centre,"w_2.png",320,240 M,0,21237,,319,412 F,0,21537,22437,0,1 F,0,22437,22737,1,0.1560001 F,0,22737,23637,0.1560001,1 F,0,23637,23937,1,0.1 F,0,23937,24837,0.1,1 F,0,24837,25137,1,0.02
Sprite,Foreground,Centre,"w_2.png",320,240 M,0,52737,,331,65 F,0,52737,53637,0,1 F,0,53637,53937,1,0 F,0,53937,54837,0,1 F,0,54837,55137,1,0 F,0,55137,56037,0,1 F,0,56037,56337,1,0
Sprite,Foreground,Centre,"w_2.png",320,240 M,0,157437,,370,130 R,0,157437,,0.4479996 F,0,157437,158337,0,1 F,0,158337,158637,1,0 F,0,158637,159837,0,1 F,0,159837,160137,1,0
Sprite,Foreground,Centre,"w_2.png",320,240 M,0,131337,,326,93 F,0,131337,132237,0,1 F,0,132237,132537,1,0 F,0,132537,133437,0,1 F,0,133437,133737,1,0 F,0,133737,134637,0,1 F,0,134637,135237,1,0
//Storyboard Sound Samples
Sample,78837,0,"caution.mp3",45
Sample,147687,0,"caution.mp3",45
Sample,157437,0,"caution2.mp3",45
//Background Colour Transformations
3,100,163,162,255

[TimingPoints]
2037,300,4,1,1,40,1,0
2337,-100,4,2,1,40,0,0
6837,-100,4,1,1,40,0,0
6912,-100,4,2,1,55,0,0
10437,-100,4,1,3,75,0,0
11337,-133.333333333333,4,2,2,20,0,0
11637,-100,4,1,1,75,0,0
30837,-133.333333333333,4,1,1,50,0,0
31112,-133.333333333333,4,2,1,80,0,0
31437,-133.333333333333,4,1,1,50,0,0
31512,-133.333333333333,4,2,1,80,0,0
32037,-133.333333333333,4,1,1,50,0,0
33537,-133.333333333333,4,2,1,80,0,0
34437,-133.333333333333,4,1,1,50,0,0
35787,-133.333333333333,4,2,1,80,0,0
36237,-133.333333333333,4,1,1,50,0,0
36837,-133.333333333333,4,1,1,50,0,0
36987,-133.333333333333,4,2,1,50,0,0
37137,-133.333333333333,4,1,1,50,0,0
38112,-133.333333333333,4,2,1,50,0,0
38637,-133.333333333333,4,1,1,50,0,0
38712,-133.333333333333,4,2,1,50,0,0
39237,-100,4,2,1,70,0,0
39837,-100,4,1,1,40,0,0
40137,-100,4,2,1,50,0,0
40174,-100,4,1,1,50,0,0
40437,-100,4,1,1,80,0,0
48912,-100,4,1,1,70,0,0
50037,-200,4,2,1,50,0,0
51237,-100,4,2,1,50,0,0
51537,-100,4,2,1,70,0,0
51837,-100,4,2,1,80,0,0
52137,-100,4,2,1,90,0,0
52437,-100,4,1,1,80,0,0
70437,-100,4,1,1,70,0,0
71037,-100,4,1,1,60,0,0
71487,-200,4,1,1,60,0,0
71637,-200,4,2,1,80,0,0
76437,-133.333333333333,4,2,1,90,0,0
81237,-83.3333333333333,4,1,3,100,0,1
81537,-83.3333333333333,4,1,1,100,0,1
86037,-83.3333333333333,4,1,3,100,0,1
86337,-83.3333333333333,4,1,1,100,0,1
87237,-83.3333333333333,4,1,3,100,0,1
87537,-83.3333333333333,4,1,1,100,0,1
88437,-83.3333333333333,4,1,3,100,0,1
88737,-83.3333333333333,4,1,1,100,0,1
89037,-83.3333333333333,4,1,3,100,0,1
89337,-83.3333333333333,4,1,1,100,0,1
89637,-83.3333333333333,4,1,3,100,0,1
89937,-83.3333333333333,4,1,1,100,0,1
90837,-83.3333333333333,4,1,3,100,0,1
91137,-83.3333333333333,4,1,1,100,0,1
92037,-83.3333333333333,4,1,3,100,0,1
92337,-83.3333333333333,4,1,1,100,0,1
95637,-83.3333333333333,4,1,3,100,0,1
95937,-83.3333333333333,4,1,1,100,0,1
96837,-83.3333333333333,4,1,3,100,0,1
97137,-83.3333333333333,4,1,1,100,0,1
97437,-83.3333333333333,4,1,3,100,0,1
97737,-83.3333333333333,4,1,1,100,0,1
99237,-83.3333333333333,4,1,3,80,0,1
99537,-83.3333333333333,4,1,1,80,0,1
100437,-100,4,1,1,90,0,0
110037,-100,4,1,3,90,0,0
110337,-100,4,1,1,90,0,0
119637,300,6,2,1,90,1,8
119637,-200,6,2,1,90,0,0
121437,300,4,2,2,40,1,0
121437,-200,4,2,2,40,0,0
150237,-100,4,1,1,50,0,0
152337,-93.4579439252336,4,1,1,50,0,0
152937,-100,4,1,1,50,0,0
154737,-87.719298245614,4,1,1,50,0,0
155337,-100,4,1,1,50,0,0
157137,-82.6446280991736,4,1,1,50,0,0
157737,-100,4,1,1,50,0,0
159837,-82.6446280991736,4,1,1,80,0,1
169437,-82.6446280991736,4,1,3,80,0,1
169737,-82.6446280991736,4,1,1,80,0,1
171837,-82.6446280991736,4,1,3,80,0,1
172137,-82.6446280991736,4,1,1,80,0,1
174237,-82.6446280991736,4,1,3,80,0,1
174537,-82.6446280991736,4,1,1,80,0,1
175437,-82.6446280991736,4,1,3,80,0,1
175737,-82.6446280991736,4,1,1,80,0,1
176637,-82.6446280991736,4,1,3,80,0,1
176937,-82.6446280991736,4,1,1,80,0,1
177237,-82.6446280991736,4,1,3,80,0,1
177537,-82.6446280991736,4,1,1,80,0,1
177837,-80,4,1,1,40,0,1
178137,-83.3333333333333,4,1,1,40,0,1
178437,-86.9565217391304,4,1,1,40,0,1
178737,-90.9090909090909,4,1,1,40,0,1
179037,-100,4,1,1,80,0,0

[HitObjects]
116,192,2037,2,0,P|132:124|180:74,1,140
256,192,2637,2,0,P|294:250|356:279,1,140
464,192,3237,1,0,0:0:0:0:
388,76,3537,1,0,0:0:0:0:
256,32,3837,2,0,P|232:96|176:140,1,140
96,163,4287,1,0,0:0:0:0:
76,244,4437,6,0,P|124:296|188:316,1,140
436,244,5037,2,0,P|388:296|324:316,1,140
256,160,5637,1,0,0:0:0:0:
384,52,5937,1,0,0:0:0:0:
256,160,6237,2,0,P|220:156|184:148,1,70
136,216,6537,2,0,P|96:216|64:208,1,70
27,136,6837,6,0,P|64:77|128:51,1,140
484,136,7437,2,0,P|447:77|383:51,1,140
256,160,8037,2,0,B|216:168|188:156|152:136|116:144,1,140
188,296,8637,2,0,B|228:304|256:292|292:272|328:280,1,140
408,300,9087,1,0,0:0:0:0:
480,256,9237,2,0,P|500:192|472:128,1,140
320,200,9837,2,0,P|256:220|192:192,1,140
256,36,10437,5,0,0:0:0:0:
256,32,10737,1,0,0:0:0:0:
256,28,11037,1,0,0:0:0:0:
256,24,11337,2,0,L|256:129,1,105.000004005432,0|0,0:0|0:0,0:0:0:0:
216,204,11787,5,0,0:0:0:0:
136,228,11937,2,0,P|100:224|68:212,1,70,8|0,0:0|0:0,0:0:0:0:
52,128,12237,2,0,P|116:100|156:44,1,140,0|8,0:0|0:0,0:0:0:0:
228,88,12687,2,0,P|256:152|312:192,1,140
392,164,13137,6,0,L|424:148,2,35,8|0|0,0:0|0:0|0:0,0:0:0:0:
312,192,13437,1,0,0:0:0:0:
256,256,13587,1,0,0:0:0:0:
256,340,13737,2,0,L|264:376,3,35,8|0|0|0,0:0|0:0|0:0|0:0,0:0:0:0:
304,384,14037,6,0,P|339:373|370:353,1,70
332,280,14337,2,0,P|356:252|384:232,1,70,8|0,0:0|0:0,0:0:0:0:
448,180,14637,2,0,P|428:108|376:72,1,140,0|8,0:0|0:0,0:0:0:0:
320,136,15087,2,0,P|256:160|192:136,1,140
140,68,15537,6,0,L|144:32,2,35,8|0|0,0:0|0:0|0:0,0:0:0:0:
192,136,15837,1,0,0:0:0:0:
180,220,15987,1,0,0:0:0:0:
100,252,16137,2,0,L|64:252,3,35,8|0|0|0,0:0|0:0|0:0|0:0,0:0:0:0:
24,264,16437,6,0,P|37:305|55:326,1,70
132,356,16737,2,0,P|168:340|200:336,1,70,8|0,0:0|0:0,0:0:0:0:
280,352,17037,2,0,P|320:292|312:228,1,140,0|8,0:0|0:0,0:0:0:0:
240,272,17487,2,0,P|200:212|208:148,1,140
276,96,17937,6,0,L|312:88,2,35,8|0|0,0:0|0:0|0:0,0:0:0:0:
208,148,18237,1,0,0:0:0:0:
128,124,18387,1,0,0:0:0:0:
84,52,18537,2,0,L|52:64,3,35,8|0|0|0,0:0|0:0|0:0|0:0,0:0:0:0:
12,80,18837,6,0,P|12:115|28:149,1,70
51,226,19137,2,0,P|84:235|114:253,1,70,8|0,0:0|0:0,0:0:0:0:
196,236,19437,2,0,P|256:200|276:136,1,140,0|8,0:0|0:0,0:0:0:0:
352,104,19887,2,0,P|408:148|424:212,1,140
364,272,20337,6,0,L|332:288,3,35,8|0|0|0,0:0|0:0|0:0|0:0,0:0:0:0:
292,280,20637,2,0,L|276:264,8,17.5
224,328,21087,1,0,0:0:0:0:
144,300,21237,6,0,L|100:244,1,70
176,208,21537,2,0,L|220:152,1,70,8|0,0:0|0:0,0:0:0:0:
296,116,21837,1,0,0:0:0:0:
376,140,21987,1,0,0:0:0:0:
404,220,22137,1,8,0:0:0:0:
360,292,22287,6,0,P|332:320|316:348,2,70
444,292,22737,2,0,P|480:288|512:276,2,70,8|0|0,0:0|0:0|0:0,0:0:0:0:
404,220,23187,1,0,0:0:0:0:
376,140,23337,2,0,L|392:108,3,35,8|0|0|0,0:0|0:0|0:0|0:0,0:0:0:0:
380,68,23637,6,0,L|316:40,1,70
264,108,23937,2,0,L|200:136,1,70,8|0,0:0|0:0,0:0:0:0:
116,156,24237,1,0,0:0:0:0:
44,112,24387,1,0,0:0:0:0:
32,28,24537,1,8,0:0:0:0:
116,16,24687,6,0,L|180:48,2,70
44,112,25137,2,0,L|8:172,2,70,8|0|0,0:0|0:0|0:0,0:0:0:0:
128,102,25587,1,0,0:0:0:0:
184,164,25737,2,0,L|172:196,3,35,8|0|0|0,0:0|0:0|0:0|0:0,0:0:0:0:
188,236,26037,6,0,P|224:248|256:248,1,70
316,192,26337,2,0,P|352:180|384:180,1,70,8|0,0:0|0:0,0:0:0:0:
456,224,26637,1,0,0:0:0:0:
476,304,26787,1,0,0:0:0:0:
432,376,26937,1,8,0:0:0:0:
348,376,27087,6,0,P|316:356|296:332,2,70
164,376,27537,2,0,P|196:356|216:332,2,70,8|0|0,0:0|0:0|0:0,0:0:0:0:
84,352,27987,1,0,0:0:0:0:
60,272,28137,2,0,L|72:240,3,35,8|0|0|0,0:0|0:0|0:0|0:0,0:0:0:0:
88,200,28437,6,0,L|157:192,1,70
204,260,28737,2,0,L|273:267,1,70,8|0,0:0|0:0,0:0:0:0:
348,232,29037,1,0,0:0:0:0:
380,152,29187,1,0,0:0:0:0:
336,80,29337,1,8,0:0:0:0:
256,56,29487,6,0,L|188:68,2,70
380,152,29937,2,0,L|448:164,2,70,8|0|0,0:0|0:0|0:0,0:0:0:0:
132,232,30537,1,8,0:0:0:0:
72,172,30687,1,0,0:0:0:0:
72,88,30837,6,0,P|116:60|168:56,1,105.000004005432,4|0,2:0|0:0,0:0:0:0:
228,104,31287,1,0,0:0:0:0:
296,144,31437,2,0,P|397:142|448:56,1,210.000008010865
292,24,32337,2,0,L|240:36,1,52.5000020027161
204,188,32787,2,0,L|256:176,1,52.5000020027161
332,192,33087,1,0,0:0:0:0:
384,252,33237,6,0,P|372:300|332:336,1,105.000004005432
256,312,33687,1,0,0:0:0:0:
200,256,33837,2,0,P|100:240|28:312,1,210.000008010865
176,364,34737,2,0,L|228:372,1,52.5000020027161
308,236,35187,2,0,L|256:228,1,52.5000020027161
192,180,35487,1,0,0:0:0:0:
180,104,35637,6,0,L|200:56,1,52.5000020027161
276,76,35937,2,0,L|296:124,1,52.5000020027161
256,192,36237,2,0,P|212:232|168:244,1,105.000004005432
108,192,36687,1,0,0:0:0:0:
32,220,36837,2,0,P|32:272|56:320,1,105.000004005432
132,328,37287,2,0,P|184:316|236:320,1,105.000004005432
312,336,37737,5,0,0:0:0:0:
380,296,37887,1,0,0:0:0:0:
384,216,38037,2,0,P|368:176|364:168,1,52.5000020027161
284,172,38337,2,0,P|268:188|244:204,1,52.5000020027161
164,196,38637,2,0,P|168:144|148:96,1,105.000004005432
70,85,39087,1,0,0:0:0:0:
16,144,39237,6,0,P|57:269|188:271,1,280,0|0,0:0|1:0,0:0:0:0:
256,128,40137,1,4,0:0:0:0:
255,128,40437,6,0,P|290:123|324:130,1,70
296,203,40737,2,0,P|261:208|227:201,1,70,8|0,0:0|0:0,0:0:0:0:
148,176,41037,2,0,P|120:200|104:228,1,70
24,208,41337,2,0,P|20:168|24:136,1,70,8|0,0:0|0:0,0:0:0:0:
92,88,41637,6,0,L|128:80,2,35
148,176,41937,2,0,L|180:192,2,35
140,278,42237,2,0,L|156:309,4,35,0|0|0|0|4,0:0|0:0|0:0|0:0|2:0,0:0:0:0:
256,72,42837,6,0,P|288:64|324:64,1,70
320,148,43137,2,0,P|348:164|373:190,1,70,8|0,0:0|0:0,0:0:0:0:
311,246,43437,2,0,P|319:278|319:314,1,70
236,310,43737,2,0,P|219:338|193:363,1,70,8|0,0:0|0:0,0:0:0:0:
120,320,44037,6,0,L|96:292,2,35
160,220,44337,2,0,L|182:193,2,35
120,120,44637,2,0,L|97:93,4,35,0|0|0|0|4,0:0|0:0|0:0|0:0|2:0,0:0:0:0:
340,32,45237,6,0,P|376:44|404:60,1,70
344,120,45537,2,0,P|308:132|280:148,1,70,8|0,0:0|0:0,0:0:0:0:
340,208,45837,2,0,P|376:220|404:236,1,70
344,296,46137,2,0,P|308:308|280:324,1,70,8|0,0:0|0:0,0:0:0:0:
200,300,46437,6,0,L|172:276,2,35
228,200,46737,2,0,L|256:224,2,35
309,145,47037,2,0,L|282:122,4,35,0|0|0|0|4,0:0|0:0|0:0|0:0|2:0,0:0:0:0:
76,192,47637,6,0,P|64:156|60:124,1,70
164,68,47937,2,0,P|152:104|148:136,1,70,8|0,0:0|0:0,0:0:0:0:
256,192,48237,2,0,P|244:156|240:124,1,70
344,68,48537,2,0,P|332:104|328:136,1,70,8|0,0:0|0:0,0:0:0:0:
256,192,48837,12,4,50037,0:0:0:0:
256,48,52437,6,0,P|321:47|384:84,1,140,0|8,0:0|0:0,0:0:0:0:
256,192,53037,2,0,P|224:212|192:220,2,70,0|0|8,0:0|0:0|0:0,0:0:0:0:
313,129,53487,1,0,0:0:0:0:
384,84,53637,2,0,P|426:140|418:207,1,140,0|8,0:0|0:0,0:0:0:0:
336,208,54087,2,0,P|316:272|344:336,1,140
424,360,54537,1,8,0:0:0:0:
256,372,54837,6,0,P|188:336|156:284,1,140,0|8,0:0|0:0,0:0:0:0:
256,148,55437,2,0,P|272:116|280:80,2,70,0|0|8,0:0|0:0|0:0,0:0:0:0:
196,208,55887,1,0,0:0:0:0:
156,284,56037,2,0,P|224:296|284:264,1,140,0|8,0:0|0:0,0:0:0:0:
196,208,56487,2,0,P|172:148|204:84,1,140
288,68,56937,5,8,0:0:0:0:
364,104,57087,1,0,0:0:0:0:
383,184,57237,2,0,P|349:243|284:264,1,140,0|8,0:0|0:0,0:0:0:0:
156,132,57837,2,0,P|120:120|88:120,2,70,0|0|8,0:0|0:0|0:0,0:0:0:0:
196,208,58287,1,0,0:0:0:0:
272,244,58437,6,0,P|308:232|332:212,2,70,0|0|8,0:0|0:0|0:0,0:0:0:0:
264,160,58887,2,0,P|264:124|280:92,2,70
196,208,59337,2,0,P|131:223|68:192,1,140,8|0,0:0|0:0,0:0:0:0:
172,60,59937,5,8,0:0:0:0:
340,60,60237,2,0,P|388:112|396:180,1,140,0|8,0:0|0:0,0:0:0:0:
312,192,60687,1,0,0:0:0:0:
256,256,60837,2,0,P|288:320|348:344,1,140,0|8,0:0|0:0,0:0:0:0:
428,312,61287,2,0,P|435:244|480:192,1,140
452,112,61737,1,8,0:0:0:0:
376,76,61887,1,0,0:0:0:0:
296,104,62037,6,0,P|224:92|176:48,1,140,0|8,0:0|0:0,0:0:0:0:
24,124,62637,2,0,L|8:192,1,70
88,216,62937,2,0,L|104:148,1,70,8|0,0:0|0:0,0:0:0:0:
180,116,63237,2,0,P|247:125|285:181,1,140,0|8,0:0|0:0,0:0:0:0:
204,196,63687,2,0,P|167:253|186:318,1,140,0|0,0:0|0:0,0:0:0:0:
256,268,64137,1,8,0:0:0:0:
256,100,64437,6,0,P|311:59|380:64,1,140,0|8,0:0|0:0,0:0:0:0:
488,191,65037,2,0,P|477:225|457:254,1,70
372,256,65337,2,0,P|382:222|402:193,1,70,8|0,0:0|0:0,0:0:0:0:
356,124,65637,2,0,P|292:150|256:208,1,140,0|8,0:0|0:0,0:0:0:0:
172,224,66087,2,0,P|108:204|64:148,1,140
76,64,66537,1,8,0:0:0:0:
156,44,66687,1,0,0:0:0:0:
228,92,66837,6,0,P|292:128|356:124,1,140,0|8,0:0|0:0,0:0:0:0:
440,272,67437,2,0,L|404:332,1,70
320,332,67737,2,0,P|284:304|268:284,1,70,8|0,0:0|0:0,0:0:0:0:
256,200,68037,1,0,0:0:0:0:
180,160,68187,1,0,0:0:0:0:
104,192,68337,1,8,0:0:0:0:
24,168,68487,2,0,P|4:136|0:104,2,70
104,192,68937,1,8,0:0:0:0:
256,28,69237,6,0,P|324:36|376:84,1,140,0|8,0:0|0:0,0:0:0:0:
256,199,69837,2,0,P|227:179|200:156,1,70
144,220,70137,2,0,P|170:242|199:263,1,70,8|0,0:0|0:0,0:0:0:0:
284,280,70437,2,0,P|340:200|284:116,2,210
144,220,71637,6,0,P|136:184|140:152,1,70,4|0,0:0|0:0,0:0:0:0:
312,32,72387,1,0,0:0:0:0:
448,192,72837,2,0,P|403:210|348:204,2,105
452,52,74037,6,0,P|422:38|387:27,1,70
256,192,74787,1,0,0:0:0:0:
48,192,75237,2,0,P|28:244|40:292,2,105
180,104,76437,6,0,P|227:125|256:168,1,105.000004005432
108,352,77187,1,0,0:0:0:0:
32,128,77637,6,0,L|56:80,1,52.5000020027161
124,120,77937,2,0,L|160:80,1,52.5000020027161
208,144,78237,2,0,L|256:120,1,52.5000020027161
272,200,78537,2,0,L|324:200,1,52.5000020027161
380,256,78837,6,0,P|392:308|376:356,1,105.000004005432
136,356,79587,1,0,0:0:0:0:
160,120,80037,2,0,P|256:84|352:120,1,210.000008010865
256,324,81237,5,4,0:0:0:0:
92,284,81537,1,8,0:0:0:0:
208,163,81837,1,0,0:0:0:0:
92,284,82137,1,8,0:0:0:0:
256,324,82437,2,0,P|336:300|368:228,1,167.999994873047,0|8,0:0|0:0,0:0:0:0:
256,100,83037,1,0,0:0:0:0:
172,96,83187,1,0,0:0:0:0:
108,152,83337,1,8,0:0:0:0:
180,304,83637,6,0,P|256:334|332:304,1,167.999994873047
256,152,84237,1,0,0:0:0:0:
304,84,84387,1,0,0:0:0:0:
388,80,84537,1,0,0:0:0:0:
464,228,84837,2,0,P|414:292|332:304,1,167.999994873047
48,228,85437,2,0,P|98:292|180:304,1,167.999994873047
256,152,86037,5,4,0:0:0:0:
388,48,86337,1,8,0:0:0:0:
256,152,86637,1,0,0:0:0:0:
124,48,86937,1,8,0:0:0:0:
256,152,87237,2,0,P|201:208|116:212,1,167.999994873047,4|8,0:0|0:0,0:0:0:0:
4,84,87837,2,0,P|20:44|48:16,2,83.9999974365235,0|0|8,0:0|0:0|0:0,0:0:0:0:
116,212,88437,6,0,B|136:268|224:268|256:223|256:223|288:268|376:268|396:212,2,335.999989746094,4|4|4,0:0|0:0|0:0,0:0:0:0:
172,56,89937,1,0,0:0:0:0:
340,56,90237,2,0,P|368:92|380:128,1,83.9999974365235
296,148,90537,2,0,P|268:184|256:220,1,83.9999974365235
224,300,90837,6,0,P|144:260|112:192,1,167.999994873047,4|8,0:0|0:0,0:0:0:0:
280,192,91437,2,0,P|354:157|392:83,1,167.999994873047,0|8,0:0|0:0,0:0:0:0:
232,36,92037,2,0,B|180:36|160:72|140:108|84:108,1,167.999994873047,4|8,0:0|0:0,0:0:0:0:
44,272,92637,2,0,P|68:312|100:336,2,83.9999974365235,0|0|8,0:0|0:0|0:0,0:0:0:0:
192,192,93237,5,0,0:0:0:0:
360,216,93537,1,0,0:0:0:0:
256,348,93837,1,0,0:0:0:0:
176,320,93987,1,0,0:0:0:0:
132,248,94137,1,0,0:0:0:0:
380,136,94437,2,0,P|432:208|432:288,1,167.999994873047
132,136,95037,2,0,P|80:208|80:288,1,167.999994873047
256,192,95637,6,0,P|268:110|225:40,1,167.999994873047,4|8,0:0|0:0,0:0:0:0:
196,268,96237,2,0,P|280:280|348:236,1,167.999994873047,0|8,0:0|0:0,0:0:0:0:
340,60,96837,1,4,0:0:0:0:
172,60,97137,1,8,0:0:0:0:
64,192,97437,2,0,P|75:232|104:263,2,83.9999974365235,4|0|8,0:0|0:0|0:0,0:0:0:0:
256,84,98037,6,0,P|330:116|363:191,1,167.999994873047
256,300,98637,2,0,P|182:268|149:193,1,167.999994873047
256,192,99237,12,0,100437,0:0:0:0:
255,343,110037,6,0,P|197:309|187:242,1,140,4|8,0:0|0:0,0:0:0:0:
324,141,110637,2,0,P|314:74|256:40,1,140,0|8,0:0|0:0,0:0:0:0:
92,76,111237,2,0,L|76:144,1,70
120,216,111537,2,0,L|168:164,1,70,8|0,0:0|0:0,0:0:0:0:
220,228,111837,2,0,L|204:296,1,70
248,368,112137,2,0,L|296:316,1,70,8|0,0:0|0:0,0:0:0:0:
316,235,112437,6,0,P|297:170|238:136,1,140,0|8,0:0|0:0,0:0:0:0:
72,120,113037,2,0,P|90:54|149:20,1,140,0|8,0:0|0:0,0:0:0:0:
316,36,113637,2,0,L|384:56,1,70
344,132,113937,2,0,L|276:152,1,70,8|0,0:0|0:0,0:0:0:0:
316,228,114237,2,0,L|384:248,1,70
344,324,114537,2,0,L|276:344,1,70,8|0,0:0|0:0,0:0:0:0:
196,312,114837,6,0,P|152:260|156:192,1,140,0|8,0:0|0:0,0:0:0:0:
324,192,115437,2,0,P|368:140|364:72,1,140,0|8,0:0|0:0,0:0:0:0:
196,56,116037,2,0,P|160:64|128:72,1,70
172,144,116337,2,0,P|208:152|240:160,1,70,8|0,0:0|0:0,0:0:0:0:
196,232,116637,2,0,P|160:240|128:248,1,70
172,320,116937,2,0,P|208:328|240:336,1,70,8|0,0:0|0:0,0:0:0:0:
324,348,117237,6,0,P|384:292|396:236,2,140,0|8|0,0:0|0:0|0:0,0:0:0:0:
256,192,118137,1,8,0:0:0:0:
188,36,118437,2,0,P|128:92|116:148,2,140,0|8|0,0:0|0:0|0:0,0:0:0:0:
256,192,119337,1,8,0:0:0:0:
256,192,119637,1,0,0:0:0:0:
116,192,121437,6,0,P|128:132|184:72,2,140,4|8|0,0:0|0:0|0:0,0:0:0:0:
256,192,123237,1,8,0:0:0:0:
396,192,123837,6,0,P|384:252|328:312,2,140,0|8|0,0:0|0:0|0:0,0:0:0:0:
256,36,125637,1,8,0:0:0:0:
116,192,126237,6,0,B|116:232|136:256|160:284|160:324,2,140,0|8|0,0:0|0:0|0:0,0:0:0:0:
256,36,128037,1,8,0:0:0:0:
396,192,128637,6,0,B|396:232|376:256|352:284|352:324,2,140,0|8|0,0:0|0:0|0:0,0:0:0:0:
384,116,130137,1,8,0:0:0:0:
316,80,130437,1,8,0:0:0:0:
240,92,130737,1,8,0:0:0:0:
191,151,131037,6,0,P|119:139|71:95,2,140,0|8|0,0:0|0:0|0:0,0:0:0:0:
256,192,132537,2,0,P|264:224|264:260,2,70,0|8|0,0:0|0:0|0:0,0:0:0:0:
300,128,133437,6,0,P|368:160|400:216,2,140,0|8|0,0:0|0:0|0:0,0:0:0:0:
224,120,134937,1,0,0:0:0:0:
172,180,135237,2,0,P|132:196|104:200,1,70,8|0,0:0|0:0,0:0:0:0:
36,168,135837,6,0,P|60:96|108:56,1,140,0|8,0:0|0:0,0:0:0:0:
476,168,137037,2,0,P|452:96|404:56,1,140,0|8,0:0|0:0,0:0:0:0:
256,192,138237,12,4,140637,0:0:0:0:
256,356,150237,6,0,P|184:336|152:284,1,140,0|8,0:0|0:0,0:0:0:0:
256,168,150837,2,0,P|328:148|360:96,1,140,0|8,0:0|0:0,0:0:0:0:
304,40,151287,1,0,0:0:0:0:
228,48,151437,2,0,L|120:140,1,140,0|8,0:0|0:0,0:0:0:0:
52,104,151887,2,0,L|160:12,1,140
228,48,152337,6,0,P|265:112|256:184,2,149.799995428467,8|0|8,0:0|0:0|0:0,0:0:0:0:
76,84,153237,2,0,L|48:148,2,70,0|0|8,0:0|0:0|0:0,0:0:0:0:
140,128,153687,2,0,L|168:192,2,70
256,24,154287,1,0,0:0:0:0:
372,128,154587,5,0,0:0:0:0:
372,128,154737,2,0,P|362:209|304:256,2,159.599998051758,8|0|8,0:0|0:0|0:0,0:0:0:0:
256,48,155637,1,0,0:0:0:0:
140,128,155937,2,0,L|80:170,1,70,8|0,0:0|0:0,0:0:0:0:
117,232,156237,2,0,L|230:150,1,140,0|8,0:0|0:0,0:0:0:0:
280,204,156687,2,0,L|166:285,1,140
99,315,157137,6,0,P|35:255|48:180,2,169.399995218048,8|0|8,0:0|0:0|0:0,0:0:0:0:
160,172,158037,2,0,L|218:133,1,70
352,172,158337,2,0,L|293:133,1,70,8|0,0:0|0:0,0:0:0:0:
256,200,158637,1,0,0:0:0:0:
256,200,158787,2,0,P|308:256|368:268,2,140
292,132,159537,1,0,0:0:0:0:
368,120,159687,1,0,0:0:0:0:
428,168,159837,6,0,L|476:332,1,169.399995218048,0|8,0:0|0:0,0:0:0:0:
308,344,160437,1,0,0:0:0:0:
248,284,160587,1,0,0:0:0:0:
256,200,160737,2,0,P|288:168|324:152,1,84.6999976090241,8|0,0:0|0:0,0:0:0:0:
328,68,161037,2,0,P|246:86|183:142,1,169.399995218048,0|8,0:0|0:0,0:0:0:0:
104,176,161487,2,0,P|120:96|180:36,1,169.399995218048
248,88,161937,1,8,0:0:0:0:
264,296,162237,6,0,P|352:312|412:268,2,169.399995218048,0|8|0,0:0|0:0|0:0,0:0:0:0:
204,236,162987,1,0,0:0:0:0:
232,156,163137,2,0,P|268:132|308:120,1,84.6999976090241,8|0,0:0|0:0,0:0:0:0:
276,40,163437,2,0,P|196:72|140:132,1,169.399995218048,0|8,0:0|0:0,0:0:0:0:
96,204,163887,2,0,P|52:124|68:52,1,169.399995218048
148,20,164337,1,8,0:0:0:0:
216,72,164487,1,0,0:0:0:0:
232,156,164637,6,0,P|312:192|388:172,1,169.399995218048,0|8,0:0|0:0,0:0:0:0:
432,336,165237,2,0,P|392:352|352:348,1,84.6999976090241
268,336,165537,2,0,P|252:296|256:256,1,84.6999976090241,8|0,0:0|0:0,0:0:0:0:
180,220,165837,2,0,P|136:232|104:256,2,84.6999976090241,0|0|8,0:0|0:0|0:0,0:0:0:0:
136,148,166287,2,0,P|120:104|128:68,2,84.6999976090241
180,220,166737,6,0,P|272:216|316:160,2,169.399995218048,8|0|8,0:0|0:0|0:0,0:0:0:0:
56,104,167637,2,0,L|100:32,1,84.6999976090241
180,76,167937,2,0,L|136:148,1,84.6999976090241,8|0,0:0|0:0,0:0:0:0:
180,220,168237,6,0,P|272:216|316:160,1,169.399995218048,0|8,0:0|0:0,0:0:0:0:
380,100,168687,1,0,0:0:0:0:
464,112,168837,2,0,P|484:152|492:192,1,84.6999976090241
424,240,169137,2,0,L|384:224,3,42.3499988045121,8|0|0|0,0:0|0:0|0:0|0:0,0:0:0:0:
344,216,169437,6,0,P|276:256|256:340,1,169.399995218048,4|8,0:0|0:0,0:0:0:0:
88,348,170037,1,0,0:0:0:0:
40,280,170187,1,0,0:0:0:0:
56,196,170337,2,0,P|88:168|128:152,1,84.6999976090241,8|0,0:0|0:0,0:0:0:0:
132,236,170637,2,0,P|211:263|286:231,1,169.399995218048,0|8,0:0|0:0,0:0:0:0:
208,160,171087,2,0,P|223:78|289:28,1,169.399995218048,0|0,0:0|0:0,0:0:0:0:
308,132,171537,6,0,P|387:159|462:127,2,169.399995218048,8|4|8,0:0|0:0|0:0,0:0:0:0:
112,48,172437,2,0,L|52:107,1,84.6999976090241
112,168,172737,2,0,L|171:227,1,84.6999976090241,8|0,0:0|0:0,0:0:0:0:
256,228,173037,2,0,L|256:56,1,169.399995218048,0|8,0:0|0:0,0:0:0:0:
336,88,173487,2,0,L|336:260,1,169.399995218048,0|0,0:0|0:0,0:0:0:0:
288,328,173937,1,8,0:0:0:0:
204,328,174087,1,0,0:0:0:0:
136,276,174237,6,0,P|128:192|180:128,1,169.399995218048,4|8,0:0|0:0,0:0:0:0:
336,192,174837,1,0,0:0:0:0:
404,140,174987,1,0,0:0:0:0:
404,56,175137,2,0,P|356:28|328:24,1,84.6999976090241,8|0,0:0|0:0,0:0:0:0:
292,100,175437,2,0,P|256:124|216:132,2,84.6999976090241,4|0|8,0:0|0:0|0:0,0:0:0:0:
224,48,175887,2,0,P|188:24|148:16,2,84.6999976090241
216,132,176337,6,0,P|136:160|64:124,2,169.399995218048,8|4|8,0:0|0:0|0:0,0:0:0:0:
352,28,177237,2,0,L|432:60,1,84.6999976090241,4|0,0:0|0:0,0:0:0:0:
412,144,177537,2,0,L|332:112,1,84.6999976090241,8|0,0:0|0:0,0:0:0:0:
256,76,177837,6,0,L|172:104,1,87.5
232,164,178137,2,0,L|194:239,1,83.9999974365235,0|0,0:0|0:0,0:0:0:0:
277,243,178437,2,0,L|302:319,1,80.5000015354157,0|0,0:0|0:0,0:0:0:0:
364,267,178737,2,0,L|432:301,1,77.0000023498536,0|0,0:0|0:0,0:0:0:0:
492,248,179037,1,0,0:0:0:0:
