osu file format v12

[General]
AudioFilename: Infinite of nuclear fusion.mp3
AudioLeadIn: 1000
PreviewTime: 81251
Countdown: 0
SampleSet: Normal
StackLeniency: 0.7
Mode: 1
LetterboxInBreaks: 0
SkinPreference:taiko
WidescreenStoryboard: 0

[Editor]
Bookmarks: 2051,11651,30851,40451,52451,71651,102851,110051,121451,140651,150251,159851,179051
DistanceSpacing: 2
BeatDivisor: 1
GridSize: 4

[Metadata]
Title:Infinite of Nuclear Fusion
TitleUnicode:無限の太陽信仰
Artist:AU
ArtistUnicode:あう
Creator:OnosakiHito
Version:Futsuu
Source:Touhou
Tags:utsuho reiuji okuu IoNF unyuu Saten Saten-san Regou techno
BeatmapID:193669
BeatmapSetID:35211

[Difficulty]
HPDrainRate:4
CircleSize:5
OverallDifficulty:4
ApproachRate:5
SliderMultiplier:1.4
SliderTickRate:1

[Events]
//Background and Video events
0,0,"Taiko_BG.jpg",0,0
//Break Periods
//Storyboard Layer 0 (Background)
//Storyboard Layer 1 (Fail)
//Storyboard Layer 2 (Pass)
//Storyboard Layer 3 (Foreground)
//Storyboard Sound Samples
//Background Colour Transformations
3,100,163,162,255

[TimingPoints]
2037,300,4,1,0,100,1,0
81237,-100,4,1,0,100,0,1
102837,-100,4,1,0,100,0,0
119637,300,6,1,0,100,1,0
121437,300,4,1,0,100,1,0
159837,-100,4,1,0,100,0,1
179037,-100,4,1,0,100,0,0

[HitObjects]
256,192,2037,1,0,0:0:0:0:
256,192,2637,1,0,0:0:0:0:
256,192,3237,1,0,0:0:0:0:
256,192,3837,1,0,0:0:0:0:
256,192,4137,1,0,0:0:0:0:
256,192,4437,1,0,0:0:0:0:
256,192,5037,1,0,0:0:0:0:
256,192,5637,1,0,0:0:0:0:
256,192,6237,1,0,0:0:0:0:
256,192,6537,1,0,0:0:0:0:
256,192,6837,1,0,0:0:0:0:
256,192,7437,1,0,0:0:0:0:
256,192,8037,1,0,0:0:0:0:
256,192,8637,1,0,0:0:0:0:
256,192,8937,1,0,0:0:0:0:
256,192,9237,1,0,0:0:0:0:
256,192,9837,1,0,0:0:0:0:
256,192,10437,5,8,0:0:0:0:
256,192,10737,1,8,0:0:0:0:
256,192,11037,1,8,0:0:0:0:
256,192,11637,5,0,0:0:0:0:
256,192,11937,5,8,0:0:0:0:
256,192,12537,1,8,0:0:0:0:
256,192,13137,1,8,0:0:0:0:
256,192,13437,1,8,0:0:0:0:
256,192,13587,1,8,0:0:0:0:
256,192,13737,1,8,0:0:0:0:
256,192,14037,5,0,0:0:0:0:
256,192,14337,5,8,0:0:0:0:
256,192,14937,1,8,0:0:0:0:
256,192,15537,1,8,0:0:0:0:
256,192,15837,5,0,0:0:0:0:
256,192,16137,5,8,0:0:0:0:
256,192,16287,1,8,0:0:0:0:
256,192,16437,5,0,0:0:0:0:
256,192,16737,5,8,0:0:0:0:
256,192,17337,1,8,0:0:0:0:
256,192,17937,1,8,0:0:0:0:
256,192,18237,1,8,0:0:0:0:
256,192,18387,1,8,0:0:0:0:
256,192,18537,1,8,0:0:0:0:
256,192,18837,5,0,0:0:0:0:
256,192,19137,5,8,0:0:0:0:
256,192,19737,1,8,0:0:0:0:
256,192,20337,1,8,0:0:0:0:
256,192,20487,1,8,0:0:0:0:
256,192,20637,1,8,0:0:0:0:
256,192,20937,1,8,0:0:0:0:
256,192,21237,5,0,0:0:0:0:
256,192,21537,5,8,0:0:0:0:
256,192,22137,1,8,0:0:0:0:
256,192,22737,1,8,0:0:0:0:
256,192,23037,1,8,0:0:0:0:
256,192,23337,1,8,0:0:0:0:
256,192,23487,1,8,0:0:0:0:
256,192,23637,5,0,0:0:0:0:
256,192,23937,5,8,0:0:0:0:
256,192,24537,1,8,0:0:0:0:
256,192,25137,1,8,0:0:0:0:
256,192,25437,1,8,0:0:0:0:
256,192,25587,1,8,0:0:0:0:
256,192,25737,1,8,0:0:0:0:
256,192,25887,1,8,0:0:0:0:
256,192,26037,5,0,0:0:0:0:
256,192,26337,5,8,0:0:0:0:
256,192,26937,1,8,0:0:0:0:
256,192,27537,1,8,0:0:0:0:
256,192,27837,5,0,0:0:0:0:
256,192,28137,5,8,0:0:0:0:
256,192,28287,1,8,0:0:0:0:
256,192,28437,5,0,0:0:0:0:
256,192,28737,5,8,0:0:0:0:
256,192,29337,1,8,0:0:0:0:
256,192,29637,1,8,0:0:0:0:
256,192,29937,1,8,0:0:0:0:
256,192,30087,1,8,0:0:0:0:
256,192,30237,5,0,0:0:0:0:
256,192,30537,5,8,0:0:0:0:
256,192,30837,5,0,0:0:0:0:
256,192,31437,1,0,0:0:0:0:
256,192,32037,1,0,0:0:0:0:
256,192,32487,1,0,0:0:0:0:
256,192,32937,1,0,0:0:0:0:
256,192,33237,1,0,0:0:0:0:
256,192,34437,1,0,0:0:0:0:
256,192,34887,1,0,0:0:0:0:
256,192,35337,1,0,0:0:0:0:
256,192,35637,1,0,0:0:0:0:
256,192,36237,1,0,0:0:0:0:
256,192,36537,1,0,0:0:0:0:
256,192,36837,1,0,0:0:0:0:
256,192,37137,1,0,0:0:0:0:
256,192,37287,1,0,0:0:0:0:
256,192,37587,1,0,0:0:0:0:
256,192,37737,1,0,0:0:0:0:
256,192,38037,1,0,0:0:0:0:
256,192,38637,1,0,0:0:0:0:
256,192,39237,5,8,0:0:0:0:
256,192,39537,1,8,0:0:0:0:
256,192,39837,1,8,0:0:0:0:
256,192,40137,1,8,0:0:0:0:
256,192,40437,5,0,0:0:0:0:
256,192,40737,1,8,0:0:0:0:
256,192,41337,1,8,0:0:0:0:
256,192,41937,1,8,0:0:0:0:
256,192,42237,5,0,0:0:0:0:
256,192,42387,1,0,0:0:0:0:
256,192,42537,1,0,0:0:0:0:
256,192,42837,1,0,0:0:0:0:
256,192,43137,5,8,0:0:0:0:
256,192,43737,1,8,0:0:0:0:
256,192,44337,1,8,0:0:0:0:
256,192,44637,5,0,0:0:0:0:
256,192,44787,1,0,0:0:0:0:
256,192,44937,1,0,0:0:0:0:
256,192,45237,1,0,0:0:0:0:
256,192,45537,5,8,0:0:0:0:
256,192,46137,1,8,0:0:0:0:
256,192,46737,1,8,0:0:0:0:
256,192,47037,5,0,0:0:0:0:
256,192,47187,1,0,0:0:0:0:
256,192,47337,1,0,0:0:0:0:
256,192,47637,1,0,0:0:0:0:
256,192,47937,5,8,0:0:0:0:
256,192,48537,1,8,0:0:0:0:
256,192,48837,6,0,L|112:192|120:192,4,140
256,192,52437,1,0,0:0:0:0:
256,192,52737,1,0,0:0:0:0:
256,192,53037,5,8,0:0:0:0:
256,192,53637,5,0,0:0:0:0:
256,192,53937,5,8,0:0:0:0:
256,192,54087,5,0,0:0:0:0:
256,192,54387,1,0,0:0:0:0:
256,192,54537,5,8,0:0:0:0:
256,192,54837,5,0,0:0:0:0:
256,192,55137,1,0,0:0:0:0:
256,192,55437,5,8,0:0:0:0:
256,192,56337,5,0,0:0:0:0:
256,192,56637,5,8,0:0:0:0:
256,192,57237,5,0,0:0:0:0:
256,192,57537,1,0,0:0:0:0:
256,192,57837,5,8,0:0:0:0:
256,192,58737,5,0,0:0:0:0:
256,192,59037,5,8,0:0:0:0:
256,192,59187,1,8,0:0:0:0:
256,192,59337,1,8,0:0:0:0:
256,192,59637,5,0,0:0:0:0:
256,192,59937,1,0,0:0:0:0:
256,192,60237,5,8,0:0:0:0:
256,192,61137,5,0,0:0:0:0:
256,192,61437,5,8,0:0:0:0:
256,192,62037,5,0,0:0:0:0:
256,192,62337,1,0,0:0:0:0:
256,192,62637,5,8,0:0:0:0:
256,192,63237,5,0,0:0:0:0:
256,192,63537,5,8,0:0:0:0:
256,192,63687,5,0,0:0:0:0:
256,192,63987,1,0,0:0:0:0:
256,192,64137,5,8,0:0:0:0:
256,192,64437,5,0,0:0:0:0:
256,192,64737,1,0,0:0:0:0:
256,192,65037,5,8,0:0:0:0:
256,192,65937,5,0,0:0:0:0:
256,192,66087,1,0,0:0:0:0:
256,192,66237,5,8,0:0:0:0:
256,192,66837,5,0,0:0:0:0:
256,192,67137,1,0,0:0:0:0:
256,192,67437,5,8,0:0:0:0:
256,192,68037,5,0,0:0:0:0:
256,192,68337,5,8,0:0:0:0:
256,192,68637,5,0,0:0:0:0:
256,192,68937,5,8,0:0:0:0:
256,192,69237,5,4,0:0:0:0:
256,192,69837,1,4,0:0:0:0:
256,192,70437,2,0,L|112:192,3,140
256,192,71637,5,12,0:0:0:0:
256,192,71937,1,12,0:0:0:0:
256,192,72837,5,0,0:0:0:0:
256,192,73287,1,0,0:0:0:0:
256,192,73737,1,0,0:0:0:0:
256,192,74037,5,12,0:0:0:0:
256,192,74337,1,12,0:0:0:0:
256,192,75237,5,0,0:0:0:0:
256,192,75687,1,0,0:0:0:0:
256,192,76137,1,0,0:0:0:0:
256,192,76437,5,12,0:0:0:0:
256,192,76737,1,12,0:0:0:0:
256,192,77637,5,8,0:0:0:0:
256,192,77937,1,8,0:0:0:0:
256,192,78237,5,0,0:0:0:0:
256,192,78537,1,0,0:0:0:0:
256,192,78837,5,12,0:0:0:0:
256,192,79137,1,12,0:0:0:0:
256,192,80037,5,4,0:0:0:0:
256,192,80637,5,12,0:0:0:0:
256,192,81237,5,0,0:0:0:0:
256,192,81537,1,0,0:0:0:0:
256,192,81837,1,0,0:0:0:0:
256,192,82137,1,0,0:0:0:0:
256,192,82437,5,8,0:0:0:0:
256,192,82737,1,8,0:0:0:0:
256,192,83037,1,8,0:0:0:0:
256,192,83337,1,8,0:0:0:0:
256,192,83637,5,0,0:0:0:0:
256,192,84237,5,8,0:0:0:0:
256,192,84837,5,0,0:0:0:0:
256,192,85137,1,0,0:0:0:0:
256,192,85437,5,8,0:0:0:0:
256,192,86037,5,0,0:0:0:0:
256,192,86637,1,0,0:0:0:0:
256,192,87237,5,8,0:0:0:0:
256,192,87837,1,8,0:0:0:0:
256,192,88437,5,0,0:0:0:0:
256,192,88737,1,0,0:0:0:0:
256,192,89037,5,8,0:0:0:0:
256,192,89337,1,8,0:0:0:0:
256,192,89637,5,0,0:0:0:0:
256,192,90237,1,8,0:0:0:0:
256,192,90837,5,0,0:0:0:0:
256,192,91137,1,0,0:0:0:0:
256,192,91437,1,0,0:0:0:0:
256,192,91737,1,0,0:0:0:0:
256,192,92037,5,8,0:0:0:0:
256,192,92337,1,8,0:0:0:0:
256,192,92637,1,8,0:0:0:0:
256,192,92937,1,8,0:0:0:0:
256,192,93237,5,0,0:0:0:0:
256,192,93837,5,8,0:0:0:0:
256,192,94437,5,0,0:0:0:0:
256,192,94737,1,0,0:0:0:0:
256,192,95037,5,8,0:0:0:0:
256,192,95337,1,8,0:0:0:0:
256,192,95637,5,0,0:0:0:0:
256,192,96237,1,0,0:0:0:0:
256,192,96837,5,8,0:0:0:0:
256,192,97437,1,8,0:0:0:0:
256,192,98037,5,0,0:0:0:0:
256,192,98337,1,0,0:0:0:0:
256,192,98637,1,0,0:0:0:0:
256,192,99237,1,4,0:0:0:0:
256,192,99837,1,4,0:0:0:0:
256,192,100437,12,0,102837,0:0:0:0:
256,192,103437,5,8,0:0:0:0:
256,192,104037,1,8,0:0:0:0:
256,192,104337,1,8,0:0:0:0:
256,192,104487,1,8,0:0:0:0:
256,192,104787,1,8,0:0:0:0:
256,192,104937,1,8,0:0:0:0:
256,192,105237,1,8,0:0:0:0:
256,192,106437,5,0,0:0:0:0:
256,192,106737,1,0,0:0:0:0:
256,192,106887,1,0,0:0:0:0:
256,192,107187,1,0,0:0:0:0:
256,192,107337,1,0,0:0:0:0:
256,192,107637,1,0,0:0:0:0:
256,192,108237,1,0,0:0:0:0:
256,192,108837,5,8,0:0:0:0:
256,192,108987,1,8,0:0:0:0:
256,192,109137,1,8,0:0:0:0:
256,192,109287,1,8,0:0:0:0:
256,192,109437,5,0,0:0:0:0:
256,192,109737,5,8,0:0:0:0:
256,192,110037,5,0,0:0:0:0:
256,192,110337,5,8,0:0:0:0:
256,192,110937,1,8,0:0:0:0:
256,192,111537,1,8,0:0:0:0:
256,192,111837,1,8,0:0:0:0:
256,192,112137,1,8,0:0:0:0:
256,192,112437,5,0,0:0:0:0:
256,192,112737,5,8,0:0:0:0:
256,192,113337,1,8,0:0:0:0:
256,192,113937,1,8,0:0:0:0:
256,192,114237,5,0,0:0:0:0:
256,192,114537,5,8,0:0:0:0:
256,192,114837,5,0,0:0:0:0:
256,192,115137,5,8,0:0:0:0:
256,192,115737,1,8,0:0:0:0:
256,192,116337,1,8,0:0:0:0:
256,192,116637,1,8,0:0:0:0:
256,192,116937,1,8,0:0:0:0:
256,192,117237,5,0,0:0:0:0:
256,192,117537,5,8,0:0:0:0:
256,192,118137,1,8,0:0:0:0:
256,192,118737,1,8,0:0:0:0:
256,192,119037,5,0,0:0:0:0:
256,192,119187,1,0,0:0:0:0:
256,192,119337,1,0,0:0:0:0:
256,192,119637,5,12,0:0:0:0:
256,192,121437,5,0,0:0:0:0:
256,192,122037,5,8,0:0:0:0:
256,192,122937,5,0,0:0:0:0:
256,192,123237,5,8,0:0:0:0:
256,192,123837,5,0,0:0:0:0:
256,192,124437,5,8,0:0:0:0:
256,192,125337,5,0,0:0:0:0:
256,192,125637,5,8,0:0:0:0:
256,192,126237,5,0,0:0:0:0:
256,192,126837,5,8,0:0:0:0:
256,192,127737,5,0,0:0:0:0:
256,192,128037,5,8,0:0:0:0:
256,192,128637,5,0,0:0:0:0:
256,192,129237,5,8,0:0:0:0:
256,192,129537,5,0,0:0:0:0:
256,192,129687,1,0,0:0:0:0:
256,192,129837,1,0,0:0:0:0:
256,192,130137,5,8,0:0:0:0:
256,192,130437,1,8,0:0:0:0:
256,192,130587,1,8,0:0:0:0:
256,192,130737,1,8,0:0:0:0:
256,192,131037,5,0,0:0:0:0:
256,192,131637,5,8,0:0:0:0:
256,192,132537,5,0,0:0:0:0:
256,192,132837,5,8,0:0:0:0:
256,192,133437,5,0,0:0:0:0:
256,192,134037,5,8,0:0:0:0:
256,192,134937,5,0,0:0:0:0:
256,192,135237,5,8,0:0:0:0:
256,192,135837,5,0,0:0:0:0:
256,192,136437,5,8,0:0:0:0:
256,192,137337,5,0,0:0:0:0:
256,192,137637,5,8,0:0:0:0:
256,192,138237,5,0,0:0:0:0:
256,192,138537,1,0,0:0:0:0:
256,192,138837,1,0,0:0:0:0:
256,192,139137,1,0,0:0:0:0:
256,192,139437,2,0,P|116:191|115:191,4,140
256,192,141837,1,0,0:0:0:0:
256,192,142737,1,0,0:0:0:0:
256,192,143037,5,0,0:0:0:0:
256,192,144237,1,0,0:0:0:0:
256,192,145437,5,0,0:0:0:0:
256,192,146637,1,0,0:0:0:0:
256,192,147537,1,0,0:0:0:0:
256,192,147837,1,0,0:0:0:0:
256,192,149037,1,0,0:0:0:0:
256,192,149337,5,8,0:0:0:0:
256,192,149487,1,0,0:0:0:0:
256,192,149937,5,8,0:0:0:0:
256,192,150237,5,0,0:0:0:0:
256,192,150537,5,8,0:0:0:0:
256,192,150837,5,0,0:0:0:0:
256,192,151137,5,8,0:0:0:0:
256,192,151437,5,0,0:0:0:0:
256,192,152037,1,0,0:0:0:0:
256,192,152337,5,12,0:0:0:0:
256,192,152637,1,0,0:0:0:0:
256,192,152937,5,8,0:0:0:0:
256,192,153237,5,0,0:0:0:0:
256,192,153537,5,8,0:0:0:0:
256,192,153837,5,0,0:0:0:0:
256,192,154437,1,0,0:0:0:0:
256,192,154737,5,12,0:0:0:0:
256,192,155037,5,0,0:0:0:0:
256,192,155337,5,8,0:0:0:0:
256,192,155637,5,0,0:0:0:0:
256,192,155937,5,8,0:0:0:0:
256,192,156237,5,0,0:0:0:0:
256,192,156837,1,0,0:0:0:0:
256,192,157137,5,12,0:0:0:0:
256,192,157437,5,0,0:0:0:0:
256,192,157737,1,0,0:0:0:0:
256,192,158037,1,0,0:0:0:0:
256,192,158637,1,0,0:0:0:0:
256,192,158787,1,0,0:0:0:0:
256,192,159087,1,0,0:0:0:0:
256,192,159537,5,8,0:0:0:0:
256,192,159837,5,0,0:0:0:0:
256,192,160137,1,0,0:0:0:0:
256,192,160437,5,8,0:0:0:0:
256,192,160737,1,8,0:0:0:0:
256,192,161037,5,0,0:0:0:0:
256,192,161337,5,8,0:0:0:0:
256,192,161487,1,8,0:0:0:0:
256,192,161937,5,0,0:0:0:0:
256,192,162237,5,8,0:0:0:0:
256,192,162537,1,8,0:0:0:0:
256,192,162837,5,0,0:0:0:0:
256,192,163137,1,0,0:0:0:0:
256,192,163437,5,8,0:0:0:0:
256,192,163737,5,0,0:0:0:0:
256,192,163887,1,0,0:0:0:0:
256,192,164337,5,8,0:0:0:0:
256,192,164637,5,0,0:0:0:0:
256,192,164937,1,0,0:0:0:0:
256,192,165237,5,8,0:0:0:0:
256,192,165837,5,0,0:0:0:0:
256,192,166437,5,8,0:0:0:0:
256,192,167037,5,0,0:0:0:0:
256,192,167337,1,0,0:0:0:0:
256,192,167637,5,8,0:0:0:0:
256,192,167937,1,8,0:0:0:0:
256,192,168237,5,0,0:0:0:0:
256,192,168537,5,8,0:0:0:0:
256,192,168687,1,8,0:0:0:0:
256,192,169137,5,0,0:0:0:0:
256,192,169437,5,8,0:0:0:0:
256,192,169737,1,8,0:0:0:0:
256,192,170037,5,0,0:0:0:0:
256,192,170337,1,0,0:0:0:0:
256,192,170637,5,8,0:0:0:0:
256,192,170937,5,0,0:0:0:0:
256,192,171087,1,0,0:0:0:0:
256,192,171537,5,8,0:0:0:0:
256,192,171837,5,0,0:0:0:0:
256,192,172137,1,0,0:0:0:0:
256,192,172437,5,8,0:0:0:0:
256,192,172737,1,8,0:0:0:0:
256,192,173037,5,0,0:0:0:0:
256,192,173637,5,8,0:0:0:0:
256,192,174237,5,0,0:0:0:0:
256,192,174537,1,0,0:0:0:0:
256,192,174837,5,8,0:0:0:0:
256,192,175437,5,0,0:0:0:0:
256,192,175587,1,0,0:0:0:0:
256,192,175737,1,0,0:0:0:0:
256,192,176037,5,8,0:0:0:0:
256,192,176637,5,0,0:0:0:0:
256,192,176937,1,0,0:0:0:0:
256,192,177237,5,8,0:0:0:0:
256,192,177537,5,8,0:0:0:0:
256,192,177837,6,0,L|114:192,4,140
