osu file format v14

[General]
AudioFilename: Nightcore - Lay All Your Love on Me (ATeens).mp3
AudioLeadIn: 0
PreviewTime: -1
Countdown: 1
SampleSet: None
StackLeniency: 0.7
Mode: 0
LetterboxInBreaks: 1
WidescreenStoryboard: 1

[Editor]
DistanceSpacing: 0.9
BeatDivisor: 4
GridSize: 4
TimelineZoom: 2.4

[Metadata]
Title:Lay All Your Love On Me (Nightcore Mix)
TitleUnicode:Lay All Your Love On Me (Nightcore Mix)
Artist:A*Teens
ArtistUnicode:A*Teens
Creator:AlienGo
Version:EZ
Source:Mamma-Mia!
Tags:Mamma-Mia! A*Teens ABBA Nightcore Speed up
BeatmapID:935528
BeatmapSetID:432315

[Difficulty]
HPDrainRate:3
CircleSize:3
OverallDifficulty:2
ApproachRate:4
SliderMultiplier:0.8
SliderTickRate:2

[Events]
//Background and Video events
0,0,"nisekoi__yui_kanekura__by_ssjraging-d8c5k35.jpg",0,0
//Break Periods
2,23917,27826
2,76166,90931
2,125022,133681
//Storyboard Layer 0 (Background)
//Storyboard Layer 1 (Fail)
//Storyboard Layer 2 (Pass)
//Storyboard Layer 3 (Foreground)
//Storyboard Sound Samples

[TimingPoints]
646.912371625061,339.278033191172,4,3,2,100,1,0
34479,-100,4,3,2,5,0,0
34563,-100,4,3,2,100,0,0
34817,-100,4,3,2,5,0,0
34901,-100,4,3,2,100,0,0
35155,-100,4,3,2,5,0,0
35239,-100,4,3,2,100,0,0
35493,-100,4,3,2,5,0,0
35577,-100,4,3,2,100,0,0
35831,-100,4,3,2,5,0,0
35915,-100,4,3,2,100,0,0
40663,-100,4,3,2,5,0,0
41341,-100,4,3,2,100,0,0
42612,-100,4,3,2,5,0,0
42696,-100,4,3,2,100,0,0
42950,-100,4,3,2,5,0,0
43034,-100,4,3,2,100,0,0
43288,-100,4,3,2,5,0,0
43372,-100,4,3,2,100,0,0
43626,-100,4,3,2,5,0,0
43710,-100,4,3,2,100,0,0
43964,-100,4,3,2,5,0,0
44048,-100,4,3,2,100,0,0
58971,-66.6666666666667,4,3,2,100,0,0
66263,-66.6666666666667,4,3,2,5,0,0
66432,-66.6666666666667,4,3,2,100,0,0
66940,-66.6666666666667,4,3,2,5,0,0
67109,-66.6666666666667,4,3,2,100,0,0
73894,-83.3333333333334,4,3,2,100,0,0
77456,-83.3333333333333,4,3,2,5,0,0
77964,-100,4,3,2,100,0,0
87715,-100,4,3,2,5,0,0
87799,-100,4,3,2,100,0,0
88053,-100,4,3,2,5,0,0
88137,-100,4,3,2,100,0,0
88391,-100,4,3,2,5,0,0
88475,-100,4,3,2,100,0,0
88729,-100,4,3,2,5,0,0
88813,-100,4,3,2,100,0,0
96953,-76.9230769230769,4,3,2,100,0,0
103736,-62.5,4,3,2,100,0,0
125465,-58.8235294117647,4,3,2,100,0,0
132508,-58.8235294117647,4,3,2,5,0,0
132592,-58.8235294117647,4,3,2,100,0,0
132846,-58.8235294117647,4,3,2,5,0,0
132930,-58.8235294117647,4,3,2,100,0,0
133184,-58.8235294117647,4,3,2,5,0,0
133268,-58.8235294117647,4,3,2,100,0,0
139041,-66.6666666666667,4,3,2,100,0,0
148572,-62.5,4,3,2,100,0,0
171897,-62.5,4,3,2,5,0,0
171982,-62.5,4,3,2,100,0,0
172236,-62.5,4,3,2,5,0,0
172321,-62.5,4,3,2,100,0,0
172576,-62.5,4,3,2,5,0,0
172660,-62.5,4,3,2,100,0,0
172915,-62.5,4,3,2,5,0,0
173000,-62.5,4,3,2,100,0,0

[HitObjects]
28,140,646,6,0,P|80:76|312:80,1,320
240,176,2682,1,0,0:0:0:0:
448,200,3361,2,0,P|440:268|212:308,1,340
292,188,5396,1,0,0:0:0:0:
148,76,6075,2,0,B|116:112|144:224|152:244,1,160
304,76,7432,2,0,P|340:112|352:228,1,160
256,192,8789,12,0,13539,0:0:0:0:
128,128,14218,6,0,B|144:180|168:208|256:224,1,160
324,324,15575,2,0,P|408:284|420:212,1,160
272,96,16932,2,0,P|220:76|132:124,1,160
112,308,17950,1,0,0:0:0:0:
232,304,18289,2,0,P|320:300|340:232,1,160
312,72,19307,1,0,0:0:0:0:
432,56,19646,2,0,B|460:104|440:220|424:208,1,160
344,328,20664,1,0,0:0:0:0:
184,296,21003,2,0,P|268:236|292:176,1,160
256,192,22360,12,0,23717,0:0:0:0:
256,192,29146,12,0,30164,0:0:0:0:
252,196,30503,6,0,P|216:172|220:64,1,160
356,104,31860,2,0,B|396:148|376:256|372:260,1,160
132,56,33217,2,0,B|92:152|92:152|132:208,1,160
220,56,34574,2,0,P|320:136|328:176,1,160
128,192,35931,2,0,B|192:120|192:120|260:144,1,160
312,76,38646,2,0,B|364:136|364:136|320:216,1,160
232,160,40003,2,0,B|192:204|192:204|236:304,1,160
156,112,41360,2,0,B|228:112|228:112|316:156,1,160
192,96,42717,2,0,L|260:140,3,80
168,176,44074,2,0,L|208:196,2,40
228,80,46788,2,0,P|316:72|360:124,2,160
124,216,48824,2,0,P|168:268|264:256,1,160
208,100,50181,2,0,B|288:112|288:112|344:188,2,160
308,56,52217,2,0,L|360:168,1,120
240,140,53574,6,0,L|184:252,1,120
256,192,54931,12,0,57645,0:0:0:0:
164,108,59002,5,0,0:0:0:0:
432,96,59681,1,0,0:0:0:0:
360,116,60359,2,0,B|400:204|404:204|340:344,1,240.000009155274
144,104,61716,2,0,B|264:168|264:168|352:108,1,240.000009155274
256,192,63074,12,0,64091,0:0:0:0:
148,204,64431,6,0,P|168:116|300:92,1,240.000009155274
352,96,65449,1,0,0:0:0:0:
136,224,65788,2,0,P|220:116|332:112,1,240.000009155274
100,260,67145,2,0,B|76:148|76:148|248:172|248:172|412:52,1,480.000018310548
416,172,69181,2,0,P|440:256|320:332,1,240.000009155274
256,192,72573,12,0,74609,0:0:0:0:
100,244,75288,6,0,P|112:172|220:100,1,191.999994140625
256,192,92251,12,0,93609,0:0:0:0:
228,180,94287,5,0,0:0:0:0:
256,192,94966,12,0,96323,0:0:0:0:
116,208,97001,6,0,B|140:156|140:156|296:112,1,207.999990478516
444,148,98358,2,0,B|424:232|424:232|288:264,1,207.999990478516
252,176,99716,1,0,0:0:0:0:
256,192,100394,12,0,102430,0:0:0:0:
180,248,103787,6,0,B|136:144|136:144|264:68,1,256
372,104,105144,2,0,B|476:156|472:156|392:316,1,256
256,192,106501,12,0,107858,0:0:0:0:
232,184,108537,5,0,0:0:0:0:
264,296,109215,2,0,B|152:272|152:272|160:104,1,256
168,52,110233,1,0,0:0:0:0:
324,80,110572,2,0,P|400:128|384:296,1,256
256,192,111930,12,0,113287,0:0:0:0:
248,200,113965,5,0,0:0:0:0:
224,256,114644,2,0,P|124:224|124:80,1,256
164,136,116001,2,0,P|280:168|264:288,1,256
176,276,117358,2,0,P|128:168|228:104,1,256
256,192,118715,12,0,119733,0:0:0:0:
176,108,120072,6,0,P|300:80|416:136,1,256
308,184,121090,1,0,0:0:0:0:
456,164,121429,2,0,B|392:224|284:196|284:196|236:264,1,256
256,192,122787,12,0,124822,0:0:0:0:
256,192,135001,12,0,137375,0:0:0:0:
256,192,137715,6,0,B|148:128|148:128|288:60|288:60|304:60,2,272.000005187988
252,192,139750,1,0,0:0:0:0:
252,192,140090,1,0,0:0:0:0:
256,192,140429,12,0,141447,0:0:0:0:
256,192,141786,12,0,142804,0:0:0:0:
172,180,143143,6,0,B|248:124|248:124|388:184,1,240.000009155274
472,216,144161,1,0,0:0:0:0:
344,280,144500,2,0,B|192:308|192:308|108:244,2,240.000009155274
264,192,146536,1,0,0:0:0:0:
200,132,147215,2,0,B|280:88|280:88|328:104,3,120.000004577637
392,68,148572,2,0,B|476:152|476:152|460:296,1,256
392,280,149929,2,0,L|252:260,2,128
488,284,150947,1,0,0:0:0:0:
480,200,151286,2,0,P|396:112|256:100,1,256
256,192,152643,12,0,153661,0:0:0:0:
144,244,154000,6,0,B|116:168|116:168|264:68,1,256
348,60,155018,1,0,0:0:0:0:
368,128,155357,2,0,B|232:212|232:212|304:312,2,256
240,96,159429,2,0,B|136:164|136:164|152:296,1,256
168,196,160786,2,0,B|128:124|128:124|176:88,2,128
212,204,161803,1,0,0:0:0:0:
232,296,162143,2,0,B|336:280|336:280|384:136,2,256
284,164,164178,1,0,0:0:0:0:
140,280,164857,2,0,B|156:192|156:192|336:132,1,256
360,88,165875,1,0,0:0:0:0:
416,136,166214,2,0,B|480:216|480:216|392:352,1,256
256,192,167571,12,0,168928,0:0:0:0:
188,100,170285,6,0,B|120:228|120:228|216:324,1,256
200,168,171643,2,0,B|180:256|180:256|240:284,1,128
264,296,172321,2,0,L|304:168,1,128
320,88,173000,2,0,B|188:56|188:56|160:184,2,256
324,184,175035,1,0,0:0:0:0:
408,280,175714,2,0,B|260:284|260:284|176:192,1,256
136,56,176732,1,0,0:0:0:0:
120,152,177071,2,0,B|108:236|108:236|280:296,1,256
256,192,178428,12,0,181142,0:0:0:0:
