osu file format v9

[General]
AudioFilename: A-Teens - Gimme! Gimme! Gimme! (Nightcore Mix).mp3
AudioLeadIn: 0
PreviewTime: 51204
Countdown: 0
SampleSet: Normal
StackLeniency: 0.7
Mode: 1
LetterboxInBreaks: 1

[Editor]
Bookmarks: 29052,77788,91079,141292
DistanceSpacing: 0
BeatDivisor: 2
GridSize: 8

[Metadata]
Title:Gimme! Gimme! Gimme! (Nightcore Mix)
Artist:A*Teens
Creator:ShadowSoul
Version:Gimme! Taiko
Source:
Tags:CDFA spboxer3 ABBA

[Difficulty]
HPDrainRate:6
CircleSize:5
OverallDifficulty:6
ApproachRate:5
SliderMultiplier:1.5
SliderTickRate:2

[Events]
//Background and Video events
0,0,"Taiko BG.jpg"
//Break Periods
//Storyboard Layer 0 (Background)
//Storyboard Layer 1 (Fail)
//Storyboard Layer 2 (Pass)
//Storyboard Layer 3 (Foreground)
//Storyboard Sound Samples
//Background Colour Transformations
3,100,163,162,255

[TimingPoints]
1001,369.208048735462,4,1,1,50,1,0
51213,-100,4,1,1,50,0,1
63027,-100,4,1,1,50,0,0
99948,-100,4,1,1,50,0,1
123578,-100,4,1,1,50,0,0
149607,-96.1538461538461,4,1,1,50,0,0
149791,-92.5925925925926,4,1,1,50,0,0
149976,-89.2857142857143,4,1,1,50,0,0
150161,-86.9565217391304,4,1,1,50,0,1
173051,-86.9565217391304,4,1,1,50,0,0

[Colours]
Combo1 : 0,128,255
Combo2 : 255,128,128
Combo3 : 0,128,255
Combo4 : 255,128,128

[HitObjects]
256,192,6169,1,0
256,192,6354,1,0
256,192,6539,5,8
256,192,6816,1,8
256,192,6908,5,0
256,192,7092,1,0
256,192,7277,5,8
256,192,7554,1,8
256,192,7646,5,0
256,192,7831,1,0
256,192,8015,5,8
256,192,8292,1,8
256,192,8385,5,0
256,192,8569,1,0
256,192,8754,5,8
256,192,8938,1,8
256,192,9123,5,4
256,192,9492,5,8
256,192,9585,1,8
256,192,9677,1,8
256,192,9861,5,4
256,192,10231,5,8
256,192,10323,1,8
256,192,10415,1,8
256,192,10600,5,4
256,192,10785,1,4
256,192,10969,1,4
256,192,11154,1,4
256,192,11338,5,8
256,192,11431,1,8
256,192,11523,1,8
256,192,11615,1,8
256,192,11708,5,0
256,192,11800,1,0
256,192,11892,5,8
256,192,12077,5,4
256,192,12815,12,0,13923
256,192,14292,21,0
256,192,14477,1,0
256,192,14661,5,8
256,192,14846,5,8
256,192,14938,1,8
256,192,15030,5,0
256,192,15215,1,0
256,192,15400,5,8
256,192,15584,5,0
256,192,15769,5,0
256,192,15953,1,0
256,192,16046,1,0
256,192,16138,5,8
256,192,16323,1,8
256,192,16507,5,0
256,192,16692,1,0
256,192,16784,1,0
256,192,16876,5,8
256,192,16969,5,0
256,192,17061,1,0
256,192,17153,5,8
256,192,17246,5,0
256,192,17430,1,0
256,192,17615,5,8
256,192,17799,5,0
256,192,17892,1,0
256,192,17984,5,8
256,192,18169,5,0
256,192,18353,5,8
256,192,18538,1,8
256,192,18630,1,8
256,192,18722,5,0
256,192,18907,1,0
256,192,19092,5,8
256,192,19276,5,0
256,192,19461,1,0
256,192,19553,1,0
256,192,19646,1,0
256,192,19830,5,8
256,192,20015,1,8
256,192,20107,1,8
256,192,20199,5,0
256,192,20384,1,0
256,192,20569,5,8
256,192,20753,5,0
256,192,20938,1,0
256,192,21122,1,8
256,192,21215,1,8
256,192,21307,5,0
256,192,21492,1,0
256,192,21676,5,0
256,192,21768,1,0
256,192,21861,5,8
256,192,21953,1,8
256,192,22045,1,8
256,192,22230,5,0
256,192,22322,1,0
256,192,22415,5,8
256,192,22599,1,8
256,192,22784,5,0
256,192,22968,1,0
256,192,23061,1,0
256,192,23153,5,8
256,192,23338,5,0
256,192,23522,5,8
256,192,23707,5,0
256,192,23891,1,0
256,192,24076,1,0
256,192,24168,1,0
256,192,24261,5,8
256,192,24445,5,0
256,192,24630,1,4
256,192,24814,1,0
256,192,24999,5,12
256,192,25184,5,0
256,192,25368,1,4
256,192,25553,1,0
256,192,25737,5,12
256,192,25922,5,0
256,192,26107,1,4
256,192,26291,5,12
256,192,26476,5,4
256,192,26660,5,12
256,192,26845,5,4
256,192,27030,1,4
256,192,27214,5,8
256,192,27307,1,8
256,192,27399,1,8
256,192,27583,5,4
256,192,27953,5,8
256,192,28230,1,8
256,192,28322,5,0
256,192,28506,1,0
256,192,28691,5,8
256,192,28876,1,0
256,192,28968,1,8
256,192,29060,5,0
256,192,29245,1,0
256,192,29430,5,8
256,192,29614,5,0
256,192,29706,1,0
256,192,29983,5,8
256,192,30168,5,0
256,192,30260,1,0
256,192,30353,5,8
256,192,30445,5,0
256,192,30537,5,8
256,192,30722,5,0
256,192,30906,5,8
256,192,31091,5,0
256,192,31183,1,0
256,192,31276,1,0
256,192,31460,5,8
256,192,31645,5,0
256,192,31737,1,0
256,192,31829,5,8
256,192,32014,1,8
256,192,32199,5,0
256,192,32383,5,8
256,192,32568,5,0
256,192,32660,1,0
256,192,32752,5,8
256,192,32937,1,8
256,192,33122,5,0
256,192,33214,1,0
256,192,33306,5,8
256,192,33491,1,8
256,192,33675,5,0
256,192,33860,5,8
256,192,34045,5,0
256,192,34137,1,0
256,192,34322,1,0
256,192,34414,5,8
256,192,34598,1,8
256,192,34783,5,0
256,192,34875,1,0
256,192,34968,5,8
256,192,35152,5,0
256,192,35337,5,8
256,192,35521,1,8
256,192,35614,1,8
256,192,35706,5,0
256,192,35891,1,0
256,192,35983,1,0
256,192,36075,5,8
256,192,36260,1,8
256,192,36352,1,0
256,192,36444,5,0
256,192,36629,1,0
256,192,36814,5,8
256,192,36998,5,0
256,192,37091,1,0
256,192,37367,5,8
256,192,37552,5,0
256,192,37644,1,0
256,192,37737,5,8
256,192,37829,5,0
256,192,37921,5,8
256,192,38106,5,0
256,192,38291,5,8
256,192,38475,5,0
256,192,38567,1,0
256,192,38660,1,0
256,192,38844,5,8
256,192,39029,5,0
256,192,39121,1,0
256,192,39214,5,8
256,192,39398,1,8
256,192,39583,5,0
256,192,39767,5,8
256,192,39952,5,0
256,192,40044,1,0
256,192,40137,5,8
256,192,40321,1,8
256,192,40506,5,0
256,192,40598,1,0
256,192,40690,5,8
256,192,40875,5,0
256,192,40967,1,0
256,192,41060,5,8
256,192,41152,1,8
256,192,41244,5,0
256,192,41336,1,0
256,192,41429,5,8
256,192,41521,1,8
256,192,41613,1,8
256,192,41798,5,0
256,192,41983,5,8
256,192,42075,1,0
256,192,42167,5,0
256,192,42259,1,0
256,192,42352,5,8
256,192,42536,5,0
256,192,42721,5,8
256,192,42906,1,8
256,192,42998,1,8
256,192,43090,5,0
256,192,43367,5,8
256,192,43644,1,8
256,192,43829,5,0
256,192,44013,1,0
256,192,44198,5,8
256,192,44382,5,0
256,192,44475,1,0
256,192,44567,1,0
256,192,44752,5,8
256,192,44936,1,8
256,192,45121,1,8
256,192,45213,1,8
256,192,45305,5,8
256,192,45490,1,0
256,192,45675,5,8
256,192,45859,5,0
256,192,46044,1,0
256,192,46321,5,8
256,192,46598,1,8
256,192,46782,5,8
256,192,46967,1,0
256,192,47152,5,8
256,192,47336,5,0
256,192,47428,1,0
256,192,47521,5,8
256,192,47705,5,0
256,192,47890,5,8
256,192,47982,1,8
256,192,48075,5,0
256,192,48259,1,0
256,192,48351,1,0
256,192,48444,5,8
256,192,48536,1,8
256,192,48628,5,0
256,192,48721,1,0
256,192,48813,5,8
256,192,48905,1,8
256,192,48998,5,0
256,192,49090,1,0
256,192,49182,5,8
256,192,49274,1,8
256,192,49367,5,0
256,192,49459,5,8
256,192,49551,5,0
256,192,49736,5,12
256,192,49921,5,4
256,192,50105,5,12
256,192,50290,5,4
256,192,50474,5,12
256,192,51213,5,0
256,192,51397,5,8
256,192,51582,5,0
256,192,51767,5,8
256,192,51859,1,8
256,192,51951,5,0
256,192,52136,1,0
256,192,52320,5,8
256,192,52505,1,8
256,192,52874,1,8
256,192,52967,5,0
256,192,53059,1,0
256,192,53243,5,8
256,192,53613,5,0
256,192,53705,1,0
256,192,53797,1,0
256,192,53982,5,8
256,192,54166,5,0
256,192,54351,1,0
256,192,54443,1,0
256,192,54536,5,8
256,192,54720,1,8
256,192,54813,1,8
256,192,54905,5,0
256,192,55089,1,0
256,192,55274,5,8
256,192,55459,5,0
256,192,55643,5,8
256,192,55828,5,0
256,192,55920,1,0
256,192,56012,5,8
256,192,56197,5,0
256,192,56382,1,0
256,192,56474,1,0
256,192,56566,5,8
256,192,56659,5,0
256,192,56751,5,8
256,192,56843,1,8
256,192,56936,5,0
256,192,57028,5,8
256,192,57120,5,0
256,192,57305,5,8
256,192,57489,5,0
256,192,57674,5,8
256,192,57766,1,8
256,192,57859,5,0
256,192,58043,1,0
256,192,58228,5,8
256,192,58412,1,8
256,192,58782,1,8
256,192,58874,5,0
256,192,58966,1,0
256,192,59151,5,8
256,192,59520,5,0
256,192,59612,1,0
256,192,59705,1,0
256,192,59889,5,8
256,192,60074,5,0
256,192,60258,1,0
256,192,60351,1,0
256,192,60443,5,8
256,192,60628,1,8
256,192,60720,1,8
256,192,60812,5,0
256,192,60997,1,0
256,192,61181,5,8
256,192,61366,5,0
256,192,61551,5,8
256,192,61735,5,0
256,192,61828,1,0
256,192,61920,5,8
256,192,62104,5,0
256,192,62289,1,0
256,192,62381,5,8
256,192,62474,5,0
256,192,62566,5,8
256,192,62751,1,8
256,192,62843,5,0
256,192,62935,5,8
256,192,63027,5,0
256,192,63212,1,0
256,192,63397,5,8
256,192,63581,5,8
256,192,63674,1,8
256,192,63766,5,0
256,192,63950,1,0
256,192,64135,5,8
256,192,64320,5,0
256,192,64504,5,0
256,192,64689,1,0
256,192,64781,1,0
256,192,64873,5,8
256,192,65058,1,8
256,192,65243,5,0
256,192,65427,1,0
256,192,65520,1,0
256,192,65612,5,8
256,192,65704,1,8
256,192,65797,5,0
256,192,65889,5,8
256,192,65981,5,0
256,192,66166,1,0
256,192,66350,5,8
256,192,66535,5,0
256,192,66627,1,0
256,192,66720,5,8
256,192,66904,5,0
256,192,67089,5,8
256,192,67273,1,8
256,192,67366,1,8
256,192,67458,5,0
256,192,67643,1,0
256,192,67827,5,8
256,192,68012,5,0
256,192,68196,1,0
256,192,68289,5,8
256,192,68381,5,0
256,192,68566,5,8
256,192,68750,1,8
256,192,68842,1,8
256,192,68935,5,0
256,192,69119,1,0
256,192,69304,5,8
256,192,69489,5,0
256,192,69673,1,0
256,192,69858,1,8
256,192,69950,1,8
256,192,70042,5,0
256,192,70227,1,0
256,192,70412,5,0
256,192,70504,1,0
256,192,70596,5,8
256,192,70689,1,8
256,192,70781,1,8
256,192,70965,5,0
256,192,71058,1,0
256,192,71150,5,8
256,192,71335,1,8
256,192,71519,5,0
256,192,71704,1,0
256,192,71796,1,0
256,192,71888,5,8
256,192,72073,5,0
256,192,72258,5,8
256,192,72442,5,0
256,192,72627,1,0
256,192,72811,1,0
256,192,72904,1,0
256,192,72996,5,8
256,192,73181,1,8
256,192,73273,5,0
256,192,73365,1,0
256,192,73550,1,0
256,192,73734,5,8
256,192,73919,5,0
256,192,74011,1,0
256,192,74104,5,8
256,192,74288,5,0
256,192,74473,5,8
256,192,74658,5,0
256,192,74842,1,4
256,192,75027,1,0
256,192,75211,5,12
256,192,75396,5,0
256,192,75581,1,4
256,192,75765,1,0
256,192,75950,5,8
256,192,76042,1,8
256,192,76134,1,8
256,192,76227,1,8
256,192,76319,5,0
256,192,76688,1,0
256,192,76965,1,0
256,192,77057,5,8
256,192,77242,5,0
256,192,77427,5,8
256,192,77519,1,8
256,192,77611,5,0
256,192,77703,1,0
256,192,77796,5,8
256,192,77980,5,0
256,192,78165,5,8
256,192,78257,5,0
256,192,78442,1,0
256,192,78626,1,0
256,192,78719,5,8
256,192,78903,1,8
256,192,78996,1,8
256,192,79088,5,0
256,192,79180,1,0
256,192,79273,5,8
256,192,79457,5,0
256,192,79642,5,8
256,192,79734,5,0
256,192,79919,1,0
256,192,80103,1,0
256,192,80288,1,0
256,192,80473,1,0
256,192,80565,5,8
256,192,80657,5,0
256,192,80749,5,8
256,192,80934,1,8
256,192,81119,5,0
256,192,81303,1,0
256,192,81396,5,8
256,192,81580,5,0
256,192,81765,1,0
256,192,81857,5,8
256,192,81949,1,8
256,192,82042,5,0
256,192,82226,1,0
256,192,82411,1,0
256,192,82503,1,0
256,192,82595,5,8
256,192,82780,5,0
256,192,82872,5,8
256,192,83057,1,8
256,192,83149,5,0
256,192,83242,1,0
256,192,83334,5,8
256,192,83518,1,8
256,192,83703,5,8
256,192,83888,1,0
256,192,84072,5,8
256,192,84165,5,0
256,192,84349,1,0
256,192,84534,1,0
256,192,84626,5,8
256,192,84811,5,0
256,192,84903,5,8
256,192,84995,1,8
256,192,85088,1,8
256,192,85180,5,0
256,192,85365,1,0
256,192,85549,5,8
256,192,85641,5,0
256,192,85826,1,0
256,192,86011,1,0
256,192,86195,1,0
256,192,86380,1,0
256,192,86472,5,8
256,192,86564,1,8
256,192,86657,5,0
256,192,86841,1,0
256,192,87026,5,8
256,192,87211,5,0
256,192,87303,5,8
256,192,87487,1,8
256,192,87672,1,8
256,192,87764,5,0
256,192,87857,5,8
256,192,87949,5,0
256,192,88134,1,0
256,192,88318,1,0
256,192,88411,1,0
256,192,88503,5,8
256,192,88687,5,0
256,192,88780,5,8
256,192,88964,1,8
256,192,89057,1,8
256,192,89149,5,0
256,192,89241,1,0
256,192,89426,1,0
256,192,89610,1,0
256,192,89795,1,0
256,192,89980,5,8
256,192,90072,1,8
256,192,90164,5,0
256,192,90257,1,0
256,192,90441,5,8
256,192,90533,5,0
256,192,90626,1,0
256,192,90718,5,8
256,192,90810,5,8
256,192,90903,5,8
256,192,91087,5,0
256,192,91272,1,0
256,192,91456,5,8
256,192,91641,1,8
256,192,91733,1,8
256,192,91826,5,0
256,192,92103,5,8
256,192,92379,1,8
256,192,92564,5,0
256,192,92749,1,0
256,192,92933,5,8
256,192,93118,5,0
256,192,93210,1,0
256,192,93303,1,0
256,192,93487,5,8
256,192,93672,1,8
256,192,93856,1,8
256,192,93949,1,8
256,192,94041,5,8
256,192,94226,1,0
256,192,94410,5,8
256,192,94595,5,0
256,192,94779,1,0
256,192,95056,5,8
256,192,95333,1,8
256,192,95518,5,8
256,192,95702,1,0
256,192,95887,5,8
256,192,96072,5,0
256,192,96164,1,0
256,192,96256,5,8
256,192,96441,5,0
256,192,96625,5,8
256,192,96718,1,8
256,192,96810,5,0
256,192,96995,5,8
256,192,97087,5,0
256,192,97179,1,0
256,192,97271,1,0
256,192,97364,5,8
256,192,97456,5,0
256,192,97548,1,0
256,192,97641,1,0
256,192,97733,5,8
256,192,97825,5,0
256,192,97918,1,0
256,192,98010,1,0
256,192,98102,5,8
256,192,98195,5,0
256,192,98287,1,0
256,192,98379,1,0
256,192,98471,5,8
256,192,98564,5,0
256,192,98656,5,8
256,192,98748,5,0
256,192,98841,5,8
256,192,98933,5,0
256,192,99025,5,8
256,192,99118,5,0
256,192,99210,1,0
256,192,99948,1,0
256,192,100133,5,8
256,192,100317,5,0
256,192,100502,5,8
256,192,100594,1,8
256,192,100687,5,0
256,192,100871,1,0
256,192,101056,5,8
256,192,101240,1,8
256,192,101610,1,8
256,192,101702,5,0
256,192,101794,1,0
256,192,101979,5,8
256,192,102348,5,0
256,192,102440,1,0
256,192,102533,1,0
256,192,102717,5,8
256,192,102902,5,0
256,192,103087,1,0
256,192,103179,1,0
256,192,103271,5,8
256,192,103456,1,8
256,192,103548,1,8
256,192,103640,5,0
256,192,103825,1,0
256,192,104010,5,8
256,192,104194,5,0
256,192,104379,5,8
256,192,104563,5,0
256,192,104656,1,0
256,192,104748,5,8
256,192,104933,5,0
256,192,105117,1,0
256,192,105209,1,0
256,192,105302,5,8
256,192,105394,5,0
256,192,105486,5,8
256,192,105579,1,8
256,192,105671,5,0
256,192,105763,5,8
256,192,105856,5,0
256,192,106040,5,8
256,192,106225,5,0
256,192,106409,5,8
256,192,106502,1,8
256,192,106594,5,0
256,192,106779,1,0
256,192,106963,5,8
256,192,107148,1,8
256,192,107517,1,8
256,192,107609,5,0
256,192,107702,1,0
256,192,107886,5,8
256,192,108255,5,0
256,192,108348,1,0
256,192,108440,1,0
256,192,108625,5,8
256,192,108809,5,0
256,192,108994,1,0
256,192,109086,1,0
256,192,109178,5,8
256,192,109363,1,8
256,192,109455,1,8
256,192,109548,5,0
256,192,109732,1,0
256,192,109917,5,8
256,192,110101,5,0
256,192,110286,5,8
256,192,110471,5,0
256,192,110563,1,0
256,192,110655,5,8
256,192,110840,5,0
256,192,111024,1,0
256,192,111117,5,8
256,192,111209,5,0
256,192,111301,5,8
256,192,111394,5,0
256,192,111486,5,8
256,192,111578,5,0
256,192,111671,5,8
256,192,111763,5,0
256,192,111948,5,8
256,192,112132,5,0
256,192,112317,5,8
256,192,112409,1,8
256,192,112501,5,0
256,192,112686,1,0
256,192,112871,5,8
256,192,113055,1,8
256,192,113424,1,8
256,192,113517,5,0
256,192,113609,1,0
256,192,113794,5,8
256,192,114163,5,0
256,192,114255,1,0
256,192,114347,1,0
256,192,114532,5,8
256,192,114717,5,0
256,192,114901,1,0
256,192,114993,1,0
256,192,115086,5,8
256,192,115270,1,8
256,192,115363,1,8
256,192,115455,5,0
256,192,115640,1,0
256,192,115824,5,8
256,192,116009,5,0
256,192,116101,1,0
256,192,116193,5,8
256,192,116378,5,0
256,192,116470,1,0
256,192,116563,5,8
256,192,116747,5,0
256,192,116932,1,0
256,192,117024,1,0
256,192,117116,5,8
256,192,117209,5,0
256,192,117301,5,8
256,192,117393,1,8
256,192,117486,5,0
256,192,117578,5,8
256,192,117670,5,0
256,192,117855,5,8
256,192,118039,5,0
256,192,118224,5,8
256,192,118316,1,8
256,192,118409,5,0
256,192,118593,1,0
256,192,118778,5,8
256,192,118962,1,8
256,192,119332,1,8
256,192,119424,5,0
256,192,119516,1,0
256,192,119701,5,8
256,192,120070,5,0
256,192,120162,1,0
256,192,120255,1,0
256,192,120439,5,8
256,192,120624,5,0
256,192,120809,1,0
256,192,120901,1,0
256,192,120993,5,8
256,192,121178,1,8
256,192,121270,1,8
256,192,121362,5,0
256,192,121547,1,0
256,192,121732,5,8
256,192,121916,5,0
256,192,122008,1,0
256,192,122101,5,8
256,192,122285,5,0
256,192,122378,1,0
256,192,122470,5,8
256,192,122655,5,0
256,192,122839,1,0
256,192,122931,5,8
256,192,123024,5,0
256,192,123116,5,8
256,192,123208,1,8
256,192,123301,1,8
256,192,123393,5,0
256,192,123485,5,8
256,192,123578,5,0
256,192,123947,5,8
256,192,124131,5,0
256,192,124501,1,0
256,192,124593,1,0
256,192,124685,5,8
256,192,124870,5,0
256,192,125054,1,0
256,192,125147,5,8
256,192,125331,1,8
256,192,125608,5,0
256,192,125977,5,8
256,192,126162,5,0
256,192,126254,1,0
256,192,126347,5,8
256,192,126531,1,8
256,192,126624,5,0
256,192,126808,1,0
256,192,127085,1,0
256,192,127454,5,8
256,192,127639,5,0
256,192,127731,1,0
256,192,127823,5,8
256,192,128008,5,0
256,192,128100,5,8
256,192,128377,1,8
256,192,128562,5,0
256,192,128931,5,8
256,192,129116,5,0
256,192,129300,5,8
256,192,129485,5,0
256,192,129577,1,0
256,192,129670,1,0
256,192,129854,5,8
256,192,130039,5,0
256,192,130408,5,8
256,192,130593,5,0
256,192,130685,1,0
256,192,130777,5,8
256,192,130962,1,8
256,192,131054,1,8
256,192,131146,5,0
256,192,131331,5,8
256,192,131516,5,0
256,192,131885,5,8
256,192,132069,5,0
256,192,132162,1,0
256,192,132254,5,8
256,192,132439,1,8
256,192,132531,1,8
256,192,132623,5,0
256,192,132808,5,8
256,192,132992,5,0
256,192,133362,5,8
256,192,133546,5,0
256,192,133638,1,0
256,192,133731,5,8
256,192,133915,1,8
256,192,134008,1,8
256,192,134100,5,0
256,192,134285,1,0
256,192,134469,1,0
256,192,134838,5,8
256,192,135023,5,0
256,192,135115,1,0
256,192,135208,5,8
256,192,135392,5,0
256,192,135485,1,0
256,192,135577,1,0
256,192,135761,5,8
256,192,135946,5,0
256,192,136038,1,0
256,192,136131,1,0
256,192,136315,5,8
256,192,136500,5,0
256,192,136592,1,0
256,192,136684,5,8
256,192,136869,5,0
256,192,136961,1,0
256,192,137054,1,0
256,192,137238,5,8
256,192,137423,5,0
256,192,137515,1,0
256,192,137607,1,0
256,192,137792,5,8
256,192,137977,5,0
256,192,138069,1,0
256,192,138161,5,8
256,192,138346,5,0
256,192,138438,1,0
256,192,138530,1,0
256,192,138715,5,8
256,192,138900,5,0
256,192,138992,1,0
256,192,139084,1,0
256,192,139269,5,8
256,192,139454,5,0
256,192,139546,1,0
256,192,139638,1,0
256,192,139823,1,4
256,192,140007,12,0,141115
256,192,141300,21,0
256,192,141484,1,0
256,192,141669,5,8
256,192,141853,1,8
256,192,141946,1,8
256,192,142038,5,0
256,192,142315,5,8
256,192,142592,1,8
256,192,142776,5,0
256,192,142961,5,8
256,192,143146,1,8
256,192,143330,5,0
256,192,143423,1,0
256,192,143515,5,8
256,192,143792,5,0
256,192,144069,5,8
256,192,144253,1,8
256,192,144438,5,0
256,192,144622,5,8
256,192,144807,1,8
256,192,144899,1,8
256,192,144992,5,0
256,192,145269,5,8
256,192,145545,1,8
256,192,145730,5,0
256,192,145915,5,8
256,192,146099,1,8
256,192,146284,5,0
256,192,146376,1,0
256,192,146468,5,8
256,192,146745,5,0
256,192,147022,5,8
256,192,147207,1,8
256,192,147299,5,0
256,192,147391,1,0
256,192,147484,1,0
256,192,147576,5,8
256,192,147668,5,0
256,192,147761,1,0
256,192,147853,1,0
256,192,147945,5,8
256,192,148038,1,8
256,192,148130,5,0
256,192,148222,1,0
256,192,148315,5,8
256,192,148407,1,8
256,192,148499,5,0
256,192,148591,1,0
256,192,148684,5,8
256,192,148776,5,0
256,192,148868,5,8
256,192,148961,5,0
256,192,149053,5,8
256,192,149145,5,0
256,192,149238,5,8
256,192,149422,1,12
256,192,150161,5,0
256,192,150345,5,8
256,192,150530,5,0
256,192,150714,5,8
256,192,150807,1,8
256,192,150899,5,0
256,192,151084,1,0
256,192,151268,5,8
256,192,151453,1,8
256,192,151822,1,8
256,192,151914,5,0
256,192,152007,1,0
256,192,152191,5,8
256,192,152560,5,0
256,192,152653,1,0
256,192,152745,1,0
256,192,152930,5,8
256,192,153114,5,0
256,192,153299,1,0
256,192,153391,1,0
256,192,153483,5,8
256,192,153668,1,8
256,192,153760,1,8
256,192,153853,5,0
256,192,154037,1,0
256,192,154222,5,8
256,192,154406,5,0
256,192,154591,5,8
256,192,154776,5,0
256,192,154868,1,0
256,192,154960,5,8
256,192,155145,5,0
256,192,155329,1,0
256,192,155422,1,0
256,192,155514,5,8
256,192,155606,5,0
256,192,155699,5,8
256,192,155791,1,8
256,192,155883,5,0
256,192,155976,5,8
256,192,156068,5,0
256,192,156252,5,8
256,192,156437,5,0
256,192,156622,5,8
256,192,156714,1,8
256,192,156806,5,0
256,192,156991,1,0
256,192,157176,5,8
256,192,157360,1,8
256,192,157729,1,8
256,192,157822,5,0
256,192,157914,1,0
256,192,158099,5,8
256,192,158468,5,0
256,192,158560,1,0
256,192,158652,1,0
256,192,158837,5,8
256,192,159022,5,0
256,192,159206,1,0
256,192,159298,1,0
256,192,159391,5,8
256,192,159575,1,8
256,192,159668,1,8
256,192,159760,5,0
256,192,159945,1,0
256,192,160129,5,8
256,192,160314,5,0
256,192,160498,5,8
256,192,160683,5,0
256,192,160775,1,0
256,192,160868,5,8
256,192,161052,5,0
256,192,161237,1,0
256,192,161329,5,8
256,192,161421,5,0
256,192,161514,5,8
256,192,161606,5,0
256,192,161698,5,8
256,192,161791,5,0
256,192,161883,5,8
256,192,161975,5,0
256,192,162160,5,8
256,192,162344,5,0
256,192,162529,5,8
256,192,162621,1,8
256,192,162714,5,0
256,192,162898,1,0
256,192,163083,5,8
256,192,163267,1,8
256,192,163637,1,8
256,192,163729,5,0
256,192,163821,1,0
256,192,164006,5,8
256,192,164375,5,0
256,192,164467,1,0
256,192,164560,1,0
256,192,164744,5,8
256,192,164929,5,0
256,192,165113,1,0
256,192,165206,1,0
256,192,165298,5,8
256,192,165483,1,8
256,192,165575,1,8
256,192,165667,5,0
256,192,165852,1,0
256,192,166036,5,8
256,192,166221,5,0
256,192,166313,1,0
256,192,166406,5,8
256,192,166590,5,0
256,192,166683,1,0
256,192,166775,5,8
256,192,166960,5,0
256,192,167144,1,0
256,192,167236,1,0
256,192,167329,5,8
256,192,167421,5,0
256,192,167513,5,8
256,192,167606,1,8
256,192,167698,5,0
256,192,167790,5,8
256,192,167883,5,0
256,192,168067,5,8
256,192,168252,5,0
256,192,168436,5,8
256,192,168529,1,8
256,192,168621,5,0
256,192,168806,1,0
256,192,168990,5,8
256,192,169175,1,8
256,192,169544,1,8
256,192,169636,5,0
256,192,169729,1,0
256,192,169913,5,8
256,192,170282,5,0
256,192,170375,1,0
256,192,170467,1,0
256,192,170652,5,8
256,192,170836,5,0
256,192,171021,1,0
256,192,171113,1,0
256,192,171205,5,8
256,192,171390,1,8
256,192,171482,1,8
256,192,171575,5,0
256,192,171759,1,0
256,192,171944,5,8
256,192,172128,5,0
256,192,172221,1,0
256,192,172313,5,8
256,192,172498,5,0
256,192,172590,1,0
256,192,172682,5,8
256,192,172867,5,0
256,192,173051,1,4
