osu file format v9

[General]
AudioFilename: ATeens - Gimme! Gimme! Gimme! (Nightcore Mix).mp3
AudioLeadIn: 2000
PreviewTime: 99905
Countdown: 0
SampleSet: Normal
StackLeniency: 0.7
Mode: 0
LetterboxInBreaks: 0
EpilepsyWarning: 1

[Editor]
DistanceSpacing: 1
BeatDivisor: 4
GridSize: 4

[Metadata]
Title:Gimme! Gimme! Gimme! (Nightcore Mix)
Artist:A*Teens
Creator:Piscis
Version:Normal
Source:
Tags:trance rave abba madonna hung up! darknessangel

[Difficulty]
HPDrainRate:4
CircleSize:3
OverallDifficulty:4
ApproachRate:5
SliderMultiplier:1
SliderTickRate:2

[Events]
//Background and Video events
0,0,"Christina.jpg"
//Break Periods
2,6489,13043
2,63181,75073
2,123735,138581
//Storyboard Layer 0 (Background)
//Storyboard Layer 1 (Fail)
//Storyboard Layer 2 (Pass)
//Storyboard Layer 3 (Foreground)
//Storyboard Sound Samples
//Background Colour Transformations
3,100,163,162,255

[TimingPoints]
213,369.230769230769,4,2,0,20,1,0
1689,-100,4,2,0,30,0,0
3166,-100,4,2,0,40,0,0
4643,-100,4,2,0,50,0,0
6120,-100,4,2,0,60,0,0
14243,369.230769230769,4,1,0,55,1,0
28642,-100,4,1,0,35,0,0
29012,-100,4,1,0,55,0,0
38242,-100,4,1,2,55,0,0
38335,-100,4,1,0,55,0,0
51166,-100,4,1,0,65,0,1
56704,-100,4,1,0,65,0,0
57073,-100,4,1,0,65,0,1
62889,-100,4,1,0,65,0,0
62981,-100,4,1,0,65,0,1
63073,-100,4,1,0,55,0,0
87719,-100,4,1,2,55,0,0
87812,-100,4,1,0,55,0,0
93627,-100,4,1,2,55,0,0
93719,-100,4,1,0,55,0,0
95842,-100,4,1,2,55,0,0
95935,-100,4,1,0,55,0,0
99904,-100,4,1,0,65,0,1
105442,-100,4,1,0,65,0,0
105812,-100,4,1,0,65,0,1
111350,-100,4,1,0,65,0,0
111719,-100,4,1,0,65,0,1
117258,-100,4,1,0,65,0,0
117627,-100,4,1,0,65,0,1
123535,-100,4,1,0,65,0,0
150119,-100,4,1,0,65,0,1
155658,-100,4,1,0,65,0,0
156027,-100,4,1,0,65,0,1
161566,-100,4,1,0,65,0,0
161935,-100,4,1,0,65,0,1
167473,-100,4,1,0,65,0,0
167842,-100,4,1,0,65,0,1
172919,-100,4,1,0,65,0,0
173012,-100,4,1,0,65,0,1
173104,-100,4,1,0,65,0,0

[Colours]
Combo1 : 128,0,255
Combo2 : 255,0,128
Combo3 : 255,128,192
SliderBorder : 200,200,200

[HitObjects]
208,144,213,2,0,B|256:128|256:128|304:144,3,100,4|2|0|2
304,240,1689,2,0,B|256:256|256:256|208:240,3,100,4|2|0|2
120,192,3166,6,0,B|96:140|120:96,1,100,4|2
204,44,3905,2,0,B|304:44,1,100,0|2
388,96,4643,6,0,B|416:144|388:192,1,100,4|2
304,248,5382,2,0,B|204:248,2,100,0|2|4
128,272,14243,6,0,B|172:256|172:256|200:276|232:272,1,100,4|8
312,312,14981,2,0,B|360:332|408:312,1,100,0|8
408,212,15719,2,0,B|360:188|312:212,3,100,0|8|0|8
256,128,17196,5,0
200,212,17566,2,0,B|152:236|104:212,1,100,8|0
40,132,18304,1,8
100,52,18673,2,0,B|148:32|200:52,1,100,0|8
256,128,19412,2,0,B|256:192,2,50,0|0|8
316,52,20150,6,0,B|344:44|344:44|364:52|364:52|420:52,1,100,0|8
460,140,20889,2,0,B|468:172|468:172|460:188|460:188|460:244,1,100,0|8
420,328,21627,2,0,B|371:328|371:328|355:336|355:336|323:328,3,100,0|8|0|8
256,252,23104,5,0
192,328,23473,1,8
128,252,23842,1,0
192,176,24212,1,8
256,100,24581,6,0,B|312:84|360:92,2,100,0|8|0
168,52,25689,2,0,B|120:32|72:52,1,100,8|4
120,140,26427,1,4
120,240,26796,2,0,B|120:344,2,100,4|4|4
360,60,28642,6,2,B|360:160,1,100,2|4
460,160,29381,1,8
408,244,29750,1,0
308,244,30119,2,0,B|188:244,1,100,8|0
256,332,30858,1,8
156,324,31227,2,0,B|108:296|108:240,1,100,0|8
192,192,31966,5,0
192,192,32335,1,8
108,140,32704,2,0,B|107:85|155:57,1,100,0|8
256,64,33442,5,0
196,144,33812,1,8
256,224,34181,1,0
316,144,34550,1,8
376,64,34919,6,2,B|480:64,2,100
276,84,36027,1,0
184,120,36396,6,0,B|160:112|108:112|84:120,1,100,4|8
136,208,37135,1,0
84,292,37504,1,8
184,292,37873,2,0,B|216:324|304:308|336:228|312:188,1,200,0|0
216,192,38981,1,8
128,144,39350,6,0,B|160:96|216:96,1,100,0|8
296,40,40089,2,0,B|344:28|396:40,1,100,0|8
440,128,40827,2,0,B|476:176|440:224|412:268|440:320,1,200,0|4
284,192,42304,6,0,B|264:176|240:172,2,50,4|0|8
368,248,43043,2,0,B|336:296|280:296,1,100,0|8
184,288,43781,1,0
96,240,44150,1,8
72,144,44519,2,0,B|52:96|72:48,2,100,0|8|4
160,96,45627,5,8
248,144,45996,2,0,B|268:96|248:48,2,100,0|8|0
256,244,47104,1,8
348,200,47473,1,4
356,300,47843,1,8
256,192,48212,12,4,50427
128,104,51166,6,0,B|108:152|128:200,1,100,12|8
200,272,51904,1,8
256,188,52273,1,8
332,124,52643,2,0,B|384:116|432:124,1,100,8|8
384,212,53381,2,0,B|420:252|352:272|380:304,1,100,8|8
284,336,54119,6,0,B|84:336,1,200,8|8
100,232,55227,1,8
140,140,55596,2,0,B|244:140,1,100,8|8
340,140,56335,1,12
252,320,57073,6,0,B|300:312|300:312|352:320,1,100,12|8
416,244,57812,1,8
368,156,58181,1,8
304,80,58550,2,0,B|256:64|204:80,1,100,8|8
128,140,59289,2,0,B|104:192|128:236,1,100,8|8
144,336,60027,6,0,B|200:320|200:320|280:360|336:336,1,200,8|8
420,280,61135,1,8
408,180,61504,2,0,B|360:156|312:180,1,100,8|8
256,96,62243,1,8
200,180,62612,2,0,B|152:156|104:180,1,100,8|4
48,208,76273,6,2,B|144:260|240:208,2,200,2|2|4
72,112,78119,5,8
144,40,78489,1,0
216,112,78858,1,8
288,40,79227,2,0,B|392:40,1,100,0|8
416,136,79966,2,0,B|360:136,2,50,0|0|8
464,224,80704,6,0,B|488:272|464:320,1,100,0|8
376,272,81443,1,0
304,208,81812,1,8
228,144,82181,2,0,B|184:120|184:60,1,100,0|8
88,88,82919,1,0
56,184,83289,1,8
104,272,83658,6,2,B|192:336,1,100
288,336,84396,2,2,B|392:320,1,100,6|6
416,224,85135,6,0,B|304:224,1,100,4|8
288,128,85873,1,0
200,80,86242,1,8
112,128,86612,2,0,B|16:184,1,100,0|8
80,264,87350,2,0,B|144:360|256:312,1,200
352,296,88458,6,0,B|400:320|448:296,1,100,8|0
400,208,89196,1,8
448,120,89566,2,0,B|232:120,1,200,0|4
164,300,91042,6,0,B|112:320|68:300,2,100,4|8|0
256,264,92150,1,8
348,304,92519,2,0,B|400:324|444:304,1,100,0|8
456,204,93258,2,0,B|456:84|324:84,1,200
232,52,94366,5,8
132,56,94735,1,4
76,140,95104,1,8
160,196,95473,2,0,B|160:316|292:316,1,200,0|4
388,316,96581,1,8
256,192,96950,12,4,99166
96,80,99904,6,0,B|144:68|196:80,1,100,12|8
292,104,100642,1,8
384,144,101012,1,8
468,200,101381,2,0,B|468:256|428:304,1,100,8|8
348,336,102119,2,0,B|292:336|252:296,1,100,8|8
256,200,102858,6,0,B|208:168|160:192|112:220|60:200,1,200,8|8
72,100,103966,1,8
160,52,104335,2,0,B|260:52,1,100,8|8
360,52,105073,1,12
436,236,105812,6,0,B|405:239|388:252|388:252|372:240|341:235,1,100,12|8
256,284,106550,2,0,B|226:279|210:267|210:267|192:280|162:283,1,100,8|8
76,332,107289,1,8
76,232,107658,1,8
76,132,108027,2,0,B|101:121|101:121|173:121,1,100,8|8
264,80,108766,6,0,B|296:68|296:68|464:68,1,200,8|8
464,168,109873,1,8
464,268,110242,1,8
364,268,110612,2,0,B|304:268|291:209,1,100,8|12
108,136,111719,6,0,B|108:168|108:168|84:192|84:192|84:232,1,100,12|8
184,228,112458,1,8
256,156,112827,1,8
328,228,113196,1,8
428,228,113566,2,0,B|428:194|428:194|404:170|404:170|404:138,2,100,8|8|8
256,192,114673,12,4,116889
404,248,117627,6,0,B|404:216|404:216|428:192|428:192|428:152,1,100,12|8
328,156,118366,1,8
256,228,118735,1,8
184,156,119104,1,8
84,156,119473,2,0,B|84:190|84:190|108:214|108:214|108:246,2,100,8|8|8
256,192,120581,12,4,123535
256,192,139781,5,4
356,64,141258,6,0,B|396:96|396:152,1,100,4|8
304,196,141996,2,0,B|256:208|204:196,1,100,0|8
116,152,142735,2,0,B|116:96|155:63,2,100,0|8|0
256,296,144212,6,0,B|356:296,1,100,4|8
428,224,144950,1,0
368,144,145319,1,8
304,68,145689,2,0,B|256:52|204:68,1,100,0|8
256,156,146427,2,0,B|208:172|156:156,1,100,4|8
256,192,147166,12,4,149381
112,248,150119,6,0,B|88:296|112:344,1,100,12|8
204,300,150858,1,8
304,300,151227,1,8
396,340,151596,2,0,B|421:292|397:244,1,100,8|8
356,152,152335,2,0,B|140:152,1,200,8|8
68,100,153442,5,8
68,200,153812,1,8
132,276,154181,1,8
224,312,154550,2,0,B|272:332|324:328,1,100,8|8
420,308,155289,1,12
448,112,156027,6,0,B|400:104|348:112,1,100,12|8
304,200,156766,2,0,B|200:200,1,100,8|8
164,108,157504,2,0,B|112:100|64:108,1,100,8|8
24,200,158242,2,0,B|28:260|88:336|172:324,1,200,8|8
256,316,159350,5,8
352,288,159719,1,8
440,244,160089,1,8
440,144,160458,2,0,B|392:116|344:144,1,100,8|8
256,192,161196,1,12
108,56,161935,6,0,B|64:84|68:144,1,100,12|8
156,192,162673,2,0,B|260:192,2,100,8|8|8
67,242,163781,2,0,B|64:300|108:328,1,100,8|8
204,348,164519,1,8
256,192,164889,12,4,167104
404,328,167842,6,0,B|448:300|444:240,1,100,12|8
356,192,168581,2,0,B|252:192,2,100,8|8|8
444,141,169689,2,0,B|448:84|404:56,1,100,8|8
308,36,170427,1,8
256,192,170796,12,4,172273
256,192,173012,5,4
