osu file format v9

[General]
AudioFilename: ATeens - Gimme! Gimme! Gimme! (Nightcore Mix).mp3
AudioLeadIn: 2000
PreviewTime: 99905
Countdown: 0
SampleSet: Normal
StackLeniency: 0.7
Mode: 0
LetterboxInBreaks: 0
EpilepsyWarning: 1

[Editor]
DistanceSpacing: 1
BeatDivisor: 4
GridSize: 4

[Metadata]
Title:Gimme! Gimme! Gimme! (Nightcore Mix)
Artist:A*Teens
Creator:Piscis
Version:Easy
Source:
Tags:trance rave abba madonna hung up! darknessangel

[Difficulty]
HPDrainRate:1
CircleSize:3
OverallDifficulty:1
ApproachRate:3
SliderMultiplier:0.95
SliderTickRate:2

[Events]
//Background and Video events
0,0,"Christina.jpg"
//Break Periods
2,6489,12803
2,63181,74833
2,123735,138341
//Storyboard Layer 0 (Background)
//Storyboard Layer 1 (Fail)
//Storyboard Layer 2 (Pass)
//Storyboard Layer 3 (Foreground)
//Storyboard Sound Samples
//Background Colour Transformations
3,100,163,162,255

[TimingPoints]
213,369.230769230769,4,2,0,20,1,0
1689,-100,4,2,0,30,0,0
3166,-100,4,2,0,40,0,0
4643,-100,4,2,0,50,0,0
6120,-100,4,2,0,60,0,0
14243,369.230769230769,4,1,0,45,1,0
17566,-100,4,1,2,45,0,0
17658,-100,4,1,0,55,0,0
21996,-100,4,1,2,55,0,0
22089,-100,4,1,0,55,0,0
24212,-100,4,1,2,55,0,0
24304,-100,4,1,0,55,0,0
25689,-100,4,1,2,55,0,0
25781,-100,4,1,0,55,0,0
33812,-100,4,1,2,55,0,0
33904,-100,4,1,0,55,0,0
51166,-100,4,1,0,65,0,1
56704,-100,4,1,0,65,0,0
57073,-100,4,1,0,65,0,1
62889,-100,4,1,0,65,0,0
62981,-100,4,1,2,65,0,1
63073,-100,4,1,0,55,0,0
99904,-100,4,1,0,65,0,1
105442,-100,4,1,0,65,0,0
105812,-100,4,1,0,65,0,1
111350,-100,4,1,0,65,0,0
111719,-100,4,1,0,65,0,1
117258,-100,4,1,0,65,0,0
117627,-100,4,1,0,65,0,1
123535,-100,4,1,0,65,0,0
150119,-100,4,1,0,65,0,1
155658,-100,4,1,0,65,0,0
156027,-100,4,1,0,65,0,1
161566,-100,4,1,0,65,0,0
161935,-100,4,1,0,65,0,1
167473,-100,4,1,0,65,0,0
167842,-100,4,1,0,65,0,1
172919,-100,4,1,0,65,0,0
173012,-100,4,1,0,65,0,1
173104,-100,4,1,0,65,0,0

[Colours]
Combo1 : 128,0,255
Combo2 : 255,0,128
Combo3 : 255,128,192
SliderBorder : 200,200,200

[HitObjects]
160,192,213,2,0,B|124:224|72:224,2,95,4|2|0
348,192,1689,2,0,B|384:160|436:160,2,95,4|2|0
212,60,3166,6,0,B|236:44|256:36|276:44|300:60,1,95,4|2
256,144,3905,1,0
348,312,4643,6,0,B|396:312|433:275,2,95,4|2|0
256,332,5751,1,2
164,312,6120,1,4
416,256,14243,6,0,B|368:276|324:256,1,95,0|8
184,128,15350,1,8
148,40,15719,2,0,B|92:52|84:104,1,95,0|8
44,288,16827,1,8
128,328,17196,6,0,B|180:280|256:344|256:344|332:280|384:328,1,285,0|8
464,276,18673,2,0,B|484:232|464:184,1,95,0|8
340,40,19781,1,8
256,80,20150,6,0,B|212:64|164:80,1,95,0|8
256,248,21258,1,8
175,299,21627,2,0,B|196:336|256:364|316:336|336:300,1,190,0|0
300,112,23104,6,0,B|276:96|256:88|236:96|212:112,1,95,0|8
140,172,23842,2,0,B|96:220|96:220|96:272|160:324,1,190,4|0
256,328,24950,1,8
352,324,25319,2,0,B|416:272|416:220|416:220|372:172,1,190,0|4
160,60,27535,6,2,B|348:60,1,190
416,236,29012,6,0,B|440:276|416:328,1,95,4|8
332,280,29750,1,0
248,324,30119,2,0,B|224:276|248:232,1,95,8|0
256,140,30858,5,8
88,44,31596,1,8
88,236,32335,1,8
256,328,33073,1,8
340,280,33442,2,0,B|340:240|376:192|376:192|340:148|340:108,1,190
172,192,34919,6,2,B|76:192,2,95
304,52,36396,6,0,B|352:36|400:52,1,95,4|8
352,136,37135,1,0
400,220,37504,2,0,B|352:236|304:220,1,95,8|0
216,192,38243,1,8
52,288,38981,6,0,B|-4:192|52:108,1,190,8|8
236,56,40458,2,0,B|280:28|328:40|328:40|376:56|400:100,1,190,8|8
456,176,41566,1,4
328,316,42304,6,0,B|364:344|416:344,2,95,4|8|0
240,276,43412,1,8
156,236,43781,2,0,B|111:207|66:207,2,95,0|8|0
256,76,45258,6,0,B|308:76|345:102,1,95,4|8
440,124,45996,1,0
440,316,46735,2,0,B|388:316|348:288,1,95,0|8
256,268,47473,1,4
256,192,48212,12,4,50427
360,104,51166,6,0,B|380:52|436:52,2,95,12|8|8
300,176,52273,2,0,B|256:204|204:188,1,95,8|8
68,60,53381,1,8
72,248,54119,5,8
256,292,54858,1,8
440,248,55596,1,8
344,236,55966,2,0,B|304:204|256:188|208:204|172:236,1,190,8|8
128,148,57073,6,0,B|104:104|56:92,2,95,12|8|8
204,92,58181,2,8,B|252:72|300:72,1,95,8|8
444,192,59289,1,8
300,316,60027,6,8,B|256:317|208:297,1,95,8|8
132,236,60766,2,0,B|112:192|132:144,1,95,8|8
208,88,61504,2,8,B|256:68|300:68,1,95,8|8
352,148,62243,2,0,B|372:192|352:240,1,95,8|8
268,192,62981,1,4
212,96,76273,6,2,B|256:76|256:76|300:96,2,95,2|2|2
48,192,77750,6,0,B|96:200|96:200|144:192,1,95,4|8
236,176,78489,1,0
420,136,79227,2,0,B|420:192|380:220,1,95,0|8
324,296,79966,1,0
140,340,80704,6,0,B|92:320|72:272,1,95,0|8
32,192,81443,1,0
72,108,81812,2,0,B|91:64|139:44,1,95,8|0
260,192,82919,1,4
428,104,83658,5,2
468,192,84027,1,2
464,288,84396,2,2,B|448:340|396:348,1,95,6|6
304,332,85135,6,0,B|256:344|208:332,1,95,4|8
116,320,85873,1,0
172,140,86612,1,0
188,48,86981,2,0,B|244:48|260:100,1,95,8|0
444,148,88089,6,0,B|464:192|444:240,2,95,0|8|0
268,76,89566,2,0,B|220:44|160:44|160:44|92:76,1,190,0|4
172,248,91042,6,0,B|208:284|256:284,2,95,4|8|0
72,84,92519,2,0,B|116:60|164:68,1,95,0|8
256,44,93258,2,0,B|352:44,1,95,0|8
424,104,93996,6,0,B|472:192|428:288,1,190,4|0
240,288,95473,2,0,B|196:192|244:104,1,190,0|4
256,192,96950,12,4,99166
120,104,99904,6,0,B|72:120|44:164,2,95,12|8|8
204,64,101012,2,0,B|288:20|392:40,1,190,8|8
468,92,102119,1,8
468,284,102858,5,8
380,324,103227,1,8
344,236,103596,2,0,B|296:236|256:212|256:212|216:236|160:236,1,190,8|8
132,324,104704,1,8
44,284,105073,1,12
84,100,105812,6,0,B|132:80|176:100,1,95,12|8
268,128,106550,2,0,B|312:144|336:192,1,95,8|8
424,224,107289,2,0,B|364:312|256:256,1,190,8|8
204,76,108766,6,0,B|156:68|108:76,1,95,8|8
48,148,109504,2,0,B|28:192|48:240,1,95,8|8
112,308,110242,2,0,B|156:288|200:316|200:316|244:340|296:312,1,190,8|12
336,140,111719,6,0,B|364:100|364:52,2,95,12|8|8
256,192,112827,1,8
176,140,113196,2,0,B|148:100|148:52,2,95,8|8|8
256,192,114673,12,4,116889
176,244,117627,6,0,B|148:284|148:332,2,95,12|8|8
256,192,118735,1,8
336,244,119104,2,0,B|364:284|364:332,2,95,8|8|8
256,192,120581,12,4,123535
256,192,139781,5,4
92,56,141258,6,0,B|64:92|64:148,1,95,4|8
64,238,141996,2,0,B|64:292|92:328,1,95,0|8
188,340,142735,2,0,B|236:356|280:340,2,95,0|8|0
348,192,144212,6,0,B|400:208|440:176,1,95,4|8
380,104,144950,1,0
192,108,145689,2,0,B|140:92|100:124,1,95,0|8
160,196,146427,1,4
256,192,147166,12,4,149381
212,192,150119,6,0,B|256:176|304:192,2,95,12|8|8
120,220,151227,2,0,B|72:208|56:156,1,95,8|8
212,52,152335,1,8
388,128,153073,5,8
352,316,153812,1,8
160,316,154550,1,8
76,272,154919,2,0,B|52:232|80:180|80:180|108:132|80:92,1,190,8|8
172,72,156027,6,0,B|224:72|260:44,2,95,12|8|8
172,168,157135,2,0,B|224:168|260:196,1,95,8|8
440,128,158242,1,8
400,312,158981,5,8
256,192,159719,1,8
88,104,160458,2,0,B|68:128|56:192|68:260|88:288,1,190,8|12
276,284,161935,6,0,B|320:300|320:300|368:300,2,95,12|8|8
256,192,163042,1,8
232,100,163412,2,0,B|188:84|188:84|140:84,2,95,8|8|8
256,192,164889,12,4,167104
164,212,167842,6,0,B|148:256|148:256|148:304,2,95,12|8|8
256,192,168950,1,8
348,168,169319,2,0,B|364:124|364:124|364:76,2,95,8|8|8
256,192,170796,12,4,173012
