osu file format v9

[General]
AudioFilename: ATeens - Gimme! Gimme! Gimme! (Nightcore Mix).mp3
AudioLeadIn: 2000
PreviewTime: 99905
Countdown: 0
SampleSet: Soft
StackLeniency: 0.7
Mode: 0
LetterboxInBreaks: 0
EpilepsyWarning: 1

[Editor]
DistanceSpacing: 1.2
BeatDivisor: 4
GridSize: 4

[Metadata]
Title:Gimme! Gimme! Gimme! (Nightcore Mix)
Artist:A*Teens
Creator:Piscis
Version:D.N.Angel
Source:
Tags:trance rave abba madonna hung up! darknessangel

[Difficulty]
HPDrainRate:7
CircleSize:3
OverallDifficulty:7
ApproachRate:8
SliderMultiplier:1.8
SliderTickRate:2

[Events]
//Background and Video events
0,0,"Christina.jpg"
//Break Periods
2,63181,75523
2,123735,139031
//Storyboard Layer 0 (Background)
//Storyboard Layer 1 (Fail)
//Storyboard Layer 2 (Pass)
//Storyboard Layer 3 (Foreground)
//Storyboard Sound Samples
//Background Colour Transformations
3,100,163,162,255

[TimingPoints]
213,369.230769230769,4,2,1,40,1,0
305,-100,4,2,1,5,0,0
489,-100,4,2,1,40,0,0
3166,-100,4,2,1,50,0,0
4459,-100,4,2,1,60,0,0
6305,-100,4,2,1,70,0,0
11289,-100,4,1,1,60,0,0
14059,-100,4,2,1,60,0,0
14243,369.230769230769,4,1,1,65,1,0
16182,-100,4,1,0,65,0,0
16366,-100,4,1,1,65,0,0
29842,-100,4,1,0,65,0,0
29935,-100,4,1,1,65,0,0
31319,-100,4,1,0,65,0,0
31412,-100,4,1,1,65,0,0
34642,-100,4,1,0,65,0,0
36396,-100,4,1,1,65,0,0
37227,-100,4,1,0,65,0,0
37319,-100,4,1,1,65,0,0
38704,-100,4,1,0,65,0,0
38796,-100,4,1,1,65,0,0
40181,-100,4,1,0,65,0,0
40273,-100,4,1,1,65,0,0
40919,-100,4,1,0,65,0,0
41104,-100,4,1,1,65,0,0
41658,-100,4,1,0,65,0,0
41842,-100,4,1,1,65,0,0
43042,-100,4,1,0,65,0,0
46735,-100,4,1,1,65,0,0
51166,-100,4,1,1,65,0,1
54950,-100,4,1,0,65,0,1
55042,-100,4,1,1,65,0,1
56242,-100,4,1,0,65,0,1
56427,-100,4,1,1,65,0,1
56704,-100,4,1,1,65,0,0
57073,-100,4,1,1,65,0,1
59196,-100,4,1,0,65,0,1
59381,-100,4,1,1,65,0,1
60858,-100,4,1,0,65,0,1
60950,-100,4,1,1,65,0,1
62058,-100,4,1,1,5,0,1
62150,-100,4,1,1,65,0,1
62335,-100,4,1,0,65,0,1
62519,-100,4,1,1,65,0,1
62889,-100,4,1,1,65,0,0
62981,-100,4,1,1,65,0,1
63073,-100,4,1,1,65,0,0
78581,-100,4,1,0,65,0,0
78673,-100,4,1,1,65,0,0
80058,-100,4,1,0,65,0,0
80150,-100,4,1,1,65,0,0
81535,-100,4,1,0,65,0,0
81627,-100,4,1,1,65,0,0
83658,-100,4,1,0,65,0,0
85135,-100,4,1,1,65,0,0
85966,-100,4,1,0,65,0,0
86058,-100,4,1,1,65,0,0
87442,-100,4,1,0,65,0,0
87535,-100,4,1,1,65,0,0
88919,-100,4,1,0,65,0,0
89012,-100,4,1,1,65,0,0
91781,-100,4,1,0,65,0,0
92519,-100,4,1,1,65,0,0
94735,-100,4,1,0,65,0,0
95381,-100,4,1,1,65,0,0
99904,-100,4,1,1,65,0,1
103689,-100,4,1,0,65,0,1
103781,-100,4,1,1,65,0,1
104981,-100,4,1,0,65,0,1
105442,-100,4,1,1,65,0,0
105812,-100,4,1,1,65,0,1
109596,-100,4,1,0,65,0,1
109689,-100,4,1,1,65,0,1
110889,-100,4,1,0,65,0,1
111073,-100,4,1,1,65,0,1
111350,-100,4,1,1,65,0,0
111719,-100,4,1,1,65,0,1
113842,-100,4,1,0,65,0,1
114027,-100,4,1,1,65,0,1
117258,-100,4,1,1,65,0,0
117627,-100,4,1,1,65,0,1
123535,-100,4,1,1,65,0,0
141996,-100,4,1,0,65,0,0
142735,-100,4,1,1,65,0,0
144950,-100,4,1,0,65,0,0
145689,-100,4,1,1,65,0,0
150119,-100,4,1,1,65,0,1
152242,-100,4,1,0,65,0,1
152427,-100,4,1,1,65,0,1
153904,-100,4,1,0,65,0,1
153996,-100,4,1,1,65,0,1
155196,-100,4,1,0,65,0,1
155381,-100,4,1,1,65,0,1
155658,-100,4,1,1,65,0,0
156027,-100,4,1,1,65,0,1
158150,-100,4,1,0,65,0,1
158335,-100,4,1,1,65,0,1
159812,-100,4,1,0,65,0,1
159904,-100,4,1,1,65,0,1
161104,-100,4,1,0,65,0,1
161289,-100,4,1,1,65,0,1
161566,-100,4,1,1,65,0,0
161935,-100,4,1,1,65,0,1
167473,-100,4,1,1,65,0,0
167842,-100,4,1,1,65,0,1
172919,-100,4,1,1,65,0,0
173012,-100,4,1,1,65,0,1
173104,-100,4,1,1,65,0,0

[Colours]
Combo1 : 128,0,255
Combo2 : 255,0,128
Combo3 : 255,128,192
SliderBorder : 200,200,200

[HitObjects]
48,104,213,2,0,B|88:71|129:55|169:71|210:104,1,180,0|0
260,260,859,1,0
260,260,951,2,0,B|300:240|324:200,1,90
372,104,1320,2,0,B|400:66|445:56,2,90
432,192,1874,1,0
372,280,2059,2,0,B|400:317|445:327,2,90
312,192,2612,5,0
256,284,2797,1,0
200,192,2982,1,0
140,104,3166,2,0,B|111:66|66:56,2,90
80,192,3720,1,0
140,279,3905,2,0,B|111:317|66:327,2,90
125,192,4459,6,0,B|80:192,1,45
312,128,4828,1,0
312,128,4920,1,0
312,128,5013,2,0,B|384:76,1,90
472,140,5382,1,0
436,240,5566,2,0,B|416:280,3,45
388,304,5936,2,0,B|352:328|304:328,1,90
196,328,6305,5,0
196,328,6397,1,0
196,328,6489,2,0,B|151:343|107:327,1,90,2|0
72,316,6766,1,2
68,156,7043,1,0
68,156,7136,1,0
68,156,7228,1,2
140,76,7413,2,2,B|180:48,1,45,2|0
340,48,7782,6,0,B|388:48,2,45,0|0|2
272,132,8151,2,0,B|224:132,2,45,0|0|2
380,152,8520,1,0
416,160,8612,1,0
452,172,8705,1,2
368,240,8889,1,0
332,252,8982,1,0
296,260,9074,1,10
380,328,9259,6,0,B|428:344,2,45,0|0|2
296,260,9628,2,0,B|248:260,2,45,0|0|10
220,344,9997,1,0
220,344,10089,1,0
220,344,10182,1,2
108,328,10366,2,0,B|56:316|40:276,1,90,0|8
112,192,10736,1,8
108,56,10920,2,0,B|56:68|40:108,1,90,8|8
112,192,11289,5,0
148,192,11382,1,0
184,192,11474,1,0
220,192,11566,1,0
256,192,11659,1,0
292,192,11751,1,0
328,192,11843,1,0
364,192,11936,1,0
400,192,12028,1,4
424,64,13689,6,0,B|380:64,2,45
324,156,14059,1,0
324,156,14151,1,0
324,156,14243,2,0,B|295:194|250:204,1,90,12|0
428,184,14612,2,0,B|430:231|402:268,1,90,8|0
84,184,14981,2,0,B|81:231|109:268,1,90
152,56,15350,6,0,B|104:53|67:81,1,90,8|0
236,56,15719,1,0
272,56,15812,1,0
308,64,15904,1,0
344,76,15996,1,0
376,92,16089,2,0,B|448:152|476:240,1,180,8|0
376,328,16642,5,0
376,328,16735,1,0
376,328,16827,2,0,B|378:281|350:244,1,90,8|0
136,328,17196,2,0,B|134:281|162:244,1,90,0|0
256,92,17566,1,8
92,168,17750,1,0
256,92,17935,1,0
420,168,18119,1,0
420,168,18212,1,0
420,168,18304,1,8
420,168,18396,1,0
420,168,18489,6,0,B|460:84,1,90
92,168,18858,2,0,B|52:84,1,90,0|8
176,280,19227,2,0,B|159:320|107:332,1,90
336,280,19596,1,0
336,280,19689,1,0
336,280,19781,2,0,B|352:320|404:332,1,90,8|0
464,192,20150,5,0
360,44,20335,1,0
256,192,20519,1,8
152,44,20704,1,0
48,192,20889,1,0
152,276,21073,6,0,B|120:308,2,45,0|0|8
360,276,21442,2,0,B|392:308,2,45
256,192,21812,1,0
400,192,21996,2,0,B|448:116,1,90,8|0
112,192,22366,2,0,B|64:116,1,90
63,115,22642,1,0
63,115,22735,1,8
256,192,22919,6,0,B|256:280,1,90
380,332,23289,1,0
132,332,23473,1,8
400,192,23658,1,0
112,192,23842,1,0
380,52,24027,6,0,B|424:36,2,45,0|0|8
132,52,24396,2,0,B|88:36,2,45
256,128,24766,2,0,B|256:36,1,90
256,256,25135,2,0,B|256:348,1,90,2|0
164,236,25504,2,0,B|128:264,2,45
348,236,25873,2,0,B|384:264,2,45
168,52,26242,6,0,B|90:98,1,90,2|0
90,98,26612,1,0
344,51,26796,2,0,B|421:98,1,90,0|2
421,98,27166,1,0
108,240,27350,6,0,B|106:287|134:324,1,90,0|4
404,240,27719,2,0,B|406:287|378:324,1,90,0|2
256,128,28089,2,0,B|256:36,2,90,0|2|0
256,264,28642,1,2
256,264,28827,1,0
168,164,29012,6,0,B|100:100,1,90,14|0
52,228,29381,1,0
140,328,29566,1,0
176,340,29658,2,0,B|236:360|312:344,1,135
388,236,30119,1,0
472,340,30304,1,0
388,236,30489,2,0,B|388:148,1,90,10|0
288,56,30858,1,0
152,56,31042,1,0
116,60,31135,2,0,B|64:76|32:104|16:148,1,135
144,196,31596,5,0
280,196,31781,1,0
212,312,31966,1,10
76,312,32150,1,0
144,196,32335,2,0,B|146:169|155:150|175:141|200:136,1,90
332,116,32704,2,0,B|330:89|321:70|301:61|276:56,1,90
280,196,33073,1,0
352,312,33258,1,0
416,196,33442,1,10
352,312,33627,6,0,B|440:332,1,90,2|0
416,196,33996,2,0,B|456:112,1,90,2|0
336,52,34366,1,2
300,52,34458,2,0,B|165:52,1,135
60,136,34919,5,2
336,52,35289,1,2
191,304,35658,2,2,B|224:264|240:223|224:183|190:141,1,180,2|2
190,143,36396,5,14
84,224,36581,1,0
192,304,36766,1,0
328,304,36950,1,0
364,304,37042,2,0,B|408:304|452:276|468:232,1,135
348,168,37504,1,0
448,76,37689,1,0
348,168,37873,2,0,B|276:224,1,90,10|0
256,88,38243,1,0
124,52,38427,1,0
124,52,38519,2,0,B|76:80|60:116|68:168,1,135
124,288,38981,6,0,B|152:250|150:203,1,90
264,272,39350,2,0,B|301:300|348:298,1,90,10|0
460,224,39719,2,0,B|422:196|375:198,1,90
344,184,39996,2,0,B|304:156|304:104|340:64,1,135
464,120,40458,1,0
344,184,40643,1,0
236,100,40827,2,0,B|152:72|56:92,1,180,10|2
58,292,41566,2,0,B|152:312|236:284,1,180,4|6
372,292,42119,2,0,B|408:324,2,45,0|0|8
424,168,42489,5,0
304,104,42673,2,0,B|306:77|315:58|335:49|361:46,1,90
424,168,43043,2,2,B|388:196|344:204|296:188,2,135,6|2|2
116,72,43966,5,2
56,192,44150,1,0
60,228,44243,1,0
68,264,44335,1,0
160,360,44519,1,2
220,240,44704,1,2
216,204,44796,1,0
208,168,44889,1,0
304,72,45073,1,2
424,132,45258,2,0,B|422:159|413:178|393:187|367:190,1,90,2|0
452,296,45627,5,0
316,300,45812,1,0
180,300,45996,1,2
32,164,46273,1,2
184,28,46550,1,2
180,164,46735,5,2
180,164,46827,1,0
180,164,46919,1,0
340,84,47104,2,0,B|416:36,1,90,8|0
496,196,47473,1,0
340,84,47658,1,0
404,252,47843,2,0,B|428:340,1,90,0|2
248,316,48212,2,0,B|160:340,1,90,2|0
180,164,48581,5,8
248,316,48766,1,0
100,212,48950,2,0,B|24:160,1,90
168,64,49319,1,0
236,220,49504,1,2
340,84,49689,2,0,B|428:48,1,90,2|0
340,300,50058,2,0,B|428:336,1,90,8|0
328,192,50427,1,4
328,192,51166,5,6
164,84,51350,1,0
164,300,51535,1,0
428,96,51719,2,0,B|390:68|343:70,1,90
343,314,52089,2,0,B|390:316|428:288,1,90,0|8
204,192,52458,2,0,B|24:192,1,180
140,60,53012,1,8
312,105,53196,2,0,B|335:146|328:192,1,90
112,356,53566,2,0,B|88:314|96:269,1,90,0|8
228,300,53935,6,0,B|408:300,1,180,4|0
484,188,54489,1,8
448,56,54673,1,0
448,56,54766,2,0,B|414:90|397:135|396:179,1,135
256,64,55227,1,8
96,140,55412,2,0,B|73:99|81:54,1,90,0|2
256,64,55781,1,0
256,320,55966,1,8
175,211,56150,2,0,B|216:179|257:163|297:179|338:212,1,180
338,212,56704,1,8
176,212,57073,6,0,B|100:260,1,90,6|0
338,212,57442,2,0,B|332:156|312:124,1,90,8|0
208,320,57812,2,0,B|256:336|296:320,1,90
92,200,58181,1,8
92,200,58366,1,2
92,200,58735,5,0
264,276,58919,1,8
448,184,59104,2,0,B|415:144|399:103|415:63|448:22,1,180,2|0
340,103,59658,1,8
232,28,59843,2,0,B|265:69|281:109|265:150|232:190,1,180,4|0
116,116,60396,2,0,B|99:136|91:156|99:177|115:197,1,90,8|0
140,224,60673,2,0,B|180:252|180:308|148:343,1,135,2|0
28,280,61135,1,8
148,343,61319,1,0
328,336,61504,6,0,B|373:344|414:321,1,90,2|0
414,62,61873,2,0,B|373:39|328:48,1,90,10|0
160,192,62243,2,0,B|340:192,1,180,2|8
160,192,62981,5,4
256,192,76273,12,0,77381
444,60,77750,6,0,B|384:128,1,90,14|0
248,116,78119,2,0,B|308:184,1,90
336,204,78396,2,0,B|382:197|426:219|445:264,1,135
328,308,78858,1,0
307,183,79043,1,0
172,184,79227,2,0,B|146:186|126:195|117:214|115:241,1,90,10|0
240,300,79596,1,0
307,183,79781,1,0
328,152,79873,2,0,B|352:112|392:92|440:88,1,135
440,224,80335,6,0,B|440:312,1,90
316,264,80704,1,10
188,224,80889,2,0,B|188:128,1,90
80,48,81258,1,0
80,84,81350,2,0,B|80:220,1,135
132,344,81812,1,0
268,344,81996,1,0
404,344,82181,2,0,B|437:304|453:263|437:223|404:182,1,180,10|8
332,68,82735,6,0,B|424:68,1,90,2|0
180,68,83104,2,0,B|88:68,1,90,2|8
256,136,83473,1,0
256,136,83658,5,2
72,332,84027,1,2
72,332,84396,2,2,B|32:300|24:256|64:216,2,135,2|2|0
192,272,85135,5,14
316,216,85319,2,0,B|344:261|327:300,1,90
192,272,85689,1,0
192,236,85781,2,0,B|192:188|212:148|248:116,1,135
376,152,86242,1,0
488,76,86427,2,0,B|462:28|420:23,1,90,0|10
376,152,86796,1,0
432,276,86981,2,0,B|475:270|500:223,1,90
500,188,87258,2,0,B|464:156|416:140|376:152,1,135
240,156,87719,6,0,B|152:156,1,90
252,68,88089,1,10
116,68,88273,2,0,B|28:68,1,90
24,204,88642,1,0
24,240,88735,2,0,B|24:284|52:324|96:352,1,135
228,352,89196,2,0,B|267:334|278:282,1,90
160,216,89566,1,10
288,88,89750,6,0,B|255:58|203:69,1,90,0|0
324,204,90119,2,0,B|356:233|408:222,1,90,2|0
464,52,90489,1,2
288,88,90673,1,8
460,148,90858,1,0
288,88,91042,6,0,B|200:88,1,90,14|0
64,88,91412,1,0
144,196,91596,1,0
84,316,91781,2,2,B|112:341|143:353|172:343|203:318,2,135
144,196,92519,5,0
288,88,92704,2,0,B|320:58|372:68,1,90,0|8
460,280,93073,2,0,B|427:309|375:299,1,90,8|0
188,104,93442,1,0
52,280,93627,2,0,B|84:309|136:299,1,90,8|0
332,212,93996,2,0,B|299:182|247:192,1,90,8|0
112,184,94366,5,0
112,184,94550,1,0
112,184,94735,2,2,B|76:152|68:100|84:60,2,135,2|2|2
192,348,95473,2,0,B|221:315|211:263,1,90,2|0
40,212,95842,5,8
224,128,96027,2,0,B|224:80|187:49,1,90,2|2
296,192,96396,1,0
436,64,96581,2,0,B|394:39|349:56,1,90,8|0
296,192,96950,2,0,B|337:216|382:199,1,90,2|0
168,280,97319,1,8
132,280,97412,1,0
96,280,97504,1,2
344,280,97689,1,2
380,280,97781,1,0
416,280,97873,1,0
352,112,98058,5,8
256,264,98242,1,0
160,112,98427,1,0
256,264,98612,1,2
352,112,98796,1,8
256,264,98981,2,0,B|256:352,1,90,8|6
256,80,99904,5,6
140,264,100089,2,0,B|88:336,1,90,0|8
372,264,100458,2,0,B|424:336,1,90
448,136,100827,2,0,B|473:94|456:49,1,90,0|8
256,80,101196,2,0,B|172:52|76:72,1,180
212,272,101750,1,8
348,120,101935,2,0,B|373:78|356:33,1,90
328,220,102304,2,0,B|360:256|408:254,1,90,0|8
240,192,102673,6,0,B|156:164|60:184,1,180,4|0
120,308,103227,1,8
256,308,103412,1,0
292,308,103504,2,0,B|428:308,1,135
416,128,103966,2,0,B|414:79|375:50,1,90,8|0
136,51,104335,2,0,B|97:79|96:128,1,90,2|0
256,308,104704,1,8
256,172,104889,2,0,B|248:164|248:164|264:156|264:156|248:148|248:148|264:140|264:140|248:132|248:132|264:124|264:124|248:116|248:116|264:108|264:108|248:100|248:100|264:92|264:92|248:84|248:84|264:76|264:76|248:68|248:68|264:60|264:60|248:52|248:52|264:48,1,270,0|8
256,172,105812,5,6
408,252,105996,2,0,B|444:276|444:276|444:322,1,90,0|8
103,252,106366,2,0,B|68:276|68:276|68:322,1,90
256,172,106735,1,0
421,96,106919,2,0,B|419:71|410:51|391:42|364:40,1,90,8|2
216,288,107289,2,0,B|260:308|304:288,1,90,0|0
256,172,107658,1,8
90,96,107842,2,0,B|93:71|102:51|121:42|147:40,1,90,0|0
256,172,108212,2,0,B|256:260,1,90,0|8
432,312,108581,6,0,B|465:272|481:231|465:191|432:150,1,180,4|0
316,84,109135,2,0,B|272:68|228:76,1,90,8|0
192,92,109412,2,0,B|152:116|136:160|148:212,1,135
324,248,109873,2,0,B|360:217|360:169,1,90,8|0
116,48,110242,2,0,B|79:78|79:126,1,90,2|0
256,172,110612,1,8
436,52,110796,2,0,B|469:93|485:133|469:174|436:214,1,180
256,316,111350,1,8
256,316,111719,5,6
92,240,111904,2,0,B|55:270|55:318,1,90,0|8
256,172,112273,1,0
108,72,112458,2,0,B|78:35|30:35,1,90
256,172,112827,1,8
456,72,113012,2,0,B|488:113|504:153|488:194|455:234,1,180
308,56,113566,1,8
368,224,113750,2,0,B|342:269|311:299|267:300|217:284,1,180
96,64,114304,6,0,B|59:94|59:142,1,90,8|0
96,336,114673,2,0,B|133:306|133:258,1,90,2|0
280,152,115042,1,8
348,320,115227,1,0
372,144,115412,1,0
264,288,115596,1,0
440,248,115781,2,0,B|352:232,1,90,8|0
220,76,116150,5,2
168,272,116335,1,0
300,116,116519,1,8
116,200,116704,1,0
360,312,116889,1,8
336,44,117073,1,8
116,200,117258,1,8
384,176,117442,1,8
120,52,117627,6,0,B|75:69|60:114,1,90,6|0
248,268,117996,2,0,B|292:250|307:205,1,90,8|0
144,284,118366,2,0,B|99:301|84:346,1,90
367,283,118735,2,0,B|412:301|427:347,1,90,8|0
427,347,119289,5,2
424,168,119473,1,8
292,48,119658,1,0
292,48,120027,2,0,B|204:48,1,90,0|8
52,144,120396,2,0,B|142:144,1,90,0|2
292,244,120766,2,0,B|202:244,1,90,0|8
56,348,121135,2,0,B|146:348,1,90
328,344,121504,6,0,B|373:328|390:283,1,90,0|8
232,196,121873,1,0
384,100,122058,2,0,B|366:54|321:39,1,90,2|0
232,196,122427,1,8
140,44,122612,2,0,B|94:59|77:104,1,90
232,196,122981,1,0
76,288,123166,2,0,B|93:333|138:348,1,90,8|0
232,196,123535,1,4
256,192,139781,5,4
416,64,141258,6,0,B|416:152,1,90,4|0
324,252,141627,1,0
272,128,141812,1,0
152,68,141996,2,2,B|116:39|71:32|24:41,2,135
60,168,142735,2,0,B|77:213|122:228,1,90,2|8
432,288,143104,6,0,B|415:333|370:348,1,90
432,96,143473,2,0,B|415:51|370:36,1,90,2|8
280,192,143842,2,0,B|297:237|342:252,1,90,8|0
244,100,144212,2,0,B|199:117|184:162,1,90,8|0
88,260,144581,1,0
88,260,144766,1,0
204,324,144950,2,2,B|340:324,2,135
88,260,145689,5,2
88,260,145873,1,0
328,236,146058,2,0,B|416:216,2,90,8|0|0
88,260,146612,1,8
88,260,146796,1,0
296,136,146981,2,0,B|368:84,2,90,0|2|0
88,260,147535,1,8
88,260,147719,1,0
380,324,147904,6,0,B|422:301|431:255,1,90,0|8
296,136,148273,2,0,B|253:158|244:204,1,90,0|0
388,96,148642,2,0,B|365:53|319:44,1,90,0|10
88,260,149012,2,0,B|110:302|156:311,1,90
256,192,149381,1,12
80,120,150119,6,0,B|92:76|132:48,1,90,6|0
432,120,150489,2,0,B|420:76|380:48,1,90,8|0
424,276,150858,1,0
180,280,151042,2,0,B|135:297|120:342,1,90,0|8
424,276,151412,2,0,B|359:215|264:192,1,180
304,324,151966,1,8
168,55,152150,2,0,B|117:68|80:92|70:134|72:187,1,180
432,68,152889,5,12
432,68,153258,1,2
296,68,153442,1,8
404,152,153627,1,0
432,176,153719,2,0,B|476:208|488:244|484:292,1,135
140,264,154181,2,0,B|98:286|89:332,1,90,8|0
304,312,154550,1,2
180,132,154735,2,0,B|158:90|112:81,1,90,0|8
296,68,155104,2,0,B|323:112|334:154|313:193|276:228,1,180
52,328,155658,1,8
52,328,156027,6,0,B|140:328,1,90,6|0
420,160,156396,2,0,B|376:240,1,90,8|0
56,68,156766,2,0,B|100:148,1,90
256,56,157135,1,8
176,164,157319,2,0,B|216:197|257:213|297:197|338:164,1,180
256,56,157873,1,8
168,296,158058,2,0,B|261:319|345:294,1,180
345,294,158796,5,12
64,76,159166,1,2
180,148,159350,1,8
292,72,159535,1,0
324,56,159627,2,0,B|368:36|412:36|456:56,1,135
296,184,160089,2,0,B|286:231|244:253,1,90,8|0
412,184,160458,2,0,B|421:231|463:253,1,90,2|0
232,112,160827,1,8
64,52,161012,2,0,B|31:92|15:133|31:173|64:214,1,180
164,308,161566,1,8
200,316,161658,1,0
236,320,161750,1,0
272,316,161842,1,0
308,312,161935,6,0,B|355:315|388:280,1,90,6|0
356,104,162304,1,8
156,104,162489,2,0,B|112:123|99:170,1,90
356,104,162858,2,0,B|399:123|412:170,1,90,0|8
256,40,163227,2,0,B|256:220,1,180
92,284,163781,2,0,B|111:328|157:340,1,90,8|0
157,340,164335,5,0
360,324,164519,1,8
396,320,164612,1,0
432,316,164704,1,0
160,200,164889,2,0,B|88:148,1,90,2|0
360,324,165258,1,8
256,148,165442,1,0
240,116,165535,1,0
224,84,165627,1,0
224,284,165812,6,0,B|205:327|158:340,1,90,0|8
344,192,166181,2,0,B|386:169|430:187,1,90,0|2
160,200,166550,1,0
336,104,166735,1,8
132,104,166919,1,0
336,104,167104,1,8
372,104,167196,1,0
408,104,167289,1,8
240,216,167473,1,8
260,248,167566,1,0
288,268,167658,1,8
132,104,167842,6,0,B|88:122|75:169,1,90,6|0
400,256,168212,2,0,B|443:237|456:190,1,90,8|0
168,324,168581,2,0,B|202:357|250:350,1,90
352,184,168950,1,8
164,224,169135,2,0,B|113:237|76:261|66:303|68:356,1,180
376,336,169689,2,0,B|464:336,1,90,8|0
256,192,170242,12,2,172273
124,192,172642,5,2
388,192,173012,1,12
