osu file format v14

[General]
AudioFilename: AtolsRemix.mp3
AudioLeadIn: 0
PreviewTime: -1
Countdown: 0
SampleSet: Soft
StackLeniency: 0.2
Mode: 0
LetterboxInBreaks: 1
WidescreenStoryboard: 0

[Editor]
Bookmarks: 87029,114457,141886,169315,183029,192350
DistanceSpacing: 0.8
BeatDivisor: 4
GridSize: 4
TimelineZoom: 3.199999

[Metadata]
Title:Omega (AtolsRemix)
TitleUnicode:Ω (AtolsRemix)
Artist:ATOLS
ArtistUnicode:ATOLS
Creator:rrtyui
Version:
Source:
Tags:Dubstep ATOLS/MIKU
BeatmapID:637823
BeatmapSetID:281975

[Difficulty]
HPDrainRate:6
CircleSize:3
OverallDifficulty:8
ApproachRate:9.5
SliderMultiplier:3.03
SliderTickRate:1

[Events]
//Background and Video events
0,0,"BG.jpg",0,0
//Break Periods
//Storyboard Layer 0 (Background)
//Storyboard Layer 1 (Fail)
//Storyboard Layer 2 (Pass)
//Storyboard Layer 3 (Foreground)
//Storyboard Sound Samples

[TimingPoints]
61315,428.571428571429,4,2,1,20,1,0
61743,-100,4,2,1,25,0,0
62172,-100,4,2,1,30,0,0
62600,-100,4,2,1,40,0,0
62743,-100,4,2,1,50,0,0
62886,-100,4,2,1,60,0,0
63029,-100,4,2,1,50,0,0
63457,-100,4,2,1,45,0,0
64886,-100,4,2,1,50,0,0
65172,-100,4,2,1,45,0,0
65315,-100,4,2,1,50,0,0
65600,-100,4,2,1,45,0,0
65743,-100,4,2,1,55,0,0
65886,-100,4,2,1,60,0,0
66029,-100,4,2,1,50,0,0
66172,-100,4,2,1,65,0,0
66315,-100,4,2,1,60,0,0
66457,-100,4,2,1,50,0,0
66886,-100,4,2,1,45,0,0
67315,-100,4,2,1,43,0,0
69029,-100,4,2,1,45,0,0
69886,-100,4,2,20,45,0,0
70743,-100,4,2,21,45,0,0
71600,-100,4,2,22,50,0,0
72457,-100,4,2,23,50,0,0
72886,-100,4,2,23,50,0,0
73315,-66.6666666666667,4,2,1,60,0,0
74172,-100,4,2,1,60,0,0
74600,-50,4,2,1,60,0,0
75029,-200,4,2,1,60,0,0
75886,-66.6666666666667,4,2,1,60,0,0
76315,-33.3,4,2,1,60,0,0
76743,-100,4,2,1,60,0,0
77600,-113.636363636364,4,2,1,55,0,0
78457,-131.578947368421,4,2,1,50,0,0
79315,-156.25,4,2,1,45,0,0
80172,-200,4,2,1,58,0,0
80600,-200,4,2,1,60,0,0
81029,-200,4,2,1,62,0,0
81457,-200,4,2,1,64,0,0
81886,-200,4,2,1,66,0,0
82315,-200,4,2,1,68,0,0
82743,-200,4,2,1,70,0,0
83600,-200,4,2,2,70,0,0
83707,-200,4,2,2,55,0,0
83815,-200,4,2,2,70,0,0
83922,-200,4,2,2,55,0,0
84029,-200,4,2,2,70,0,0
84136,-200,4,2,2,55,0,0
84243,-200,4,2,2,70,0,0
84350,-200,4,2,2,55,0,0
84457,-200,4,2,2,70,0,0
84565,-200,4,2,2,55,0,0
84672,-200,4,2,2,70,0,0
84779,-200,4,2,2,55,0,0
84886,-100,4,1,1,50,0,0
85315,-172.413793103448,4,2,0,30,0,0
85386,-172.413793103448,4,2,0,60,0,0
86600,-57.4712643678161,4,1,1,40,0,0
86743,-57.4712643678161,4,1,1,60,0,0
87029,-80,4,2,5,60,0,0
87350,-80,4,2,5,5,0,0
87457,-57.1428571428571,4,1,0,60,0,0
87886,-57.1428571428571,4,2,5,60,0,0
88315,-50,4,2,6,35,0,0
88368,-50,4,2,6,60,0,0
88743,-57.1428571428571,4,2,5,60,0,0
88957,-80,4,2,5,5,0,0
89172,-66.6666666666667,4,2,5,60,0,0
89600,-133.333333333333,4,2,5,60,0,0
90457,-66.6666666666667,4,2,5,60,0,0
90557,-71.4285714285714,4,2,5,60,0,0
91315,-76.9230769230769,4,2,5,60,0,0
91529,-66.6666666666667,4,2,5,60,0,0
91672,-133.333333333333,4,2,5,60,0,0
92172,-66.6666666666667,4,2,5,60,0,0
92600,-50,4,2,5,60,0,0
93029,-33.3,4,2,5,60,0,0
93136,-33.3,4,2,0,60,0,0
93243,-50,4,2,0,60,0,0
93457,-100,4,2,0,60,0,0
93672,-80,4,2,5,60,0,0
94207,-80,4,2,0,5,0,0
94315,-57.1428571428571,4,1,5,60,0,0
95172,-36.3,4,2,5,60,0,0
95315,-36.3,4,2,5,5,0,0
95386,-100,4,2,60,60,0,0
95529,-100,4,2,5,5,0,0
95600,-57.1428571428571,4,2,5,60,0,0
96029,-80,4,2,5,60,0,0
96457,-133.333333333333,4,2,5,60,0,0
97315,-57.1428571428571,4,2,5,60,0,0
97672,-66.6666666666667,4,2,5,60,0,0
98172,-76.9230769230769,4,2,5,60,0,0
98529,-133.333333333333,4,2,5,60,0,0
99029,-66.6666666666667,4,2,5,60,0,0
99457,-36.3,4,2,5,60,0,0
100743,-100,4,2,5,60,0,0
101172,-66.6666666666667,4,1,5,60,0,0
101600,-66.6666666666667,4,2,5,60,0,0
102029,-50,4,2,6,35,0,0
102082,-50,4,2,6,60,0,0
102457,-66.6666666666667,4,2,5,60,0,0
103315,-200,4,2,5,60,0,0
104172,-66.6666666666667,4,2,5,60,0,0
105386,-133.333333333333,4,2,5,60,0,0
105886,-66.6666666666667,4,2,5,60,0,0
106315,-50,4,2,5,60,0,0
106743,-33.3,4,2,5,60,0,0
106850,-33.3,4,2,0,60,0,0
106957,-50,4,2,0,60,0,0
107172,-100,4,2,0,60,0,0
107386,-100,4,2,5,60,0,0
108029,-66.6666666666667,4,1,5,60,0,0
108457,-66.6666666666667,4,2,5,60,0,0
108886,-36.3,4,2,5,60,0,0
109100,-133.333333333333,4,2,60,60,0,0
109315,-57.1428571428571,4,2,5,60,0,0
109743,-100,4,2,5,60,0,0
110172,-200,4,2,5,60,0,0
111029,-80,4,2,5,60,0,0
111886,-66.6666666666667,4,2,5,60,0,0
112100,-57.1428571428571,4,2,5,60,0,0
112207,-57.1428571428571,4,1,5,60,0,0
112386,-57.1428571428571,4,2,5,60,0,0
112743,-133.333333333333,4,1,5,60,0,0
113600,-20,4,2,5,60,0,0
114457,-100,4,2,10,60,0,0
120457,-100,4,2,10,60,0,0
120779,-100,4,2,10,5,0,0
120886,-66.6666666666667,4,2,10,60,0,0
121207,-100,4,2,10,5,0,0
121315,-100,4,2,10,60,0,0
121743,-100,4,2,10,5,0,0
122172,-100,4,2,10,60,0,0
122600,-100,4,2,10,5,0,0
123029,-100,4,2,10,60,0,0
123457,-100,4,2,10,5,0,0
123886,-100,4,2,10,60,0,0
124743,-100,4,2,10,60,0,0
125172,-100,4,2,10,5,0,0
125600,-100,4,2,10,60,0,0
126029,-100,4,2,10,5,0,0
126457,-100,4,2,10,60,0,0
128172,-200,4,2,10,60,0,0
133100,-200,4,2,0,30,0,0
133315,-200,4,2,10,60,0,0
134815,-166.666666666667,4,2,10,60,0,0
138457,-200,4,2,10,60,0,0
138565,-200,4,2,1,5,0,0
141886,-66.6666666666667,4,2,15,60,0,0
143172,-133.333333333333,4,2,15,60,0,0
143600,-66.6666666666667,4,2,15,60,0,0
144886,-100,4,2,15,60,0,0
145315,-50,4,2,15,60,0,0
145636,-133.333333333333,4,2,15,60,0,0
145957,-66.6666666666667,4,2,15,60,0,0
147457,-50,4,2,15,60,0,0
147886,-66.6666666666667,4,2,15,60,0,0
149172,-200,4,2,15,60,0,0
149493,-80,4,2,15,60,0,0
149600,-66.6666666666667,4,2,15,60,0,0
150029,-133.333333333333,4,2,15,60,0,0
150457,-66.6666666666667,4,2,15,60,0,0
151743,-66.6666666666667,4,1,0,60,0,0
152172,-66.6666666666667,4,2,15,60,0,0
154529,-50,4,2,15,60,0,0
154743,-66.6666666666667,4,2,15,60,0,0
155172,-133.333333333333,4,2,15,60,0,0
155386,-66.6666666666667,4,2,15,60,0,0
156457,-50,4,2,15,60,0,0
156779,-66.6666666666667,4,2,15,60,0,0
156886,-133.333333333333,4,2,15,60,0,0
157315,-66.6666666666667,4,2,15,60,0,0
158600,-100,4,2,15,60,0,0
159029,-50,4,2,15,60,0,0
159350,-133.333333333333,4,2,15,60,0,0
159672,-66.6666666666667,4,2,15,60,0,0
161172,-50,4,2,15,60,0,0
161600,-66.6666666666667,4,2,15,60,0,0
162457,-100,4,2,15,60,0,0
162886,-200,4,2,15,60,0,0
163207,-80,4,2,15,60,0,0
163315,-57.1428571428571,4,2,15,60,0,0
163743,-133.333333333333,4,2,15,60,0,0
164172,-66.6666666666667,4,2,15,60,0,0
165457,-66.6666666666667,4,1,0,60,0,0
165886,-66.6666666666667,4,2,15,60,0,0
167065,-200,4,2,15,60,0,0
167172,-66.6666666666667,4,2,15,60,0,0
169315,-100,4,2,15,60,0,0
170493,-100,4,2,15,25,0,0
170600,-100,4,2,15,60,0,0
174672,-66.6666666666667,4,2,15,60,0,0
174886,-133.333333333333,4,2,15,60,0,0
175100,-80,4,2,15,60,0,0
175957,-66.6666666666667,4,1,15,35,0,0
176065,-66.6666666666667,4,1,15,60,0,0
176172,-80,4,2,15,60,0,0
176279,-80,4,2,15,40,0,0
176386,-80,4,2,15,30,0,0
176493,-80,4,2,15,20,0,0
176600,-80,4,2,15,60,0,0
177029,-111.111111111111,4,2,15,60,0,0
177350,-111.111111111111,4,2,15,40,0,0
177457,-111.111111111111,4,2,15,60,0,0
178315,-100,4,2,15,60,0,0
179886,-133.333333333333,4,1,15,40,0,0
180002,-133.333333333333,4,2,15,60,0,0
180243,-100,4,2,15,60,0,0
182600,-66.6666666666667,4,2,15,60,0,0
182815,-66.6666666666667,4,2,15,45,0,0
182922,-66.6666666666667,4,2,15,60,0,0
183029,-200,4,2,15,60,0,0
186779,-200,4,1,15,25,0,0
186886,-200,4,2,15,60,0,0
189645,-200,4,2,15,5,0,0
189672,-133.333333333333,4,1,15,25,0,0
189779,-133.333333333333,4,1,15,60,0,0
189886,-200,4,2,15,60,0,0
195457,-100,4,2,15,60,0,0
195886,-200,4,2,15,60,0,0
196315,-50,4,2,15,40,0,0
196529,-100,4,1,15,30,0,0
196636,-100,4,1,15,30,0,0

[Colours]
Combo1 : 255,94,55
Combo2 : 173,255,95
Combo3 : 255,88,100
Combo4 : 17,254,176

[HitObjects]
328,56,61315,5,0,0:0:0:0:
330,68,61457,5,0,0:0:0:0:
336,79,61600,5,0,0:0:0:0:
344,88,61743,5,0,0:0:0:0:
354,96,61886,5,0,0:0:0:0:
365,101,62029,5,0,0:0:0:0:
377,104,62172,5,0,0:0:0:0:
390,103,62315,5,0,0:0:0:0:
402,100,62457,5,0,0:0:0:0:
413,94,62600,5,0,0:0:0:0:
494,49,62743,1,0,0:0:0:0:
490,138,62886,1,0,0:0:0:0:
413,93,63029,6,0,L|444:296,1,202,2|0,0:0|0:0,0:0:0:0:
60,340,63457,5,2,0:0:0:0:
158,323,63599,1,0,0:0:0:0:
235,259,63742,1,0,0:0:0:0:
256,168,63886,5,2,0:0:0:0:
279,260,64029,1,0,0:0:0:0:
356,323,64172,1,0,0:0:0:0:
454,339,64315,5,2,0:0:0:0:
380,224,64457,1,0,0:0:0:0:
413,94,64600,1,0,0:0:0:0:
494,49,64743,5,2,0:0:0:0:
324,68,64886,1,0,0:0:0:0:
154,87,65029,1,0,0:0:0:0:
413,94,65172,5,2,0:0:0:0:
239,76,65315,1,0,0:0:0:0:
69,57,65458,1,0,0:0:0:0:
109,190,65600,5,2,0:0:0:0:
116,220,65743,1,0,0:0:0:0:
104,164,65886,1,0,0:0:0:0:
84,72,66029,5,2,0:0:0:0:
80,196,66172,1,0,0:0:0:0:
76,320,66315,1,0,0:0:0:0:
139,184,66457,5,2,0:0:0:0:
109,190,66600,1,0,0:0:0:0:
80,196,66743,1,0,0:0:0:0:
316,316,66886,1,2,0:0:0:0:
310,286,67029,1,0,0:0:0:0:
304,257,67172,1,0,0:0:0:0:
208,257,67315,1,2,0:0:0:0:
202,286,67458,1,0,0:0:0:0:
196,316,67601,1,0,0:0:0:0:
373,184,67743,1,2,0:0:0:0:
403,190,67886,1,0,0:0:0:0:
432,196,68029,1,0,0:0:0:0:
448,40,68172,6,0,P|400:56|344:56,1,101,2|0,0:0|0:0,0:0:0:0:
264,8,68457,1,0,0:0:0:0:
292,208,68600,2,0,P|260:152|252:112,1,101,2|0,0:0|0:0,0:0:0:0:
240,12,68886,1,0,0:0:0:0:
140,67,69029,6,0,P|99:96|68:136,1,101,2|0,0:0|0:0,0:0:0:0:
240,12,69315,1,0,0:0:0:0:
252,116,69457,2,0,P|265:165|292:208,1,101,2|0,0:0|0:0,0:0:0:0:
403,190,69743,1,0,0:0:0:0:
464,68,69886,6,0,P|528:56|472:128,1,202,2|0,3:0|0:0,0:0:0:0:
364,88,70315,1,10,3:0:0:0:
268,44,70457,1,0,0:0:0:0:
168,44,70600,1,0,0:0:0:0:
64,104,70743,6,0,P|24:172|8:88,1,202,10|0,3:0|0:0,0:0:0:0:
56,272,71172,2,0,B|24:228|24:176|24:176|20:228|-24:264,1,202,10|0,3:0|0:0,0:0:0:0:
128,192,71600,6,0,P|184:212|144:132,1,202,10|0,3:0|0:0,0:0:0:0:
156,320,72029,1,10,3:0:0:0:
276,344,72172,1,0,0:0:0:0:
392,312,72315,1,0,0:0:0:0:
460,196,72457,6,0,P|444:132|512:184,1,202,10|0,3:0|0:0,0:0:0:0:
424,24,72886,2,0,B|424:72|472:108|472:108|496:52|469:10,1,202,10|0,3:0|0:0,0:0:0:0:
344,96,73315,6,0,B|188:140|212:52|44:88,1,303.000011558533,14|0,0:0|0:0,0:0:0:0:
168,288,73743,2,0,B|324:244|300:332|468:296,1,303.000011558533,14|0,0:0|0:0,0:0:0:0:
480,160,74172,6,0,P|412:220|466:297,1,202,14|0,0:0|0:0,0:0:0:0:
32,224,74600,2,0,P|100:163|46:86,2,202,14|0|0,0:0|0:0|0:0,0:0:0:0:
392,160,75029,6,0,P|352:152|292:152,1,101,14|0,0:0|0:0,0:0:0:0:
124,224,75457,2,0,P|164:233|224:233,1,101,14|0,0:0|0:0,0:0:0:0:
72,44,75886,6,0,L|44:348,1,303.000011558533,14|0,0:0|0:0,0:0:0:0:
440,44,76315,2,0,L|468:348,1,303.000011558533,14|0,0:0|0:0,0:0:0:0:
440,44,76600,1,0,0:0:0:0:
129,346,76743,6,0,B|125:294|100:254|100:254|117:210|101:138,1,202,14|0,0:0|0:0,0:0:0:0:
383,38,77172,2,0,B|387:90|411:129|411:129|395:174|411:246,1,202,14|0,0:0|0:0,0:0:0:0:
21,248,77600,6,0,P|116:241|190:280,1,177.760005424805,14|0,0:0|0:0,0:0:0:0:
491,136,78029,2,0,P|396:143|322:104,1,177.760005424805,14|0,0:0|0:0,0:0:0:0:
168,22,78457,6,0,P|176:96|145:168,1,153.519998125977,14|0,0:0|0:0,0:0:0:0:
344,361,78886,2,0,P|336:288|367:216,1,153.519998125977,14|0,0:0|0:0,0:0:0:0:
44,232,79315,6,0,L|60:360,1,129.28,14|0,0:0|0:0,0:0:0:0:
468,152,79743,2,0,L|452:24,1,129.28,14|0,0:0|0:0,0:0:0:0:
451,23,80172,5,8,0:0:0:0:
344,40,80386,1,8,0:0:0:0:
348,172,80600,1,8,0:0:0:0:
204,96,80815,1,8,0:0:0:0:
144,244,81029,1,8,0:0:0:0:
48,88,81243,1,8,0:0:0:0:
144,244,81457,2,0,P|152:292|148:336,1,75.75,8|8,0:0|0:0,0:0:0:0:
8,264,81886,5,8,0:0:0:0:
192,332,82100,1,8,0:0:0:0:
144,244,82315,1,8,0:0:0:0:
504,264,82529,1,8,0:0:0:0:
320,332,82743,1,8,0:0:0:0:
368,244,82957,1,8,0:0:0:0:
256,112,83172,2,0,L|256:196,1,75.75,8|8,0:0|0:0,0:0:0:0:
256,20,83600,6,0,L|218:16,1,37.875,8|0,0:0|3:0,0:0:0:0:
418,132,83815,2,0,L|456:136,1,37.875,8|0,0:0|3:0,0:0:0:0:
256,112,84029,2,0,L|218:108,1,37.875,8|0,0:0|3:0,0:0:0:0:
418,40,84243,2,0,L|456:44,1,37.875,8|0,0:0|3:0,0:0:0:0:
456,228,84457,6,0,L|418:224,1,37.875,8|0,0:0|3:0,0:0:0:0:
256,204,84672,2,0,L|218:200,1,37.875,8|0,0:0|3:0,0:0:0:0:
56,180,84886,2,2,L|18:176,3,37.875,8|8|0|8,2:0|2:0|3:0|2:0,0:0:0:0:
52,92,85100,2,2,L|14:88,3,37.875,8|8|0|8,2:0|2:0|3:0|2:0,0:0:0:0:
48,4,85315,6,0,L|56:180,2,175.740005363159,2|2|2,1:0|0:0|2:0,0:0:0:0:
48,4,86600,6,0,L|56:180,1,175.740001474869,0|0,0:0|2:0,0:0:0:0:
152,352,86815,2,2,L|144:176,1,175.740001474869,2|0,0:0|2:0,0:0:0:0:
268,32,87029,6,0,P|380:64|256:104,1,284.0625,14|0,3:0|0:0,0:0:0:0:
220,184,87457,2,2,P|76:252|208:268,1,397.687503792644,0|0,3:0|2:0,0:0:0:0:
264,340,87886,1,12,0:0:0:0:
264,340,88315,6,0,P|292:336|340:348,1,75.75,8|0,0:0|0:0,0:0:0:0:
484,205,88422,2,0,P|456:209|408:197,1,75.75,0|0,0:0|0:0,0:0:0:0:
252,240,88529,2,0,P|288:230|319:208,1,75.75,0|0,0:0|0:0,0:0:0:0:
495,304,88636,2,0,P|458:314|428:336,1,75.75,0|0,0:0|0:0,0:0:0:0:
356,120,88743,6,0,L|92:104,1,265.125002528429,10|0,3:0|0:0,0:0:0:0:
12,328,89172,2,0,B|68:340|132:296|140:239|140:239|140:296|196:352|248:344,1,340.87501300335,4|0,3:0|0:0,0:0:0:0:
252,240,89600,6,2,B|228:188|246:133|246:133|264:80|260:28|260:28|264:80|292:128|292:128|320:152|328:200|328:200,1,397.687515170575,12|0,0:0|0:0,0:0:0:0:
331,284,90457,6,2,B|315:312|290:323|290:323|382:362|382:362|476:348|476:348|456:326|446:299,1,303.000011558533,10|0,3:0|2:0,0:0:0:0:
400,232,90815,6,0,B|404:184|404:184|408:234|408:234|412:187,3,141.399995684815,2|2|2|2,2:0|2:0|2:0|2:0,0:0:0:0:
480,125,91315,6,0,P|422:88|346:119,1,131.299993989563,12|0,0:0|0:0,0:0:0:0:
296,171,91529,2,0,L|288:252,1,75.7500028896333,2|0,0:0|0:0,0:0:0:0:
275,79,91672,2,2,P|205:30|116:67,1,189.375007224083,2|0,0:0|0:0,0:0:0:0:
92,156,92172,6,0,P|44:128|24:76,1,113.62500433445,6|0,3:0|0:0,0:0:0:0:
192,128,92386,1,0,0:0:0:0:
192,128,92600,2,2,B|220:88|216:48|200:16|200:16|304:52|376:148|376:148|368:112|380:64|424:40,1,454.5,0|0,0:0|0:0,0:0:0:0:
480,126,93029,6,0,P|496:204|368:248,1,227.477482689236,12|2,0:0|3:0,0:0:0:0:
328,348,93243,2,0,P|252:320|232:220,1,151.5,2|0,3:0|3:0,0:0:0:0:
168,160,93457,2,0,P|212:144|268:156,1,75.75,0|2,3:0|3:0,0:0:0:0:
328,208,93672,1,8,0:0:0:0:
328,208,93886,6,0,B|418:242|490:170|490:170|456:180|420:172|390:146,1,284.0625,8|0,3:0|0:0,0:0:0:0:
464,72,94315,2,2,B|421:47|328:28|248:126|248:126|302:102|356:111|390:146,1,397.687503792644,0|0,3:0|2:0,0:0:0:0:
391,147,94743,1,12,2:0:0:0:
391,147,95172,6,0,B|436:172|492:164|519:129|519:129|486:109|430:113|391:147,1,278.236920448428
312,96,95386,2,0,P|296:136|312:196,1,101
388,244,95600,6,0,P|448:292|332:304,1,265.125002528429,10|0,3:0|0:0,0:0:0:0:
272,220,96029,2,0,B|215:229|215:229|178:223|178:223|90:238|90:238|57:258|57:258|-4:268,1,284.0625,4|0,3:0|0:0,0:0:0:0:
179,308,96457,6,2,B|195:246|169:164|126:128|126:128|92:176|80:265|122:320|122:320,1,397.687515170575,12|0,2:0|0:0,0:0:0:0:
128,128,97315,6,2,P|7:136|118:49,1,353.500003371239,10|0,3:0|0:0,0:0:0:0:
197,72,97672,6,0,B|223:66|223:66|221:92|221:92|225:42|225:42|223:66|223:66|248:77,3,151.500005779267,2|2|2|2,0:0|0:0|0:0|0:0,0:0:0:0:
368,135,98172,6,0,B|431:146|431:146|439:77,1,131.299993989563,12|0,2:0|0:0,0:0:0:0:
358,43,98386,2,0,B|344:14|344:14|312:20,1,65.6499969947816
285,103,98529,2,2,B|242:188|242:188|336:216,1,184.640632043481,2|0,0:0|0:0,0:0:0:0:
154,214,99029,6,0,P|106:233|37:227,1,113.62500433445,6|0,3:0|0:0,0:0:0:0:
86,134,99243,1,0,0:0:0:0:
185,116,99457,2,0,B|179:72|140:35|101:24|56:36|56:36|129:-6|236:0|276:84,1,417.355380672641,0|8,0:0|0:0,0:0:0:0:
86,134,99779,1,0,0:0:0:0:
86,134,99886,5,12,0:0:0:0:
48,232,100529,1,8,0:0:0:0:
152,216,100743,6,0,P|245:156|184:116,1,227.25,14|0,3:0|0:0,0:0:0:0:
152,216,101172,2,2,P|64:276|200:268,1,340.87501300335,0|0,3:0|2:0,0:0:0:0:
266,217,101600,5,12,0:0:0:0:
266,217,102029,6,0,P|304:212|336:188,1,75.75,8|0,0:0|0:0,0:0:0:0:
282,29,102136,2,0,P|326:37|348:66,1,75.75
500,40,102243,2,0,P|462:45|430:69,1,75.75
484,228,102350,2,0,P|440:220|418:191,1,75.75
384,128,102457,6,0,L|368:356,1,227.2500086689,10|0,3:0|0:0,0:0:0:0:
196,300,102886,2,0,B|108:292|108:292|28:328|28:328|193:348,1,340.87501300335,4|0,3:0|0:0,0:0:0:0:
280,332,103315,6,2,B|332:152|220:276|260:80,1,265.125,12|0,0:0|0:0,0:0:0:0:
344,44,104172,6,0,B|368:56|368:56|424:40|424:40|480:64|480:64|464:136|464:136|484:132|484:132|460:208,1,303.000011558533,10|0,3:0|0:0,0:0:0:0:
424,276,104529,2,0,B|440:312|440:312|436:348|436:348|440:312|440:312|468:284,3,151.500005779267,2|2|2|2,0:0|0:0|0:0|0:0,0:0:0:0:
379,195,105029,6,0,P|307:187|239:239,1,151.500005779267,12|0,0:0|0:0,0:0:0:0:
196,332,105243,2,0,P|228:348|240:312,1,75.7500028896333
160,248,105386,2,2,P|84:212|0:248,1,170.437506501675,2|0,0:0|0:0,0:0:0:0:
84,304,105886,6,0,P|104:257|96:196,1,113.62500433445,6|0,3:0|0:0,0:0:0:0:
8,144,106100,1,0,0:0:0:0:
12,360,106315,2,0,B|-20:316|0:264|0:264|24:208|0:152|0:152|-32:88|9:35|9:35|-18:85|8:144,1,454.5
96,88,106743,6,0,P|164:56|272:152,1,227.477482689236,12|2,0:0|3:0,0:0:0:0:
380,176,106957,2,0,P|332:264|240:224,1,151.5,2|0,3:0|3:0,0:0:0:0:
176,320,107172,2,0,P|168:284|184:216,1,75.75,0|2,0:0|3:0,0:0:0:0:
271,141,107386,1,8,0:0:0:0:
271,141,107600,6,0,P|175:189|166:94,1,227.25,12|0,3:0|0:0,0:0:0:0:
271,141,108029,2,2,P|364:177|338:17,1,340.87501300335,0|0,3:0|2:0,0:0:0:0:
248,40,108457,1,12,0:0:0:0:
248,40,108886,6,0,B|192:96|120:60|120:60|180:8|248:40,1,278.236920448428
348,28,109100,2,0,P|344:80|300:116,1,75.7500028896333
284,188,109315,6,0,L|20:172,1,265.125002528429,10|0,3:0|0:0,0:0:0:0:
284,188,109743,6,0,L|512:200,1,227.25,4|0,3:0|0:0,0:0:0:0:
440,24,110172,6,2,B|448:104|448:104|476:140|476:140|484:236|484:236|512:200,1,265.125,12|0,0:0|0:0,0:0:0:0:
510,202,111029,6,0,B|528:324|528:324|500:364|500:364|408:348,1,252.5,10|0,3:0|0:0,0:0:0:0:
356,284,111386,2,0,B|344:248|364:220|364:220|376:252|360:284,3,126.25,2|2|2|2,0:0|0:0|0:0|0:0,0:0:0:0:
272,328,111886,2,0,L|144:312,1,113.62500433445,12|0,0:0|0:0,0:0:0:0:
56,252,112100,6,2,B|-12:220|-4:140|12:108|68:80|140:92|152:112|172:168|156:200|144:228|92:240|68:216|32:212|40:164|92:160,1,441.875004214048,2|0,0:0|0:0,0:0:0:0:
80,162,112529,2,2,B|112:153|112:153|144:165|144:165|176:157|176:157|212:173,1,132.562501264215
320,192,112743,6,2,B|339:190|339:190|357:186|357:186|375:185|375:185|394:181|394:181|413:179|413:179|431:176|431:176|450:174|450:174|469:171|469:171|487:169,2,170.437506501675,10|6|6,3:0|3:0|3:0,0:0:0:0:
244,252,113600,6,0,B|251:317|251:317|247:282|247:282|217:287|217:287|277:278|277:278|247:282|247:282|244:252,8,252.5,14|2|2|2|2|2|2|2|2,0:0|0:0|0:0|0:0|0:0|0:0|0:0|0:0|0:0,0:0:0:0:
240,220,114243,1,8,0:0:0:0:
152,344,114457,6,0,P|152:160|390:110,1,454.5,14|0,3:0|0:0,0:0:0:0:
439,206,115315,2,0,P|280:298|117:116,1,454.5,12|0,0:0|0:0,0:0:0:0:
176,25,116172,2,0,P|335:117|260:349,1,454.5,14|0,3:0|0:0,0:0:0:0:
12,188,117029,5,12,0:0:0:0:
124,204,117886,6,0,P|224:236|432:0,1,454.5,14|0,3:0|0:0,0:0:0:0:
232,20,118743,2,0,P|154:90|254:388,1,454.5,12|0,0:0|0:0,0:0:0:0:
328,196,119600,2,0,P|305:93|-2:31,1,454.5,14|0,3:0|0:0,0:0:0:0:
232,136,120457,6,0,P|172:213|125:118,1,227.25,12|0,0:0|0:0,0:0:0:0:
173,156,120886,2,0,P|253:77|205:192,1,340.87501300335
232,136,121315,6,0,P|424:156|368:364,1,454.5,14|0,3:0|0:0,0:0:0:0:
219,240,122172,2,0,P|140:64|348:9,1,454.5,12|0,0:0|0:0,0:0:0:0:
316,199,123029,2,0,P|203:355|51:202,1,454.5,14|0,3:0|0:0,0:0:0:0:
88,16,123886,5,12,0:0:0:0:
88,16,124743,6,0,P|184:116|480:88,1,454.5,14|0,3:0|0:0,0:0:0:0:
88,16,125600,2,0,P|108:192|380:320,1,454.5,12|0,0:0|0:0,0:0:0:0:
88,16,126457,5,14,3:0:0:0:
32,344,126779,1,10,3:0:0:0:
345,228,127100,1,6,3:0:0:0:
444,232,127315,5,12,0:0:0:0:
444,232,127957,1,0,0:0:0:0:
208,192,128172,6,0,L|48:204,1,151.5,14|0,3:0|0:0,0:0:0:0:
304,192,129029,2,0,L|464:180,1,151.5,12|0,0:0|0:0,0:0:0:0:
149,84,129886,2,0,L|136:208,2,113.625,14|0|0,3:0|0:0|0:0,0:0:0:0:
149,84,130743,1,12,0:0:0:0:
308,200,131600,6,0,L|328:352,1,151.5,14|0,3:0|0:0,0:0:0:0:
204,184,132457,2,0,L|184:32,1,151.5,12|0,0:0|0:0,0:0:0:0:
308,200,133100,1,0,0:0:0:0:
112,236,133315,6,0,P|88:184|96:84,1,151.5,14|0,3:0|0:0,0:0:0:0:
400,148,134172,2,0,P|424:200|416:300,1,151.5,12|0,0:0|0:0,0:0:0:0:
256,192,134815,1,10,3:0:0:0:
112,236,135029,6,0,P|12:296|104:328,1,272.699991677857,14|0,3:0|0:0,0:0:0:0:
200,360,135886,2,0,L|220:44,1,272.699991677857,12|0,0:0|0:0,0:0:0:0:
305,212,136743,2,0,P|404:152|312:120,1,272.699991677857,14|0,3:0|0:0,0:0:0:0:
217,88,137600,1,12,0:0:0:0:
76,248,138457,6,0,P|441:192|76:136,1,1060.5,14|0,3:0|0:0,0:0:0:0:
75,136,141886,6,0,P|96:72|68:16,2,113.62500433445,8|0|0,0:0|0:0|0:0,0:0:0:0:
4,80,142207,1,0,0:0:0:0:
180,104,142315,6,0,P|212:88|292:88,1,113.62500433445
4,80,142636,1,0,0:0:0:0:
476,132,142743,6,0,P|384:208|288:148,1,227.2500086689,12|0,0:0|0:0,0:0:0:0:
288,88,143065,2,0,L|284:32,1,56.812502167225,2|0,0:0|0:0,0:0:0:0:
108,40,143172,6,0,L|120:228,1,170.437506501675
100,304,143600,6,0,P|56:284|28:196,1,113.62500433445,8|0,0:0|0:0,0:0:0:0:
192,272,143815,1,0,0:0:0:0:
192,272,144029,2,0,B|276:264|276:264|336:244|336:244|432:236,1,227.2500086689,2|0,0:0|0:0,0:0:0:0:
460,324,144350,1,0,0:0:0:0:
488,176,144457,6,0,B|460:-4|460:-4,1,151.500005779267,12|0,0:0|0:0,0:0:0:0:
456,60,144672,2,0,P|416:100|360:100,1,113.62500433445
232,32,144886,6,0,B|176:20|140:44|140:44|100:36|60:64|60:64|112:92,1,227.25,2|0,0:0|0:0,0:0:0:0:
192,116,145315,6,0,P|212:208|48:220,1,303,8|0,0:0|0:0,0:0:0:0:
59,109,145636,2,0,L|50:223,1,113.62500433445,2|0,0:0|0:0,0:0:0:0:
112,304,145957,6,0,P|64:328|-8:308,1,113.62500433445
160,204,146172,6,0,L|484:244,1,227.2500086689,12|0,0:0|0:0,0:0:0:0:
288,304,146493,1,0,0:0:0:0:
224,132,146600,6,0,L|348:148,1,113.62500433445
512,96,146815,2,0,L|400:82,1,113.62500433445
224,132,147029,5,10,0:0:0:0:
224,132,147136,1,2,0:0:0:0:
120,40,147243,2,0,L|136:196,1,151.500005779267,2|0,0:0|0:0,0:0:0:0:
224,132,147457,6,2,B|126:103|126:103|36:147,1,202,0|2,0:0|0:0,0:0:0:0:
52,256,147672,2,0,L|44:356,2,101,0|0|0,0:0|0:0|0:0,0:0:0:0:
220,244,147886,6,0,L|340:240,1,113.62500433445,12|0,0:0|0:0,0:0:0:0:
476,332,148100,1,0,0:0:0:0:
432,36,148315,2,0,B|456:88|456:88|424:256,1,227.2500086689,2|8,0:0|0:0,0:0:0:0:
352,144,148636,1,0,0:0:0:0:
333,240,148743,6,0,B|220:244|220:244|128:212|128:212|-40:220,1,340.87501300335,8|0,0:0|0:0,0:0:0:0:
52,128,149172,2,0,L|51:111,10,9.46875,0|0|0|0|0|0|0|0|0|0|0,0:0|0:0|0:0|0:0|0:0|0:0|0:0|0:0|0:0|0:0|0:0,0:0:0:0:
12,32,149493,2,0,P|36:24|58:25,1,47.34375
236,148,149600,6,0,P|240:264|160:332,1,227.2500086689,12|0,0:0|0:0,0:0:0:0:
72,340,149922,2,0,P|48:336|16:300,1,56.812502167225
92,76,150029,6,0,L|108:248,1,170.437506501675,2|0,0:0|0:0,0:0:0:0:
236,148,150457,6,0,B|292:152|292:152|348:136,1,113.62500433445,8|0,0:0|0:0,0:0:0:0:
472,192,150672,1,0,0:0:0:0:
280,52,150886,2,2,B|120:40|120:40|168:88,1,227.2500086689,2|0,0:0|0:0,0:0:0:0:
236,148,151207,1,0,0:0:0:0:
236,148,151315,6,0,B|292:144|292:144|348:160,1,113.62500433445,12|0,0:0|0:0,0:0:0:0:
472,284,151529,1,0,0:0:0:0:
276,336,151743,6,2,B|200:328|200:328|124:352,1,151.500005779267,2|0,2:0|2:0,0:0:0:0:
276,336,151957,2,2,B|200:344|200:344|124:320,1,151.500005779267,2|2,2:0|2:0,0:0:0:0:
40,328,152172,6,0,L|52:120,1,113.62500433445,8|0,0:0|0:0,0:0:0:0:
40,360,152493,2,0,B|56:300|32:248|32:248|4:188|24:140,1,227.2500086689,2|0,0:0|0:0,0:0:0:0:
116,84,152815,2,0,P|132:152|112:196,1,113.62500433445
24,32,153029,1,12,0:0:0:0:
468,192,153243,6,0,L|496:192,23,28.4062510836125,0|0|0|0|0|0|0|0|0|0|0|0|0|0|0|0|0|0|0|0|0|0|0|0,2:0|2:0|2:0|2:0|2:0|2:0|2:0|2:0|2:0|2:0|2:0|2:0|2:0|2:0|2:0|2:0|2:0|2:0|2:0|2:0|2:0|2:0|2:0|2:0,0:0:0:0:
496,192,153886,6,0,L|356:200,1,113.62500433445,10|0,0:0|0:0,0:0:0:0:
319,284,154100,2,0,L|152:272,1,151.500005779267,2|0,0:0|0:0,0:0:0:0:
128,264,154315,1,0,0:0:0:0:
128,264,154386,1,0,0:0:0:0:
128,264,154457,1,0,0:0:0:0:
43,212,154529,2,0,P|27:256|39:312,2,101,10|2|2,0:0|0:0|0:0,0:0:0:0:
135,160,154743,6,0,B|133:120|133:120|126:91|126:91|124:44,1,113.62500433445,12|0,0:0|0:0,0:0:0:0:
24,108,154957,1,0,0:0:0:0:
136,160,155172,2,0,L|128:80,1,75.7500028896333
228,92,155386,6,0,B|272:89|272:89|301:82|301:82|340:81,1,113.62500433445,10|0,0:0|0:0,0:0:0:0:
428,240,155600,6,0,P|404:288|416:356,2,113.62500433445,8|0|0,0:0|0:0|0:0,0:0:0:0:
500,308,155922,1,0,0:0:0:0:
320,284,156029,2,0,P|264:304|208:300,1,113.62500433445
500,308,156350,1,0,0:0:0:0:
348,188,156457,6,0,P|264:164|320:284,1,303,12|0,0:0|0:0,0:0:0:0:
356,242,156779,2,0,P|356:208|348:188,1,56.812502167225
228,230,156886,6,0,B|179:226|179:226|112:251|112:251|63:247,1,170.437506501675,2|0,0:0|0:0,0:0:0:0:
63,247,157315,6,0,B|38:194|38:194|51:139,1,113.62500433445,8|0,0:0|0:0,0:0:0:0:
216,124,157529,1,0,0:0:0:0:
396,16,157743,6,2,L|164:44,1,227.2500086689,2|0,0:0|0:0,0:0:0:0:
216,124,158064,1,0,0:0:0:0:
366,104,158172,6,0,B|216:124,1,151.500005779267,12|0,0:0|0:0,0:0:0:0:
136,180,158386,2,0,P|72:188|24:164,1,113.62500433445
100,64,158600,6,0,B|64:120|64:120|88:288,1,227.25,2|0,0:0|0:0,0:0:0:0:
181,284,159029,6,0,P|261:189|298:308,1,303,8|0,0:0|0:0,0:0:0:0:
298,308,159350,2,0,P|355:340|400:328,1,113.62500433445,2|0,0:0|0:0,0:0:0:0:
472,276,159672,6,0,P|492:228|472:168,1,113.62500433445
372,224,159886,6,0,L|104:208,1,227.2500086689,12|0,0:0|0:0,0:0:0:0:
276,72,160207,1,0,0:0:0:0:
372,224,160315,6,0,P|320:244|260:236,1,113.62500433445
80,132,160529,2,0,P|132:111|188:118,1,113.62500433445
145,210,160743,5,10,0:0:0:0:
145,210,160850,1,2,0:0:0:0:
68,132,160957,2,0,P|152:104|208:124,1,151.500005779267,2|0,0:0|0:0,0:0:0:0:
248,308,161172,6,0,B|228:308|204:296|204:296|176:316|128:320|96:304|96:304|80:316|56:320,1,202
36,228,161386,2,0,B|-16:216|-16:216|-24:268,2,101,2|2|2,0:0|0:0|0:0,0:0:0:0:
145,211,161600,6,0,P|177:161|176:106,1,113.62500433445,12|0,0:0|0:0,0:0:0:0:
56,32,161815,1,0,0:0:0:0:
75,132,162029,6,0,B|149:116|149:116|297:150,1,227.25,2|8,0:0|0:0,0:0:0:0:
436,160,162350,1,0,0:0:0:0:
297,150,162457,6,0,B|223:134|223:134|75:168,1,227.25,8|0,0:0|0:0,0:0:0:0:
68,260,162886,2,0,L|67:271,10,9.46875,0|0|0|0|0|0|0|0|0|0|0,0:0|0:0|0:0|0:0|0:0|0:0|0:0|0:0|0:0|0:0|0:0,0:0:0:0:
31,356,163207,2,0,P|55:364|77:363,1,47.34375
272,252,163315,6,0,P|324:148|176:28,1,265.125002528429,12|0,0:0|0:0,0:0:0:0:
164,32,163636,2,0,P|128:40|104:56,1,66.2812506321073
32,168,163743,6,0,L|201:156,1,170.437506501675,2|0,0:0|0:0,0:0:0:0:
297,150,164172,6,0,L|410:141,1,113.62500433445,8|0,0:0|0:0,0:0:0:0:
508,136,164386,1,0,0:0:0:0:
200,184,164600,6,2,B|108:116|108:116|216:80,1,227.2500086689,2|0,0:0|0:0,0:0:0:0:
297,142,164922,5,0,0:0:0:0:
297,142,165029,2,0,L|410:150,1,113.62500433445,12|0,0:0|0:0,0:0:0:0:
508,136,165243,1,0,0:0:0:0:
312,324,165457,6,2,P|240:299|166:307,1,151.500005779267,2|0,2:0|2:0,0:0:0:0:
312,291,165672,2,2,P|240:314|165:306,1,151.500005779267,2|0,2:0|2:0,0:0:0:0:
60,356,165886,6,0,L|68:240,1,113.62500433445,8|0,0:0|0:0,0:0:0:0:
54,374,166207,6,0,B|48:289|48:289|68:237|68:237|62:151,1,227.2500086689,2|0,0:0|0:0,0:0:0:0:
156,96,166529,2,0,P|172:164|152:208,1,113.62500433445
32,56,166743,6,0,B|70:52|70:52|109:59|109:59|148:56|148:56|186:63|186:63|221:59|221:59|256:67,1,227.2500086689,12|0,0:0|0:0,0:0:0:0:
352,80,167065,2,0,L|368:78,2,9.46875,0|0|0,0:0|0:0|0:0,0:0:0:0:
448,20,167172,6,0,P|464:56|452:132,1,113.62500433445,2|0,0:0|0:0,0:0:0:0:
460,19,167386,2,0,P|472:74|454:127,1,113.62500433445,2|0,0:0|0:0,0:0:0:0:
332,196,167600,6,0,P|264:176|212:188,2,113.62500433445,10|0|0,0:0|0:0|0:0,0:0:0:0:
268,274,167922,1,8,0:0:0:0:
288,88,168029,6,0,P|292:48|272:20,3,56.812502167225,2|0|0|0,0:0|0:0|0:0|0:0,0:0:0:0:
204,64,168243,2,0,L|72:72,1,113.62500433445,10|0,0:0|0:0,0:0:0:0:
8,214,168457,6,0,B|84:212|84:212|152:176|152:176|228:172,1,227.2500086689,12|0,0:0|0:0,0:0:0:0:
268,274,168779,1,0,0:0:0:0:
268,274,168886,2,0,B|344:276|344:276|412:312|412:312|488:316,1,227.2500086689,2|8,0:0|0:0,0:0:0:0:
452,36,169315,6,0,L|444:188,1,151.5,8|0,0:0|0:0,0:0:0:0:
452,36,169957,2,0,P|468:68|469:108,1,75.75,0|0,0:0|0:0,0:0:0:0:
410,205,170172,6,0,L|258:193,1,151.5,12|0,0:0|0:0,0:0:0:0:
184,228,170493,1,2,0:0:0:0:
184,228,170600,2,0,L|410:205,1,227.25
496,236,171029,5,8,0:0:0:0:
512,324,171136,1,0,0:0:0:0:
436,372,171243,1,0,0:0:0:0:
340,256,171457,2,2,B|216:216|221:307|92:268,1,252.5,0|0,0:0|0:0,0:0:0:0:
95,269,171886,6,0,P|121:198|116:123,1,151.5,12|0,0:0|0:0,0:0:0:0:
38,77,172207,2,2,P|12:147|17:222,1,151.5,0|0,0:0|0:0,0:0:0:0:
95,269,172529,1,0,0:0:0:0:
417,269,172743,6,0,P|479:224|415:156,1,151.5,8|0,0:0|0:0,0:0:0:0:
361,199,173065,2,0,L|373:351,1,151.5
416,269,173386,2,0,P|455:268|483:240,1,75.75
284,280,173600,6,0,P|184:252|120:264,1,151.5,12|0,0:0|0:0,0:0:0:0:
94,269,173922,2,0,B|72:212|72:212|84:160|84:160|60:112|60:112|72:48,1,227.25
232,92,174457,6,0,L|312:100,1,75.75,8|0,0:0|0:0,0:0:0:0:
480,94,174672,2,0,L|329:78,1,151.500005779267
308,100,174886,6,2,B|294:100|294:100|280:103|280:103|266:103|266:103|250:105,1,56.812502167225,0|0,0:0|0:0,0:0:0:0:
136,72,175047,1,0,0:0:0:0:
136,72,175100,2,0,L|52:80,2,47.34375,0|0|0,0:0|0:0|0:0,0:0:0:0:
148,60,175315,6,0,L|160:192,1,94.6875,12|0,0:0|0:0,0:0:0:0:
141,248,175529,2,0,P|120:263|0:194,1,189.375,0|0,0:0|0:0,0:0:0:0:
0,194,175957,2,2,P|24:194|48:266,1,113.62500433445,10|0,2:0|2:0,0:0:0:0:
158,336,176172,5,8,0:0:0:0:
162,352,176279,1,2,0:0:0:0:
246,340,176386,1,2,0:0:0:0:
250,356,176493,1,2,0:0:0:0:
338,344,176600,6,2,B|478:328|478:328|338:300,1,284.0625,2|0,0:0|0:0,0:0:0:0:
247,324,177029,6,0,P|190:319|168:195,1,204.524993758393,12|2,0:0|0:0,0:0:0:0:
167,195,177457,2,0,P|102:262|1:244,1,204.524993758393
60,168,177886,5,8,0:0:0:0:
100,92,177993,1,0,0:0:0:0:
36,36,178100,1,0,0:0:0:0:
188,92,178315,6,2,B|320:120|304:28|444:56,1,252.5,0|0,0:0|0:0,0:0:0:0:
500,108,178743,6,0,P|516:172|508:260,1,151.5,12|0,0:0|0:0,0:0:0:0:
428,288,179065,2,2,P|412:223|420:136,1,151.5,0|0,0:0|0:0,0:0:0:0:
500,108,179386,1,0,0:0:0:0:
12,108,179600,6,0,L|164:120,1,151.5,8|0,0:0|0:0,0:0:0:0:
252,100,179922,2,2,P|272:148|260:216,1,113.62500433445,2|0,2:0|0:0,0:0:0:0:
192,260,180243,2,0,L|112:252,1,75.75
12,108,180457,6,0,L|168:96,1,151.5,12|0,0:0|0:0,0:0:0:0:
252,100,180779,2,0,L|408:88,1,151.5
480,60,181100,2,0,B|516:76|516:76|456:116,1,75.75
500,312,181315,5,8,0:0:0:0:
496,352,181422,1,0,0:0:0:0:
372,288,181529,2,0,L|304:344,1,75.75,0|8,0:0|0:0,0:0:0:0:
268,204,181743,1,0,0:0:0:0:
228,212,181850,1,0,0:0:0:0:
240,80,181957,2,0,L|132:56,1,75.75,8|0,0:0|0:0,0:0:0:0:
44,40,182172,6,0,L|60:208,1,151.5,12|0,0:0|0:0,0:0:0:0:
44,40,182493,1,8,0:0:0:0:
28,276,182600,6,0,P|2:327|36:363,1,113.62500433445
118,356,182814,2,0,P|143:304|109:268,1,113.62500433445,10|0,0:0|0:0,0:0:0:0:
58,190,183029,6,0,L|44:40,1,151.5,8|0,0:0|0:0,0:0:0:0:
44,40,183672,2,0,P|32:72|40:96,1,37.875
232,20,183886,5,12,0:0:0:0:
256,192,184100,1,0,0:0:0:0:
280,364,184315,1,0,0:0:0:0:
216,356,184743,5,8,0:0:0:0:
280,364,184850,1,0,0:0:0:0:
344,372,184957,1,0,0:0:0:0:
492,192,185172,2,2,L|376:208,1,113.625,0|0,0:0|0:0,0:0:0:0:
292,148,185600,6,0,L|288:224,1,75.75,12|0,0:0|0:0,0:0:0:0:
204,140,185922,2,2,L|200:216,1,75.75,0|0,0:0|0:0,0:0:0:0:
113,189,186243,2,0,L|116:152,1,37.875
44,32,186457,5,8,0:0:0:0:
113,189,186779,2,2,L|116:152,1,37.875,2|0,2:0|0:0,0:0:0:0:
44,32,186993,2,0,L|0:28,1,37.875
104,280,187315,5,12,0:0:0:0:
113,189,187422,1,0,0:0:0:0:
204,198,187529,2,0,P|268:204|368:200,1,151.5
456,36,188172,6,0,L|458:73,1,37.875,8|0,0:0|0:0,0:0:0:0:
468,168,188386,2,0,L|470:205,1,37.875
468,168,188547,1,0,0:0:0:0:
480,300,188600,6,0,P|480:316|468:336,1,37.875
272,348,188815,2,0,L|236:344,2,25.25,0|0|0,0:0|0:0|0:0,0:0:0:0:
272,348,189029,1,12,0:0:0:0:
252,196,189243,6,0,P|188:200|104:200,1,142.03125
110,200,189672,2,2,P|136:200|174:202,1,56.812502167225,10|0,2:0|2:0,0:0:0:0:
20,196,189886,5,8,0:0:0:0:
15,106,189994,1,2,0:0:0:0:
15,185,190102,5,2,0:0:0:0:
19,117,190209,1,2,0:0:0:0:
19,174,190315,5,2,0:0:0:0:
16,128,190422,1,2,0:0:0:0:
16,162,190530,5,2,0:0:0:0:
17,140,190636,1,0,0:0:0:0:
17,151,190743,6,0,L|148:144,1,113.625,12|0,0:0|0:0,0:0:0:0:
216,144,191172,2,0,L|347:137,1,113.625
325,73,191600,5,8,0:0:0:0:
329,137,191707,1,0,0:0:0:0:
333,201,191814,1,0,0:0:0:0:
496,240,192029,2,2,L|488:360,1,113.625,0|0,0:0|0:0,0:0:0:0:
380,316,192457,6,0,L|304:312,1,75.75,12|0,0:0|0:0,0:0:0:0:
220,308,192779,2,2,L|144:304,1,75.75,0|0,0:0|0:0,0:0:0:0:
60,296,193100,2,0,L|-12:292,1,37.875
40,32,193315,5,8,0:0:0:0:
60,296,193636,1,0,0:0:0:0:
40,32,193850,2,0,L|36:76,1,37.875
36,69,194172,5,12,0:0:0:0:
44,160,194279,1,0,0:0:0:0:
135,152,194386,2,0,P|236:144|316:144,1,151.5
456,36,195029,6,0,L|458:73,1,37.875,8|0,0:0|0:0,0:0:0:0:
468,168,195243,2,0,L|470:205,1,37.875,0|8,0:0|0:0,0:0:0:0:
468,168,195404,1,0,0:0:0:0:
480,300,195457,6,0,P|480:320|468:336,2,37.875,0|0|0,0:0|0:0|0:0,0:0:0:0:
480,300,195672,1,8,0:0:0:0:
129,335,195886,5,12,0:0:0:0:
142,134,196100,2,0,L|94:130,1,37.875,0|8,0:0|0:0,0:0:0:0:
129,335,196315,6,2,L|142:131,1,202,0|0,0:0|0:0,0:0:0:0:
13,156,196529,6,2,P|13:188|65:200,1,75.75,10|0,2:0|2:0,0:0:0:0:
