osu file format v14

[General]
AudioFilename: Awaodori.mp3
AudioLeadIn: 0
PreviewTime: 147549
Countdown: 0
SampleSet: Normal
StackLeniency: 0.7
Mode: 0
LetterboxInBreaks: 0
WidescreenStoryboard: 0

[Editor]
DistanceSpacing: 1
BeatDivisor: 3
GridSize: 4
TimelineZoom: 2.1

[Metadata]
Title:Awaodori
TitleUnicode:アワオドリ
Artist:ATOLS
ArtistUnicode:ATOLS
Creator:makemek
Version:Normal
Source:
Tags:vocaloid hatsune miku
BeatmapID:664982
BeatmapSetID:296100

[Difficulty]
HPDrainRate:5
CircleSize:3.8
OverallDifficulty:3.6
ApproachRate:5
SliderMultiplier:1.4
SliderTickRate:1

[Events]
//Background and Video events
0,0,"bg.jpg",0,0
Video,-150,"feat.HATSUNE MIKU - AWAODORI - OFFICIAL - YouTube.avi"
//Break Periods
2,85062,94278
//Storyboard Layer 0 (Background)
//Storyboard Layer 1 (Fail)
//Storyboard Layer 2 (Pass)
//Storyboard Layer 3 (Foreground)
//Storyboard Sound Samples

[TimingPoints]
2,662.983425414365,4,1,0,65,1,0
10609,-100,4,1,0,65,0,0
31825,-100,4,1,2,80,0,0
34477,-100,4,1,1,40,0,0
37792,-100,4,1,0,65,0,0
40112,-100,4,1,1,40,0,0
43095,-100,4,1,0,65,0,0
45416,-100,4,1,1,40,0,0
48399,-100,4,1,0,65,0,0
51714,-100,4,1,2,80,0,0
52046,-100,4,1,0,80,0,0
53040,331.491712707182,4,1,0,65,1,0
66852,-117.647058823529,4,1,1,40,0,0
68951,-117.647058823529,4,1,0,65,0,0
72100,-117.647058823529,4,1,1,40,0,0
74255,-117.647058823529,4,1,0,65,0,0
78896,-117.647058823529,4,1,1,40,0,0
79559,-117.647058823529,4,1,0,65,0,0
82653,-117.647058823529,4,1,1,40,0,0
84531,-117.647058823529,4,1,0,65,0,0
84863,-117.647058823529,4,1,2,80,0,0
84871,662.983425414365,4,1,0,65,1,0
95478,-100,4,2,1,65,0,0
127301,331.491712707182,4,1,0,65,1,0
127301,-100,4,1,0,65,0,0
147190,-100,4,1,2,80,0,0
148516,-100,4,1,0,65,0,1
169731,-100,4,1,2,80,0,0
170394,-100,4,1,0,65,0,0
193599,-100,4,1,2,80,0,0

[Colours]
Combo1 : 200,200,0
Combo2 : 0,202,0
Combo3 : 18,124,255
Combo4 : 255,192,0

[HitObjects]
128,188,10609,6,0,P|156:80|216:64,1,140,0|8,0:0|0:0,0:0:0:0:
304,120,11935,1,0,0:0:0:0:
404,216,12598,1,8,0:0:0:0:
320,328,13261,2,8,L|242:261,2,70
112,332,14919,1,0,0:0:0:0:
112,332,15250,1,8,0:0:0:0:
68,200,15913,6,0,L|116:92,1,70
152,92,16576,1,8,0:0:0:0:
288,60,17239,6,0,L|428:148,1,140,0|8,0:0|0:0,0:0:0:0:
340,260,18565,2,8,L|249:192,2,70
132,280,20222,1,0,0:0:0:0:
132,280,20554,1,8,0:0:0:0:
80,148,21217,6,0,P|192:132|240:148,1,140,0|8,0:0|0:0,0:0:0:0:
180,200,22211,6,0,L|180:276,2,70
180,200,23206,1,8,0:0:0:0:
180,88,23537,2,0,L|180:-9,2,70
180,88,24532,1,8,0:0:0:0:
292,268,25526,1,0,0:0:0:0:
292,268,25858,1,8,0:0:0:0:
252,124,26521,6,0,P|208:116|144:144,1,70
216,184,27184,6,0,L|216:254,1,70
284,248,27847,2,0,L|284:318,1,70
352,300,28510,2,0,L|352:224,1,70
420,248,29173,2,0,L|420:178,1,70
360,144,29836,2,0,L|360:68,1,70
289,74,30499,2,0,L|289:144,1,70
220,148,31162,2,0,L|220:224,1,70
288,196,31825,5,4,0:0:0:0:
260,60,32488,6,0,P|140:72|132:136,1,140
140,144,33482,2,0,L|61:200,2,70
176,204,34477,6,0,P|252:292|320:292,1,140,0|10,0:0|0:0,0:0:0:0:
360,188,35803,2,0,P|391:126|453:95,1,140,0|10,0:0|0:0,0:0:0:0:
448,240,37129,5,4,0:0:0:0:
324,304,37792,6,0,L|384:360,2,70
320,164,39118,6,0,L|376:212,1,70
323,259,39781,1,8,0:0:0:0:
273,308,40112,6,0,L|141:192,1,140,0|10,0:0|0:0,0:0:0:0:
266,116,41438,2,0,L|392:217,1,140,0|10,0:0|0:0,0:0:0:0:
188,116,43095,6,0,P|316:36|396:76,1,210,0|8,0:0|0:0,0:0:0:0:
392,112,44421,1,8,0:0:0:0:
392,182,44753,1,8,0:0:0:0:
256,220,45416,6,8,L|330:338,1,140
192,356,46742,2,0,L|115:238,1,140,8|6,0:0|0:0,0:0:0:0:
80,96,48399,6,0,L|52:168,2,70
144,64,49394,1,8,0:0:0:0:
213,64,49725,1,8,0:0:0:0:
272,104,50057,2,0,L|300:180,1,70
296,239,50720,6,8,P|296:296|248:368,1,140
192,332,51714,1,4,0:0:0:0:
142,282,52046,6,0,P|186:158|290:154,1,210
392,180,53371,6,8,L|288:284,1,140
160,212,54034,2,8,P|49:92|108:40,1,280
180,104,55028,2,8,L|248:56,2,70
240,208,55691,5,10,0:0:0:0:
300,280,56023,1,10,0:0:0:0:
180,272,56354,2,8,L|72:184,1,140
164,108,57017,5,10,0:0:0:0:
280,84,57349,1,10,0:0:0:0:
256,208,57680,6,10,L|328:208,2,70
200,112,58343,5,10,0:0:0:0:
312,76,58675,2,8,B|360:88|360:88|420:168,1,140,8|10,0:0|0:0,0:0:0:0:
399,264,59338,2,8,B|387:312|387:312|304:372,1,140,8|10,0:0|0:0,0:0:0:0:
201,365,60001,2,8,B|153:353|153:353|104:276,1,140,8|10,0:0|0:0,0:0:0:0:
122,43,60995,5,10,0:0:0:0:
241,43,61327,1,10,0:0:0:0:
241,162,61658,1,10,0:0:0:0:
122,162,61990,1,10,0:0:0:0:
148,280,62321,6,8,P|192:316|252:264,1,140
231,161,62984,2,8,P|187:125|128:180,1,140
28,176,63647,6,0,P|117:73|256:28,1,280
308,104,64642,1,0,0:0:0:0:
332,220,64973,2,0,B|260:316|196:224|88:352,1,280
85,211,65968,5,0,0:0:0:0:
216,168,66299,1,0,0:0:0:0:
76,40,66852,6,0,L|76:100,2,59.5000011348725,8|0|8,0:0|0:0|0:0,0:0:0:0:
195,40,67515,2,0,L|195:100,2,59.5000011348725,8|0|8,0:0|0:0|0:0,0:0:0:0:
312,48,68178,2,0,P|296:160|344:192,1,158.666669692993
456,216,68951,6,0,P|376:340|276:332,1,238.00000453949
187,254,69946,1,0,0:0:0:0:
316,200,70277,2,0,P|355:82|256:56,2,238.00000453949
140,316,72156,6,8,L|92:268,2,59.5000011348725,8|0|8,0:0|0:0|0:0,0:0:0:0:
238,217,72819,2,8,L|284:264,2,59.5000011348725,8|0|8,0:0|0:0|0:0,0:0:0:0:
100,160,73481,2,0,P|176:88|248:68,1,158.666669692993
320,160,74255,6,0,P|325:272|208:340,1,238.00000453949
112,328,75249,1,0,0:0:0:0:
28,244,75581,2,0,P|140:160|204:220,1,238.00000453949
196,328,76575,5,0,0:0:0:0:
314,328,76907,2,0,B|450:272|450:272|322:200|322:200|450:108|450:108|314:40|314:40,1,595.000011348725
236,128,78896,2,8,L|236:64,2,59.5000011348725,0|8|0,0:0|0:0|0:0,0:0:0:0:
200,244,79559,6,0,P|300:300|396:236,2,238.00000453949
140,140,81216,1,0,0:0:0:0:
264,132,81548,2,0,P|296:80|360:92,2,119.000002269745
120,268,82763,6,0,P|60:216|60:148,1,119.000002269745,8|0,0:0|0:0,0:0:0:0:
64,60,83426,2,0,L|112:84,1,39.6666674232483,8|0,0:0|0:0,0:0:0:0:
181,75,83758,2,0,L|237:75,1,39.6666674232483,8|0,0:0|0:0,0:0:0:0:
300,75,84089,2,0,L|316:136,1,39.6666674232483,8|0,0:0|0:0,0:0:0:0:
212,184,84531,6,4,L|148:136,2,59.5000011348725
344,84,95478,6,0,P|208:76|120:156,1,210,8|0,0:0|0:0,0:0:0:0:
150,183,96804,2,0,P|241:229|343:212,1,210
316,148,98130,2,0,P|396:148|448:264,1,210,0|8,0:0|0:0,0:0:0:0:
340,340,99788,5,8,0:0:0:0:
270,340,100119,2,8,L|271:248,2,70
108,204,101777,5,0,0:0:0:0:
116,128,102108,2,0,P|200:56|312:60,1,210
352,96,103434,2,0,P|409:181|357:265,1,210,0|8,0:0|0:0,0:0:0:0:
220,244,105091,2,8,L|279:280,2,70
184,176,106086,6,0,P|124:208|164:272,1,140,8|0,0:0|0:0,0:0:0:0:
180,328,107080,1,0,0:0:0:0:
244,304,107412,2,0,L|304:248,1,70,8|0,0:0|0:0,0:0:0:0:
292,188,108075,1,0,0:0:0:0:
292,116,108406,1,0,0:0:0:0:
268,48,108738,2,8,P|120:56|20:160,1,280
72,196,110395,5,8,0:0:0:0:
124,244,110727,1,8,0:0:0:0:
176,196,111058,1,8,0:0:0:0:
232,240,111390,6,0,P|309:304|377:220,1,210,8|0,0:0|0:0,0:0:0:0:
404,176,112716,1,8,0:0:0:0:
404,176,113047,1,0,0:0:0:0:
340,144,113379,2,0,P|280:56|208:60,2,140,0|8|0,0:0|0:0|0:0,0:0:0:0:
196,132,115368,5,8,0:0:0:0:
168,200,115699,6,0,B|220:268|220:268|260:240|260:240|324:320,1,210,8|0,0:0|0:0,0:0:0:0:
404,196,117357,1,8,0:0:0:0:
372,136,117688,1,8,0:0:0:0:
312,100,118020,1,8,0:0:0:0:
244,96,118351,2,0,L|176:136,1,70
152,196,119014,2,0,L|216:252,1,70
300,352,120009,5,8,0:0:0:0:
300,352,120672,1,8,0:0:0:0:
352,220,121335,1,8,0:0:0:0:
212,224,121998,6,0,B|211:154|247:86|323:38|395:94,1,280
368,160,123655,1,0,0:0:0:0:
352,228,123987,2,0,P|316:317|252:308,1,140
144,328,125312,5,8,0:0:0:0:
144,328,125975,1,8,0:0:0:0:
144,328,126638,1,8,0:0:0:0:
52,68,127301,6,0,P|204:72|308:168,2,280
40,208,128958,1,0,0:0:0:0:
120,324,129289,2,0,P|173:279|207:218,2,140
304,352,130615,6,8,B|304:236|352:152|480:120,2,280
136,128,132604,6,0,P|38:219|70:349,1,280
208,356,133599,2,0,P|297:271|201:193,2,280
52,340,135256,2,0,B|52:160|96:28|260:-64|448:28|476:160|476:364,1,840
256,192,137908,12,0,140559,0:0:0:0:
116,288,141223,5,8,0:0:0:0:
396,288,141886,1,8,0:0:0:0:
253,161,142549,1,8,0:0:0:0:
256,192,143212,12,4,147190,0:0:0:0:
48,84,148516,6,0,P|52:200|184:324,1,280,0|8,0:0|0:0,0:0:0:0:
440,324,149842,1,0,0:0:0:0:
440,44,150505,1,8,0:0:0:0:
244,244,151168,2,8,L|120:348,2,140
152,140,152162,2,0,P|104:112|72:32,1,140
212,48,152825,5,0,0:0:0:0:
352,48,153157,1,8,0:0:0:0:
292,324,153820,6,0,B|222:294|154:242|78:146,1,280,0|8,0:0|0:0,0:0:0:0:
216,116,154814,1,0,0:0:0:0:
340,184,155146,2,0,L|480:184,2,140
460,112,156140,1,8,0:0:0:0:
340,80,156472,2,0,P|216:16|348:280,1,840,0|8,0:0|0:0,0:0:0:0:
272,170,159124,6,0,P|432:172|416:32,1,280,0|8,0:0|0:0,0:0:0:0:
312,52,160118,1,0,0:0:0:0:
172,68,160450,2,0,L|104:228,2,140
292,140,161444,1,0,0:0:0:0:
292,140,161776,2,0,P|208:272|292:348,1,280,0|8,0:0|0:0,0:0:0:0:
372,240,162770,2,0,P|452:220|480:148,1,140
340,176,163433,5,0,0:0:0:0:
228,260,163765,1,8,0:0:0:0:
36,44,164428,6,0,P|128:140|228:52,1,280
260,204,165422,2,0,L|356:316,2,140
408,84,166417,2,0,P|392:152|320:156,1,140
272,32,167080,2,0,P|76:168|280:312,2,560,0|0|4,0:0|0:0|0:0,0:0:0:0:
364,296,170394,6,0,P|434:177|433:39,1,280,8|0,0:0|0:0,0:0:0:0:
152,56,171720,1,8,0:0:0:0:
148,336,172383,6,8,P|81:328|46:271,2,140
460,56,174041,5,0,0:0:0:0:
408,184,174372,1,8,0:0:0:0:
128,188,175035,6,0,P|156:80|320:72,1,280,0|8,0:0|0:0,0:0:0:0:
464,292,176361,5,0,0:0:0:0:
188,344,177024,1,8,0:0:0:0:
166,199,177687,2,8,L|58:109,2,140
256,108,179345,5,0,0:0:0:0:
136,40,179676,1,8,0:0:0:0:
76,172,180339,6,0,P|84:288|256:308,1,280,0|8,0:0|0:0,0:0:0:0:
404,292,181665,5,0,0:0:0:0:
404,179,182328,1,8,0:0:0:0:
168,96,182991,6,8,P|100:180|152:212,2,140
224,208,184649,5,0,0:0:0:0:
332,116,184980,1,8,0:0:0:0:
252,40,185643,2,0,P|120:56|48:180,1,280
72,240,186527,6,8,L|188:240,1,116.666666666667
214,354,186969,2,8,L|380:356,1,140
320,244,187632,2,8,L|504:244,2,140
320,104,188626,2,8,L|208:240,1,140
156,40,189289,2,8,L|64:160,2,140
256,136,190284,2,8,L|256:304,1,140
256,192,190947,12,4,193599,0:0:0:0:
