osu file format v14

[General]
AudioFilename: Awaodori.mp3
AudioLeadIn: 0
PreviewTime: 147549
Countdown: 0
SampleSet: Normal
StackLeniency: 0.7
Mode: 0
LetterboxInBreaks: 0
WidescreenStoryboard: 0

[Editor]
DistanceSpacing: 1
BeatDivisor: 6
GridSize: 4
TimelineZoom: 2.899999

[Metadata]
Title:Awaodori
TitleUnicode:アワオドリ
Artist:ATOLS
ArtistUnicode:ATOLS
Creator:makemek
Version:Hard
Source:
Tags:vocaloid hatsune miku
BeatmapID:669219
BeatmapSetID:296100

[Difficulty]
HPDrainRate:6
CircleSize:4
OverallDifficulty:5
ApproachRate:6.5
SliderMultiplier:1.4
SliderTickRate:1

[Events]
//Background and Video events
0,0,"bg.jpg",0,0
Video,-150,"feat.HATSUNE MIKU - AWAODORI - OFFICIAL - YouTube.avi"
//Break Periods
2,85062,94503
//Storyboard Layer 0 (Background)
//Storyboard Layer 1 (Fail)
//Storyboard Layer 2 (Pass)
//Storyboard Layer 3 (Foreground)
//Storyboard Sound Samples

[TimingPoints]
2,662.983425414365,4,1,0,65,1,0
10609,-66.6666666666667,4,1,0,65,0,0
31825,-66.6666666666667,4,1,2,80,0,0
34477,-66.6666666666667,4,1,1,40,0,0
37792,-66.6666666666667,4,1,0,65,0,0
39781,-66.6666666666667,4,1,1,40,0,0
43095,-66.6666666666667,4,1,0,65,0,0
45084,-66.6666666666667,4,1,1,40,0,0
48399,-66.6666666666667,4,1,0,65,0,0
51714,-66.6666666666667,4,1,2,80,0,0
52046,-66.6666666666667,4,1,0,65,0,0
53040,331.491712707182,4,1,0,65,1,0
62156,-90.9090909090909,4,1,0,65,0,0
63647,-90.9090909090909,4,1,0,65,0,0
66520,-90.9090909090909,4,1,1,40,0,0
68951,-90.9090909090909,4,1,0,65,0,0
68951,-90.9090909090909,4,1,1,40,0,0
72156,-90.9090909090909,4,1,1,40,0,0
74255,-90.9090909090909,4,1,0,65,0,0
77404,-90.9090909090909,4,1,1,40,0,0
79559,-90.9090909090909,4,1,0,65,0,0
82708,-90.9090909090909,4,1,1,40,0,0
84531,-90.9090909090909,4,1,0,65,0,0
84863,-90.9090909090909,4,1,2,80,0,0
84871,662.983425414365,4,1,0,65,1,0
95478,-90.9090909090909,4,2,1,65,0,0
106086,-90.9090909090909,4,2,1,65,0,0
116694,-90.9090909090909,4,1,0,65,0,0
127301,331.491712707182,4,1,0,65,1,0
127301,-90.9090909090909,4,1,0,65,0,0
147190,-90.9090909090909,4,1,2,80,0,0
147521,-90.9090909090909,4,1,0,65,0,0
148516,-90.9090909090909,4,1,0,65,0,1
169731,-90.9090909090909,4,1,2,80,0,0
170394,-90.9090909090909,4,1,0,65,0,0
193599,-90.9090909090909,4,1,2,80,0,0

[Colours]
Combo1 : 200,200,0
Combo2 : 0,202,0
Combo3 : 18,124,255
Combo4 : 255,192,0

[HitObjects]
80,288,10609,6,0,B|208:248|152:116|240:104,1,210.000008010865,0|8,0:0|0:0,0:0:0:0:
300,184,11604,6,0,P|304:132|260:88,1,105.000004005432
224,156,12267,2,0,P|212:232|244:252,1,105.000004005432
328,284,12930,6,0,L|404:328,2,52.5000020027161
400,196,13593,1,0,0:0:0:0:
408,80,13924,1,8,0:0:0:0:
292,88,14256,6,0,L|312:32,2,52.5000020027161
244,192,14919,5,0,0:0:0:0:
144,248,15250,1,8,0:0:0:0:
32,216,15582,1,0,0:0:0:0:
56,96,15913,6,0,P|94:41|144:40,1,105.000004005432
240,64,16576,6,0,L|352:64,1,105.000004005432
276,136,17239,2,0,L|192:228,1,105.000004005432
268,248,17902,2,0,L|348:160,1,105.000004005432,8|0,0:0|0:0,0:0:0:0:
404,200,18565,6,0,B|448:276|348:296,1,105.000004005432
276,332,19228,1,8,0:0:0:0:
168,288,19560,5,0,0:0:0:0:
168,288,19891,1,0,0:0:0:0:
272,252,20222,2,0,P|320:184|288:132,1,105.000004005432,0|8,0:0|0:0,0:0:0:0:
380,72,20885,1,0,0:0:0:0:
268,92,21217,6,0,P|184:64|64:132,1,210.000008010865
128,172,22101,6,0,L|84:204,1,35.0000013351441
168,228,22543,1,0,0:0:0:0:
228,272,22764,2,0,L|187:323,1,35.0000013351441
320,292,23206,1,0,0:0:0:0:
368,224,23427,6,0,L|424:264,1,35.0000013351441
424,172,23869,1,0,0:0:0:0:
380,108,24200,2,0,P|332:56|280:64,1,105.000004005432
232,40,24753,6,0,L|184:60,1,35.0000013351441
148,100,25084,2,0,L|108:156,1,35.0000013351441
128,232,25526,5,8,0:0:0:0:
232,248,25858,1,8,0:0:0:0:
336,196,26189,1,0,0:0:0:0:
404,292,26521,2,0,P|336:340|288:344,1,105.000004005432
200,332,27184,6,0,B|244:336|264:296|252:256,1,105.000004005432
369,261,27847,2,0,B|325:265|305:225|317:185,1,105.000004005432
199,190,28510,2,0,B|243:194|263:154|251:114,1,105.000004005432
252,235,29173,5,0,0:0:0:0:
252,235,29504,1,0,0:0:0:0:
367,235,29836,2,0,B|410:238|430:198|418:158,1,105.000004005432
303,163,30499,2,0,B|260:166|240:126|252:86,1,105.000004005432
366,91,31162,2,0,B|410:95|430:55|418:15,1,105.000004005432
464,128,31825,1,4,0:0:0:0:
464,277,32488,6,0,P|440:325|372:332,1,105.000004005432
364,276,33151,2,0,P|328:208|180:164,1,210.000008010865
252,344,34477,6,0,L|104:264,1,157.500006008148,0|8,0:0|0:0,0:0:0:0:
113,269,35140,1,10,0:0:0:0:
260,344,35803,2,0,L|408:256,1,157.500006008148,8|0,0:0|0:0,0:0:0:0:
395,263,36466,1,10,0:0:0:0:
316,180,36797,5,0,0:0:0:0:
316,180,37129,1,4,0:0:0:0:
184,56,37792,6,0,P|112:88|112:152,2,105.000004005432
256,144,38786,1,0,0:0:0:0:
328,56,39118,2,0,P|400:88|400:152,1,105.000004005432
380,213,39781,1,8,0:0:0:0:
248,204,40112,6,0,L|128:136,1,105.000004005432
156,152,40775,1,10,0:0:0:0:
380,208,41438,2,0,L|452:112,1,105.000004005432
443,124,42101,1,10,0:0:0:0:
327,124,42432,5,4,0:0:0:0:
220,304,43095,6,0,L|156:272,1,52.5000020027161
180,228,43427,2,0,L|236:192,1,52.5000020027161
194,152,43758,2,0,P|212:64|240:36,1,105.000004005432
336,60,44421,5,0,0:0:0:0:
404,164,44753,2,0,L|304:268,1,105.000004005432,0|8,0:0|0:0,0:0:0:0:
252,340,45416,6,0,B|160:344|64:268|64:200,1,210.000008010865,0|10,0:0|0:0,0:0:0:0:
252,340,46742,2,0,B|344:344|440:268|440:208,1,210.000008010865,0|10,0:0|0:0,0:0:0:0:
336,180,47736,1,4,0:0:0:0:
128,280,48399,6,0,P|68:236|68:148,1,157.500006008148
80,104,49062,2,0,B|184:172|244:72,1,157.500006008148
280,88,49725,1,0,0:0:0:0:
348,180,50057,2,0,P|304:208|260:172,1,105.000004005432
182,100,50720,6,0,P|162:164|196:216,1,105.000004005432,8|0,0:0|0:0,0:0:0:0:
276,140,51383,2,0,P|296:204|252:252,1,105.000004005432,8|4,0:0|0:0,0:0:0:0:
236,328,52046,6,0,P|208:268|148:240,1,105.000004005432
136,344,52709,2,0,P|92:308|84:256,1,105.000004005432
52,172,53260,6,0,P|192:172|248:152,1,186.666666666667
284,100,53923,2,0,L|476:100,1,186.666666666667
432,208,54697,2,0,B|388:144|308:264,1,140
236,316,55360,6,0,P|168:280|136:208,2,140,0|2|2,0:0|0:0|0:0,0:0:0:0:
280,212,56354,2,0,P|339:175|382:121,1,140,2|0,0:0|0:0,0:0:0:0:
484,72,57017,2,0,P|424:36|336:56,1,140,2|0,0:0|0:0,0:0:0:0:
256,92,57680,2,2,B|164:100|100:164|40:260,1,280
116,272,58564,5,0,0:0:0:0:
140,300,58675,2,0,P|197:333|252:295,1,140
320,268,59227,1,0,0:0:0:0:
344,240,59338,2,0,P|384:212|356:136,1,140
296,96,59890,5,0,0:0:0:0:
260,104,60001,2,0,P|180:80|124:108,2,140
126,165,60995,5,10,0:0:0:0:
265,165,61327,1,10,0:0:0:0:
265,305,61658,1,10,0:0:0:0:
125,305,61990,1,10,0:0:0:0:
192,184,62321,6,8,B|192:112|192:64|248:64|248:128,1,154.000004699707
376,140,62984,2,8,B|376:68|376:20|320:20|320:84,1,154.000004699707
156,60,63647,6,0,P|256:144|296:316,1,308.000009399414,4|0,0:0|0:0,0:0:0:0:
148,356,64642,1,0,0:0:0:0:
252,340,64973,2,0,P|184:276|148:220,1,154.000004699707
52,108,65636,2,0,P|108:56|204:84,2,154.000004699707
144,156,66520,1,8,0:0:0:0:
144,284,66796,6,0,L|207:239,1,77.0000023498536
207,239,67183,1,8,0:0:0:0:
324,296,67459,6,0,L|396:352,1,77.0000023498536
384,343,67846,1,8,0:0:0:0:
472,216,68178,6,8,L|376:216,1,51.3333348999024,8|0,0:0|0:0,0:0:0:0:
472,128,68509,2,0,L|400:128,1,51.3333348999024,8|0,0:0|0:0,0:0:0:0:
360,172,68785,1,0,0:0:0:0:
288,148,68951,6,0,P|212:60|48:144,1,308.000009399414
104,272,69946,1,8,0:0:0:0:
256,256,70277,2,0,P|304:324|396:336,1,154.000004699707
364,188,70940,2,0,P|344:128|432:96,1,154.000004699707
260,68,71603,2,0,P|184:32|112:76,1,154.000004699707
176,148,72156,6,0,L|132:200,1,51.3333348999024,8|0,0:0|0:0,0:0:0:0:
142,187,72487,1,8,0:0:0:0:
292,152,72819,6,0,L|336:204,1,51.3333348999024,8|0,0:0|0:0,0:0:0:0:
325,191,73150,1,8,0:0:0:0:
344,344,73481,6,0,L|284:344,1,51.3333348999024,8|0,0:0|0:0,0:0:0:0:
256,248,73813,2,0,L|204:248,1,51.3333348999024,8|0,0:0|0:0,0:0:0:0:
128,232,74089,1,0,0:0:0:0:
64,184,74255,6,0,P|92:112|164:68,1,154.000004699707
315,86,74918,2,0,P|400:88|440:160,2,154.000004699707
208,176,75912,1,0,0:0:0:0:
336,228,76244,1,0,0:0:0:0:
224,312,76575,2,0,P|136:316|80:272,2,154.000004699707
172,224,77459,6,8,L|212:172,1,51.3333348999024,8|0,0:0|0:0,0:0:0:0:
203,183,77791,1,8,0:0:0:0:
128,112,78122,2,0,L|64:72,1,51.3333348999024,8|0,0:0|0:0,0:0:0:0:
84,84,78454,1,8,0:0:0:0:
228,24,78785,2,8,L|304:72,1,51.3333348999024,8|0,0:0|0:0,0:0:0:0:
348,124,79117,2,8,L|388:184,1,51.3333348999024,8|0,0:0|0:0,0:0:0:0:
396,240,79393,1,0,0:0:0:0:
376,312,79559,6,0,B|320:368|236:368|160:348|88:276,1,308.000009399414
80,120,80553,1,0,0:0:0:0:
232,84,80885,2,0,P|292:36|364:88,1,154.000004699707
354,220,81548,2,0,B|296:268|296:268|232:217,2,154.000004699707
108,180,82763,6,0,L|108:256,1,51.3333348999024,8|0,0:0|0:0,0:0:0:0:
108,231,83095,1,8,0:0:0:0:
224,332,83426,6,0,L|276:292,1,51.3333348999024,8|0,0:0|0:0,0:0:0:0:
340,232,83757,2,0,L|340:156,1,51.3333348999024,8|0,0:0|0:0,0:0:0:0:
340,77,84089,2,0,L|288:33,1,51.3333348999024,8|0,0:0|0:0,0:0:0:0:
240,188,84531,2,0,P|164:216|108:172,1,154.000004699707
124,296,95478,6,0,P|160:224|304:172,1,231.000007049561,0|8,0:0|0:0,0:0:0:0:
308,256,96804,2,0,P|404:244|428:112,1,231.000007049561,0|8,0:0|0:0,0:0:0:0:
376,67,98130,2,0,P|280:79|256:211,1,231.000007049561,0|8,0:0|0:0,0:0:0:0:
344,160,99788,5,8,0:0:0:0:
288,224,100119,2,0,L|326:224,2,38.5000011749268
324,148,100782,2,0,P|395:229|328:320,1,231.000007049561,0|8,0:0|0:0,0:0:0:0:
251,317,102108,2,0,L|251:140,1,154.000004699707,0|8,0:0|0:0,0:0:0:0:
166,163,103103,1,0,0:0:0:0:
152,88,103434,2,0,P|260:40|352:116,1,231.000007049561,0|8,0:0|0:0,0:0:0:0:
368,252,105091,5,8,0:0:0:0:
292,248,105423,2,0,L|292:300,2,38.5000011749268
276,176,106086,6,0,P|224:204|208:312,1,154.000004699707
264,336,107080,1,0,0:0:0:0:
336,340,107412,2,0,P|376:340|432:304,1,77.0000023498536
468,284,108075,2,0,P|476:252|444:204,1,77.0000023498536
396,256,108738,2,0,P|280:344|152:232,1,308.000009399414,0|8,0:0|0:0,0:0:0:0:
144,188,110395,5,0,0:0:0:0:
136,112,110727,2,0,L|136:56,2,38.5000011749268
212,96,111390,6,0,B|236:44|272:24|320:36|348:56,2,154.000004699707
192,172,113047,1,0,0:0:0:0:
276,164,113379,2,0,L|348:120,1,77.0000023498536
280,64,114042,2,0,P|392:64|348:216,1,308.000009399414,0|8,0:0|0:0,0:0:0:0:
324,136,115699,5,0,0:0:0:0:
260,176,116031,2,0,L|200:220,2,38.5000011749268
280,252,116694,6,0,P|188:254|144:188,1,154.000004699707
192,148,117688,1,0,0:0:0:0:
104,144,118020,2,0,L|40:72,2,77.0000023498536
156,84,119014,1,0,0:0:0:0:
220,124,119346,2,0,P|280:56|360:56,1,154.000004699707,0|8,0:0|0:0,0:0:0:0:
400,192,120672,5,8,0:0:0:0:
400,192,121335,1,8,0:0:0:0:
264,184,121998,6,0,B|264:92|264:92|192:92,2,154.000004699707
264,268,123655,1,0,0:0:0:0:
180,268,123987,2,0,L|128:340,2,77.0000023498536
292,328,124981,6,0,L|292:264,2,38.5000011749268
356,284,125644,2,0,L|356:224,2,38.5000011749268
292,240,126307,2,0,L|292:172,2,38.5000011749268
132,44,127301,6,0,P|240:24|436:64,1,308.000009399414
406,191,128295,1,0,0:0:0:0:
307,289,128626,1,0,0:0:0:0:
167,289,128958,1,0,0:0:0:0:
48,192,129289,2,0,L|160:78,1,154.000004699707
304,80,129952,2,0,B|468:80|468:80|468:344|468:344|136:344|136:344|136:196|136:196|256:196|256:196|256:292|256:292,1,1078.00003289795
384,268,132604,6,0,B|380:184|321:144|164:80,1,308.000009399414
52,188,133599,2,0,P|60:276|132:336,1,154.000004699707
244,268,134262,1,8,0:0:0:0:
392,308,134593,1,8,0:0:0:0:
436,144,134925,2,0,L|276:92,1,154.000004699707
128,44,135588,5,8,0:0:0:0:
44,192,135919,1,8,0:0:0:0:
180,288,136251,2,8,P|248:352|292:320,2,154.000004699707
312,208,137245,1,8,0:0:0:0:
312,208,137577,1,8,0:0:0:0:
212,324,137908,6,0,P|416:324|496:252,1,308.000009399414
396,140,138903,1,0,0:0:0:0:
272,48,139234,2,0,P|180:88|104:68,2,154.000004699707
276,192,140229,1,0,0:0:0:0:
256,192,140560,12,0,143212,0:0:0:0:
256,192,143433,12,4,147190,0:0:0:0:
128,188,147521,5,8,0:0:0:0:
204,72,147853,2,8,P|272:20|316:72,1,154.000004699707
356,128,148516,6,0,P|416:184|320:356,1,308.000009399414
156,348,149510,1,8,0:0:0:0:
156,208,149842,2,0,P|116:148|176:108,1,154.000004699707
259,221,150505,1,0,0:0:0:0:
392,200,150836,6,0,P|440:144|376:100,1,154.000004699707
240,68,151499,1,0,0:0:0:0:
88,56,151831,1,8,0:0:0:0:
128,216,152162,5,0,0:0:0:0:
128,216,152494,1,0,0:0:0:0:
236,328,152825,5,0,0:0:0:0:
344,236,153157,1,8,0:0:0:0:
463,116,153820,2,0,P|351:28|228:116,1,308.000009399414
128,192,154814,1,0,0:0:0:0:
278,237,155146,2,0,L|192:376,2,154.000004699707
420,252,156140,2,0,P|397:186|328:140,1,154.000004699707
212,40,156803,1,0,0:0:0:0:
60,64,157135,1,8,0:0:0:0:
84,224,157466,5,0,0:0:0:0:
84,224,157798,1,0,0:0:0:0:
228,284,158129,5,0,0:0:0:0:
328,168,158461,1,8,0:0:0:0:
40,236,159124,6,0,P|48:104|208:44,2,308.000009399414
148,268,160781,2,0,P|192:312|256:252,1,154.000004699707
255,111,161444,2,0,P|300:66|364:120,1,154.000004699707
420,256,162107,5,0,0:0:0:0:
420,256,162439,1,8,0:0:0:0:
284,188,162770,5,0,0:0:0:0:
284,188,163102,1,0,0:0:0:0:
143,188,163433,5,0,0:0:0:0:
143,327,163765,1,8,0:0:0:0:
36,40,164428,6,0,P|200:120|284:52,1,308.000009399414
368,184,165422,2,0,L|436:40,2,154.000004699707
388,336,166417,2,0,P|456:308|476:224,1,154.000004699707
336,254,167080,2,8,B|181:161|120:45|257:-114|398:45|337:171|154:252,2,616.000018798829,8|8|12,0:0|0:0|0:0,0:0:0:0:
176,332,170394,6,0,L|99:332,2,77.0000023498536
253,332,170892,1,0,0:0:0:0:
329,332,171057,2,0,L|407:332,2,77.0000023498536
390,250,171610,1,0,0:0:0:0:
335,195,171720,2,0,L|336:112,2,77.0000023498536
232,200,172383,5,0,0:0:0:0:
232,200,172715,1,0,0:0:0:0:
225,39,173046,1,8,0:0:0:0:
96,104,173378,2,0,L|96:208,2,77.0000023498536
168,240,174041,5,0,0:0:0:0:
296,156,174372,1,8,0:0:0:0:
196,28,175035,2,0,P|112:56|112:120,1,154.000004699707
104,259,175698,6,0,L|104:172,2,77.0000023498536
244,192,176361,2,0,L|244:276,2,77.0000023498536
384,256,177024,2,0,L|384:168,2,77.0000023498536
232,272,177687,2,0,L|232:356,2,77.0000023498536
80,256,178350,5,8,0:0:0:0:
80,101,178682,2,0,L|80:23,2,77.0000023498536
228,140,179345,5,0,0:0:0:0:
348,56,179676,1,8,0:0:0:0:
374,305,180339,6,0,P|294:317|204:284,1,154.000004699707
111,241,181002,1,8,0:0:0:0:
96,172,181223,2,0,L|144:116,1,51.3333348999024
192,52,181555,2,0,L|256:108,1,51.3333348999024
296,224,181997,5,0,0:0:0:0:
332,76,182328,1,8,0:0:0:0:
432,104,182549,6,0,L|432:180,1,51.3333348999024
464,252,182881,2,0,P|420:268|388:252,1,51.3333348999024
280,348,183323,1,0,0:0:0:0:
128,324,183654,1,8,0:0:0:0:
168,260,183875,6,0,L|216:196,1,51.3333348999024
276,152,184207,2,0,L|212:104,1,51.3333348999024
96,188,184649,1,0,0:0:0:0:
140,36,184980,1,8,0:0:0:0:
216,36,185201,6,0,L|280:36,1,51.3333348999024
256,100,185643,2,0,P|276:204|120:320,1,308.000009399414
108,166,186638,6,0,L|108:96,1,51.3333348999024,8|0,0:0|0:0,0:0:0:0:
201,119,186969,2,0,L|200:188,1,51.3333348999024,8|0,0:0|0:0,0:0:0:0:
293,165,187300,2,0,L|292:92,1,51.3333348999024,8|0,0:0|0:0,0:0:0:0:
380,172,187632,2,0,L|428:216,1,51.3333348999024
368,300,187963,6,0,L|304:356,1,51.3333348999024
228,340,188295,2,0,L|168:340,1,51.3333348999024,8|0,0:0|0:0,0:0:0:0:
108,268,188626,2,0,L|160:216,1,51.3333348999024,8|0,0:0|0:0,0:0:0:0:
240,208,188958,2,0,L|308:208,1,51.3333348999024,8|0,0:0|0:0,0:0:0:0:
380,172,189289,6,0,L|324:112,1,51.3333348999024
276,64,189621,2,0,L|204:64,1,51.3333348999024
144,124,189952,2,0,L|144:184,1,51.3333348999024,8|0,0:0|0:0,0:0:0:0:
196,260,190284,2,0,L|264:260,1,51.3333348999024,8|0,0:0|0:0,0:0:0:0:
344,248,190615,2,0,L|400:208,1,51.3333348999024,8|0,0:0|0:0,0:0:0:0:
256,192,190947,12,4,193599,0:0:0:0:
