osu file format v14

[General]
AudioFilename: Awaodori.mp3
AudioLeadIn: 0
PreviewTime: 147549
Countdown: 0
SampleSet: Normal
StackLeniency: 0.7
Mode: 0
LetterboxInBreaks: 0
WidescreenStoryboard: 0

[Editor]
DistanceSpacing: 1
BeatDivisor: 3
GridSize: 4
TimelineZoom: 2.4

[Metadata]
Title:Awaodori
TitleUnicode:アワオドリ
Artist:ATOLS
ArtistUnicode:ATOLS
Creator:makemek
Version:Hard+
Source:
Tags:vocaloid hatsune miku
BeatmapID:674470
BeatmapSetID:296100

[Difficulty]
HPDrainRate:6.4
CircleSize:4
OverallDifficulty:7
ApproachRate:7
SliderMultiplier:1.4
SliderTickRate:1

[Events]
//Background and Video events
0,0,"bg.jpg",0,0
Video,-150,"feat.HATSUNE MIKU - AWAODORI - OFFICIAL - YouTube.avi"
//Break Periods
2,85062,94578
//Storyboard Layer 0 (Background)
//Storyboard Layer 1 (Fail)
//Storyboard Layer 2 (Pass)
//Storyboard Layer 3 (Foreground)
//Storyboard Sound Samples

[TimingPoints]
2,662.983425414365,4,1,0,65,1,0
10609,-50,4,1,0,65,0,0
31825,-50,4,1,2,80,0,0
34477,-50,4,1,1,40,0,0
37792,-50,4,1,0,65,0,0
39781,-50,4,1,1,40,0,0
40112,-50,4,1,1,40,0,0
42764,-66.6666666666667,4,1,0,65,0,0
45084,-66.6666666666667,4,1,1,40,0,0
45416,-50,4,1,1,40,0,0
48399,-50,4,1,0,65,0,0
51714,-50,4,1,2,80,0,0
52046,-50,4,1,0,65,0,0
53040,331.491712707182,4,1,0,65,1,0
62156,-66.6666666666667,4,1,0,65,0,0
63647,-83.3333333333333,4,1,0,65,0,0
66299,-83.3333333333333,4,1,1,40,0,0
68951,-83.3333333333333,4,1,0,65,0,0
71603,-83.3333333333333,4,1,1,40,0,0
74255,-83.3333333333333,4,1,0,65,0,0
76907,-83.3333333333333,4,1,1,40,0,0
79559,-83.3333333333333,4,1,0,60,0,0
82211,-83.3333333333333,4,1,1,40,0,0
84365,-83.3333333333333,4,1,0,65,0,0
84863,-83.3333333333333,4,1,2,65,0,0
84871,662.983425414365,4,1,0,65,1,0
95478,-80,4,2,1,65,0,0
106086,-66.6666666666667,4,2,1,65,0,0
116694,-66.6666666666667,4,1,0,65,0,0
119677,-66.6666666666667,4,1,2,65,0,0
121998,-66.6666666666667,4,1,0,65,0,0
124871,-66.6666666666667,4,1,0,65,0,0
127301,331.491712707182,4,1,0,65,1,0
127301,-83.3333333333333,4,1,0,65,0,0
147190,-166.666666666667,4,1,2,80,0,0
147521,-83.3333333333333,4,1,0,65,0,0
148516,-83.3333333333333,4,1,0,65,0,1
169731,-83.3333333333333,4,1,2,80,0,0
170394,-83.3333333333333,4,1,0,65,0,0
186306,-83.3333333333333,4,1,0,65,0,0
190947,-83.3333333333333,4,1,2,65,0,0

[Colours]
Combo1 : 200,200,0
Combo2 : 0,202,0
Combo3 : 18,124,255
Combo4 : 255,192,0

[HitObjects]
192,320,10609,6,0,L|192:260,4,35
56,180,11272,6,0,L|56:273,1,93.3333333333333
56,273,11604,1,0,0:0:0:0:
132,340,11825,1,0,0:0:0:0:
132,340,11935,6,0,L|132:246,1,93.3333333333333
132,246,12267,1,0,0:0:0:0:
208,176,12488,1,0,0:0:0:0:
208,176,12598,6,0,L|208:269,1,93.3333333333333
208,269,12930,1,0,0:0:0:0:
296,320,13151,1,0,0:0:0:0:
296,320,13261,6,8,P|320:216|360:168,2,140
444,276,14256,5,0,0:0:0:0:
444,276,14477,1,0,0:0:0:0:
444,276,14587,1,0,0:0:0:0:
292,284,14919,5,0,0:0:0:0:
200,180,15250,1,8,0:0:0:0:
348,156,15582,1,0,0:0:0:0:
348,156,15803,1,0,0:0:0:0:
348,156,15913,2,4,P|300:84|200:56,1,140
113,60,16576,5,0,0:0:0:0:
73,144,16797,2,0,L|37:215,1,46.6666666666667
144,192,17129,5,0,0:0:0:0:
144,192,17239,1,0,0:0:0:0:
127,283,17460,2,0,L|118:333,1,46.6666666666667
260,324,17902,5,0,0:0:0:0:
300,240,18123,2,0,L|335:168,1,46.6666666666667
400,248,18455,5,0,0:0:0:0:
400,248,18565,1,0,0:0:0:0:
417,157,18786,2,0,L|425:106,1,46.6666666666667
304,180,19228,5,8,0:0:0:0:
164,184,19560,1,0,0:0:0:0:
280,104,19891,1,0,0:0:0:0:
404,68,20222,6,8,P|312:44|248:60,1,140
269,192,20885,1,0,0:0:0:0:
129,192,21217,2,0,P|165:280|237:324,1,140
338,307,21880,5,12,0:0:0:0:
403,194,22101,2,0,L|404:112,1,46.6666666666667
352,68,22432,5,0,0:0:0:0:
352,68,22543,1,0,0:0:0:0:
268,40,22764,2,0,L|192:40,1,46.6666666666667
132,68,23095,5,0,0:0:0:0:
132,68,23206,1,0,0:0:0:0:
88,152,23427,2,0,L|88:220,1,46.6666666666667
136,332,23869,5,0,0:0:0:0:
200,208,24200,2,8,P|236:152|332:144,1,140
306,301,24863,5,0,0:0:0:0:
306,301,25084,1,0,0:0:0:0:
306,301,25195,1,0,0:0:0:0:
461,182,25526,2,0,P|387:117|329:112,1,140
196,275,26189,5,0,0:0:0:0:
112,236,26410,1,0,0:0:0:0:
112,236,26521,2,4,P|96:168|152:152,1,140
132,312,27184,6,0,L|232:312,1,93.3333333333333
225,312,27515,2,0,P|272:340|320:316,1,93.3333333333333
306,329,27847,2,0,P|393:311|412:292,1,93.3333333333333
394,310,28178,2,0,P|435:241|411:181,2,140
260,188,29173,5,0,0:0:0:0:
260,188,29504,1,0,0:0:0:0:
260,82,29836,1,8,0:0:0:0:
92,184,30167,6,0,P|92:96|112:68,1,93.3333333333333
93,93,30499,2,0,P|158:61|196:48,1,93.3333333333333
177,53,30830,2,0,P|258:56|296:72,1,93.3333333333333
268,59,31162,2,0,L|368:96,1,93.3333333333333,8|0,0:0|0:0,0:0:0:0:
388,124,31493,1,0,0:0:0:0:
236,244,31825,1,4,0:0:0:0:
312,320,32488,6,0,P|368:304|396:224,1,140
368,184,33040,1,0,0:0:0:0:
404,156,33151,2,0,P|348:80|140:52,1,280
220,276,34477,6,0,L|104:188,1,140
108,191,35140,1,10,0:0:0:0:
260,152,35471,5,0,0:0:0:0:
304,232,35803,2,0,L|420:144,1,140
415,147,36466,1,10,0:0:0:0:
260,152,36797,5,0,0:0:0:0:
260,152,37129,1,4,0:0:0:0:
144,280,37792,5,8,0:0:0:0:
84,220,37957,2,8,L|21:158,2,70
152,168,38455,2,8,P|152:96|232:60,1,140
371,59,39118,2,8,P|425:100|423:168,1,140
300,252,39781,1,0,0:0:0:0:
204,356,40112,6,0,P|92:300|52:120,1,280,0|2,0:0|0:0,0:0:0:0:
137,160,40996,2,0,L|208:160,1,46.6666666666667
252,284,41438,6,0,P|400:268|480:164,1,280,0|2,0:0|0:0,0:0:0:0:
383,171,42322,2,0,L|300:172,1,46.6666666666667
408,96,42764,2,0,P|372:68|308:100,1,105.000004005432
216,96,43427,2,0,L|284:168,1,70.0000026702882
288,173,43758,2,0,B|340:221|404:149,2,105.000004005432
240,268,44753,1,0,0:0:0:0:
312,344,45084,1,4,0:0:0:0:
444,296,45416,6,0,P|448:152|324:64,1,280,8|0,0:0|0:0,0:0:0:0:
351,69,46410,1,0,0:0:0:0:
180,73,46742,6,0,P|77:160|85:295,1,280,8|0,0:0|0:0,0:0:0:0:
85,295,47736,1,4,0:0:0:0:
220,196,48068,2,0,L|328:196,1,93.3333333333333
335,247,48399,6,0,L|185:247,1,140
140,324,49062,2,0,P|112:228|156:160,2,140
248,236,50057,1,0,0:0:0:0:
380,284,50388,1,0,0:0:0:0:
408,123,50720,2,8,P|312:124|272:64,1,140
120,124,51383,2,8,P|216:125|256:65,1,140,8|12,0:0|0:0,0:0:0:0:
256,264,52046,6,0,L|424:200,1,140
416,48,52709,2,0,L|324:20,1,70,0|4,0:0|0:0,0:0:0:0:
216,140,53288,6,0,L|88:140,1,105
64,88,53702,2,0,B|65:30|188:28,2,140
116,220,54697,2,0,P|156:280|240:296,1,140
368,272,55277,6,0,L|400:240,1,35
432,112,55691,2,0,P|392:64|288:44,2,140
344,140,56575,6,0,L|304:184,1,46.6666666666667
248,48,57017,2,0,P|184:72|153:151,1,140
240,244,57680,2,0,P|124:297|68:184,1,280
79,85,58564,5,0,0:0:0:0:
104,44,58675,2,0,P|160:20|240:40,1,140
372,60,59227,5,0,0:0:0:0:
400,96,59338,2,0,P|424:152|404:232,1,140
288,308,59890,5,0,0:0:0:0:
248,336,60001,2,0,P|192:360|112:340,2,140
448,308,60995,5,2,0:0:0:0:
310,169,61327,1,2,0:0:0:0:
446,169,61658,1,2,0:0:0:0:
308,307,61990,1,2,0:0:0:0:
212,348,62156,5,8,0:0:0:0:
212,276,62321,2,0,B|212:68|168:132|168:252,1,210.000008010865,8|0,0:0|0:0,0:0:0:0:
380,204,62984,2,0,B|380:-4|424:60|424:180,1,210.000008010865,8|0,0:0|0:0,0:0:0:0:
256,112,63647,6,0,P|168:48|40:188,1,335.999989746094,4|0,0:0|0:0,0:0:0:0:
172,340,64642,1,0,0:0:0:0:
340,348,64973,2,0,L|468:208,1,167.999994873047
312,136,65636,2,0,P|378:119|484:160,2,167.999994873047
204,168,66520,5,8,0:0:0:0:
88,288,66852,2,0,L|124:360,1,55.9999982910157,8|0,0:0|0:0,0:0:0:0:
200,268,67183,1,8,0:0:0:0:
364,232,67515,6,0,L|420:176,1,55.9999982910157,8|0,0:0|0:0,0:0:0:0:
388,80,67846,1,8,0:0:0:0:
252,40,68122,6,8,L|168:92,1,83.9999974365235,8|0,0:0|0:0,0:0:0:0:
108,124,68454,2,8,L|108:228,1,83.9999974365235,8|0,0:0|0:0,0:0:0:0:
164,268,68785,1,0,0:0:0:0:
252,260,68951,6,0,P|384:228|424:64,1,307.999990600586,8|0,0:0|0:0,0:0:0:0:
264,60,69946,2,0,P|168:60|128:112,2,167.999994873047
448,88,70940,2,0,P|444:176|376:228,1,167.999994873047
232,280,71603,5,0,0:0:0:0:
124,256,71824,1,8,0:0:0:0:
36,112,72156,6,0,L|108:172,1,55.9999982910157,8|0,0:0|0:0,0:0:0:0:
128,48,72487,1,8,0:0:0:0:
292,152,72819,6,0,L|248:204,1,55.9999982910157,8|0,0:0|0:0,0:0:0:0:
180,104,73150,1,8,0:0:0:0:
148,232,73426,6,0,L|212:308,1,83.9999974365235,8|0,0:0|0:0,0:0:0:0:
261,236,73758,2,0,L|325:312,1,83.9999974365235,8|0,0:0|0:0,0:0:0:0:
374,240,74089,1,0,0:0:0:0:
416,168,74255,6,0,P|376:104|272:80,2,167.999994873047,8|0|0,0:0|0:0|0:0,0:0:0:0:
248,136,75249,2,0,B|191:136|167:156|108:232,1,167.999994873047
84,348,75912,1,0,0:0:0:0:
268,348,76244,2,0,P|344:316|344:224,1,167.999994873047
233,119,76907,5,0,0:0:0:0:
148,119,77073,1,8,0:0:0:0:
124,296,77404,6,8,L|124:196,2,83.9999974365235,8|0|8,0:0|0:0|0:0,0:0:0:0:
288,298,78067,2,8,L|288:196,2,83.9999974365235,8|0|8,0:0|0:0|0:0,0:0:0:0:
412,184,78730,2,8,L|340:256,1,83.9999974365235,8|0,0:0|0:0,0:0:0:0:
288,184,79062,2,8,L|220:124,1,83.9999974365235,8|0,0:0|0:0,0:0:0:0:
164,36,79448,1,0,0:0:0:0:
216,8,79559,6,0,P|304:16|444:216,1,335.999989746094
340,332,80553,1,8,0:0:0:0:
236,200,80885,1,8,0:0:0:0:
80,264,81216,1,8,0:0:0:0:
120,96,81548,2,0,P|168:52|248:100,2,167.999994873047,8|0|0,0:0|0:0|0:0,0:0:0:0:
120,180,82432,5,8,0:0:0:0:
240,296,82763,2,0,L|292:348,1,55.9999982910157,8|0,0:0|0:0,0:0:0:0:
360,256,83095,1,8,0:0:0:0:
376,88,83426,6,8,L|376:0,1,55.9999982910157,8|0,0:0|0:0,0:0:0:0:
296,111,83758,2,8,L|296:199,1,55.9999982910157,8|0,0:0|0:0,0:0:0:0:
216,87,84089,2,8,L|217:9,1,55.9999982910157,8|0,0:0|0:0,0:0:0:0:
140,68,84365,2,0,P|116:148|256:192,1,251.999992309571,0|4,0:0|0:0,0:0:0:0:
72,288,95478,6,0,P|220:228|340:224,1,262.5
264,308,96804,2,0,P|324:260|508:204,1,262.5
416,140,98130,2,0,P|300:148|152:44,1,262.5
76,48,99456,1,0,0:0:0:0:
100,152,99788,5,0,0:0:0:0:
192,96,100119,2,0,L|192:52,2,43.75
284,152,100782,6,0,P|384:200|340:336,1,262.5
296,240,102108,2,0,P|152:228|264:104,1,262.5
56,96,103434,2,0,P|324:48|472:104,1,262.5
404,92,104760,1,0,0:0:0:0:
392,196,105091,5,0,0:0:0:0:
287,180,105423,2,0,L|343:132,2,43.75
172,128,106086,6,0,P|268:80|488:88,1,315.000012016297,0|8,0:0|0:0,0:0:0:0:
388,176,107412,2,0,B|344:232|344:232|296:196|296:196|224:280,1,210.000008010865,0|8,0:0|0:0,0:0:0:0:
155,345,108406,1,0,0:0:0:0:
155,219,108738,2,0,B|155:119|155:119|275:223|275:223|274:115|274:115|347:115|347:115,1,420.000016021729,0|8,0:0|0:0,0:0:0:0:
452,124,110395,5,0,0:0:0:0:
340,180,110727,2,0,L|277:244,2,52.5000020027161
320,64,111390,6,0,P|184:24|96:56,1,210.000008010865
76,160,112384,1,0,0:0:0:0:
136,272,112716,2,0,P|188:192|224:188,1,105.000004005432,8|0,0:0|0:0,0:0:0:0:
252,276,113379,2,0,P|304:260|336:192,1,105.000004005432
436,132,114042,2,8,B|352:16|308:100|248:272|188:104|144:-12|60:160,1,420.000016021729
132,240,115699,5,0,0:0:0:0:
232,316,116031,2,0,L|276:252,2,52.5000020027161
256,192,116694,2,0,P|336:204|444:112,1,210.000008010865,4|0,0:0|0:0,0:0:0:0:
435,131,117688,1,0,0:0:0:0:
316,84,118020,2,0,B|256:40|204:52,2,105.000004005432
276,204,119014,1,8,0:0:0:0:
160,252,119346,1,4,0:0:0:0:
80,184,119677,6,0,L|80:272,1,70.0000026702882
88,288,120009,2,0,L|160:332,1,70.0000026702882
180,332,120340,1,0,0:0:0:0:
248,336,120561,6,0,L|292:304,1,35.0000013351441
348,312,120893,1,0,0:0:0:0:
368,284,121003,2,0,L|400:216,1,70.0000026702882
372,196,121335,1,0,0:0:0:0:
308,164,121556,1,0,0:0:0:0:
276,148,121666,2,0,P|268:112|304:100,1,70.0000026702882
292,52,121998,6,8,P|392:52|380:184,2,210.000008010865
232,140,123655,2,8,L|108:208,2,105.000004005432
284,48,124650,2,8,B|428:48|528:128|416:192|268:192|156:192|96:284|156:348|280:348,1,630.000024032594
484,96,127301,6,0,P|348:36|152:92,1,335.999989746094,4|0,0:0|0:0,0:0:0:0:
84,260,128295,1,0,0:0:0:0:
272,188,128626,2,0,P|364:176|424:96,2,167.999994873047
84,116,129621,1,0,0:0:0:0:
160,304,129952,2,0,P|248:348|324:308,2,167.999994873047
77,157,130947,1,0,0:0:0:0:
199,41,131278,1,0,0:0:0:0:
353,107,131610,2,0,P|424:189|395:251,2,167.999994873047
300,304,132604,6,0,B|136:352|48:212|52:104,1,335.999989746094,8|0,0:0|0:0,0:0:0:0:
232,48,133599,1,0,0:0:0:0:
416,128,133930,1,0,0:0:0:0:
260,256,134262,2,0,P|168:300|92:256,2,167.999994873047
156,144,135256,2,0,P|224:92|340:80,1,167.999994873047
348,204,135919,5,0,0:0:0:0:
484,160,136251,2,0,L|436:117,4,41.9999987182618
316,272,136914,2,0,P|200:272|148:212,1,167.999994873047
296,136,137577,1,0,0:0:0:0:
440,224,137908,6,0,P|377:75|219:44,1,335.999989746094,4|0,0:0|0:0,0:0:0:0:
336,208,138903,1,0,0:0:0:0:
196,52,139234,2,0,P|68:52|24:96,1,167.999994873047
84,156,139897,1,0,0:0:0:0:
132,244,140229,1,0,0:0:0:0:
216,296,140560,6,0,L|260:272,7,41.9999987182618
276,264,141223,2,0,L|320:240,7,41.9999987182618
332,228,141886,2,0,L|367:188,7,41.9999987182618
364,172,142549,2,0,L|365:128,7,41.9999987182618
256,192,143295,12,4,147190,0:0:0:0:
132,96,147521,5,8,0:0:0:0:
176,288,147853,1,8,0:0:0:0:
308,144,148184,1,8,0:0:0:0:
472,252,148516,2,0,P|484:168|296:48,1,335.999989746094,4|0,0:0|0:0,0:0:0:0:
188,88,149510,1,0,0:0:0:0:
108,276,149842,1,0,0:0:0:0:
272,248,150173,2,0,L|364:96,2,167.999994873047
456,248,151168,2,0,P|344:344|176:272,1,335.999989746094
88,124,152162,5,8,0:0:0:0:
88,124,152494,1,8,0:0:0:0:
236,236,152825,1,0,0:0:0:0:
380,124,153157,1,8,0:0:0:0:
80,300,153820,2,0,L|80:260,6,27.9999991455078
148,112,154483,5,8,0:0:0:0:
304,232,154814,1,8,0:0:0:0:
424,112,155146,2,0,P|452:196|408:280,2,167.999994873047,8|0|0,0:0|0:0|0:0,0:0:0:0:
264,60,156140,1,0,0:0:0:0:
88,108,156472,2,0,P|40:220|208:276,1,335.999989746094,0|8,0:0|0:0,0:0:0:0:
356,204,157466,5,8,0:0:0:0:
356,204,157798,1,8,0:0:0:0:
220,104,158129,5,0,0:0:0:0:
76,220,158461,1,8,0:0:0:0:
388,360,159124,6,0,P|416:264|296:72,1,335.999989746094,4|8,0:0|0:0,0:0:0:0:
120,108,160118,1,8,0:0:0:0:
72,288,160450,1,8,0:0:0:0:
252,336,160781,2,8,P|204:288|104:236,2,167.999994873047
34,234,161776,2,0,B|35:-21|173:-21|174:153|174:368|327:367|327:148|327:-26|465:-25|465:263,1,839.999974365235,0|8,0:0|0:0,0:0:0:0:
256,296,163765,1,8,0:0:0:0:
396,200,164428,6,0,L|396:156,6,27.9999991455078
276,80,165091,2,0,P|204:44|104:60,2,167.999994873047,8|0|0,0:0|0:0|0:0,0:0:0:0:
476,40,166085,1,0,0:0:0:0:
472,240,166417,2,0,P|464:316|376:356,1,167.999994873047
340,288,167080,2,8,B|173:188|108:64|255:-107|407:64|341:199|144:285,2,671.999979492188,8|8|12,0:0|0:0|0:0,0:0:0:0:
56,180,170394,6,0,L|56:304,1,111.999996582031
56,292,170726,1,0,0:0:0:0:
156,344,170947,1,0,0:0:0:0:
156,344,171057,6,0,L|156:232,1,111.999996582031
156,232,171389,1,0,0:0:0:0:
252,172,171610,5,0,0:0:0:0:
252,172,171720,2,0,L|252:284,1,111.999996582031
252,265,172052,1,0,0:0:0:0:
352,316,172273,5,0,0:0:0:0:
352,316,172383,2,8,P|376:212|420:156,2,167.999994873047
284,160,173378,5,0,0:0:0:0:
284,160,173599,1,0,0:0:0:0:
284,160,173709,1,0,0:0:0:0:
284,328,174041,5,0,0:0:0:0:
200,180,174372,1,8,0:0:0:0:
368,168,174704,1,0,0:0:0:0:
368,168,174925,1,0,0:0:0:0:
368,168,175035,2,4,P|320:96|228:60,1,167.999994873047
113,60,175698,5,0,0:0:0:0:
73,144,175919,2,0,L|32:232,1,55.9999982910157
144,192,176251,5,0,0:0:0:0:
144,192,176361,1,0,0:0:0:0:
116,300,176582,2,0,L|77:369,1,55.9999982910157
260,324,177024,5,0,0:0:0:0:
300,240,177245,2,0,L|336:152,1,55.9999982910157
416,252,177577,5,0,0:0:0:0:
416,252,177687,1,0,0:0:0:0:
433,161,177908,2,0,L|444:88,1,55.9999982910157
300,240,178350,5,8,0:0:0:0:
140,212,178682,1,0,0:0:0:0:
288,132,179013,1,0,0:0:0:0:
440,56,179344,6,8,P|348:32|264:48,1,167.999994873047
296,212,180007,1,0,0:0:0:0:
464,192,180339,2,0,P|464:273|403:327,1,167.999994873047
236,328,181002,5,0,0:0:0:0:
156,304,181168,2,0,L|92:236,1,83.9999974365235
56,188,181499,2,0,L|56:104,1,83.9999974365235
84,40,181831,2,0,L|180:80,1,83.9999974365235
200,236,182328,1,8,0:0:0:0:
268,184,182494,2,0,L|336:236,2,83.9999974365235
320,120,182991,6,0,P|388:180|436:256,2,167.999994873047
236,84,183820,2,0,L|144:84,1,83.9999974365235
112,148,184151,2,0,L|64:232,1,83.9999974365235
224,288,184649,5,0,0:0:0:0:
352,188,184980,1,8,0:0:0:0:
268,188,185146,6,0,L|164:188,1,83.9999974365235
172,272,185477,1,0,0:0:0:0:
108,340,185643,2,0,L|108:304,6,27.9999991455078
100,148,186306,6,0,L|100:68,1,55.9999982910157
234,92,186638,2,0,L|234:160,1,55.9999982910157
369,148,186969,2,0,L|368:80,1,55.9999982910157
502,92,187300,2,0,L|501:156,1,55.9999982910157
401,248,187632,6,0,L|328:248,1,55.9999982910157
249,343,187963,2,0,L|324:344,1,55.9999982910157
209,247,188295,2,0,L|136:247,1,55.9999982910157
57,342,188626,2,0,L|132:343,1,55.9999982910157
112,208,188958,6,0,L|112:128,1,55.9999982910157
207,56,189289,2,0,L|208:124,1,55.9999982910157
303,207,189621,2,0,L|303:131,1,55.9999982910157
398,55,189952,2,0,L|399:116,1,55.9999982910157
436,240,190284,6,0,L|380:192,1,55.9999982910157
298,108,190615,2,0,L|346:60,1,55.9999982910157
256,192,190947,12,4,193599,0:0:0:0:
