osu file format v9

[General]
AudioFilename: ATC-Around the world.mp3
AudioLeadIn: 0
PreviewTime: -1
Countdown: 1
SampleSet: Normal
StackLeniency: 0.7
Mode: 0
LetterboxInBreaks: 1

[Editor]
DistanceSpacing: 1
BeatDivisor: 4
GridSize: 8

[Metadata]
Title:Around the world
Artist:ATC
Creator:ElySisotaNadic
Version:Normal
Source:
Tags:

[Difficulty]
HPDrainRate:3
CircleSize:4
OverallDifficulty:5
ApproachRate:5
SliderMultiplier:1.50000000596046
SliderTickRate:2

[Events]
//Background and Video events
0,0,"BG.jpg"
//Break Periods
2,52191,65336
2,124918,139882
2,154009,154427
2,183100,196700
//Storyboard Layer 0 (Background)
//Storyboard Layer 1 (Fail)
//Storyboard Layer 2 (Pass)
//Storyboard Layer 3 (Foreground)
//Storyboard Sound Samples
//Background Colour Transformations
3,100,3,3,3

[TimingPoints]
1082,454.545454545455,4,1,0,100,1,0
19263,-83.3333333333333,4,1,0,100,0,0
20286,-100,4,1,0,100,0,0

[Colours]
Combo1 : 147,147,255
Combo2 : 249,157,223
Combo3 : 255,174,136
Combo4 : 82,216,239

[HitObjects]
256,192,1082,1,0
128,112,1536,1,0
112,264,1991,2,0,B|184:264|224:344|256:32|288:344|320:264|408:264,1,300.000001192092
384,112,3354,1,0
256,192,3809,2,0,B|160:200|168:344|320:344|352:208|232:184,1,300.000001192092
128,272,5172,1,0
104,120,5627,2,0,B|176:120|216:40|248:336|280:40|320:120|416:120,1,300.000001192092
392,264,6991,1,0
336,128,7445,2,0,B|296:128|296:128|296:80|256:56|216:80|216:128|216:128|168:128,1,225.000000894069
96,128,8354,1,0
96,200,8582,1,0
96,272,8809,1,0
152,320,9036,1,0
224,320,9263,1,0
256,48,10400,5,0
256,120,10627,1,0
256,192,10854,1,0
256,192,11082,2,0,B|256:344,1,150.000000596046
256,344,11763,5,0
184,344,11991,1,0
112,344,12218,1,0
40,344,12445,2,0,B|40:192,1,150.000000596046
344,192,13809,5,0
416,192,14036,1,0
416,120,14263,1,0
416,48,14491,1,0
416,48,14718,2,0,B|256:48,1,150.000000596046
264,48,15400,5,0
200,88,15627,1,0
256,136,15854,1,0
200,184,16082,1,0
256,232,16309,1,0
256,304,16536,2,0,B|232:328|232:328|208:304|208:304|184:328|184:328|160:304|160:304|136:328|136:328|112:304|112:304|88:328|88:328|64:304|64:304|40:328,1,300.000001192092
48,320,17672,1,0
48,320,17900,1,0
48,168,18354,1,0
200,168,18809,1,0
376,168,19263,2,0,B|480:168,4,90.0000025033949
48,296,21082,5,0
184,232,21536,1,0
320,168,21991,2,0,B|384:240|320:320,1,150.000000596046,0|0
184,304,22900,5,0
112,304,23127,1,0
40,304,23354,1,0
40,152,23809,5,0
112,152,24036,1,0
184,152,24263,1,0
296,48,24718,5,0
296,120,24945,1,0
296,192,25172,1,0
296,264,25400,1,0
296,336,25627,2,0,B|224:368|144:336,1,150.000000596046
48,232,26536,5,0
48,160,26763,1,0
48,88,26991,1,0
200,88,27445,5,0
200,160,27672,1,0
200,232,27900,1,0
328,160,28354,5,0
312,88,28582,1,0
240,72,28809,1,0
184,120,29036,1,0
184,120,29263,2,0,B|128:192|184:272,1,150.000000596046
320,288,30172,5,0
392,288,30400,1,0
392,216,30627,2,0,B|424:176|360:176|392:136,4,75.000000298023
392,288,31763,1,0
320,288,31991,2,0,B|280:256|280:312|248:288,1,75.000000298023
176,288,32445,5,0
104,256,32672,1,0
72,184,32900,1,0
104,112,33127,1,0
176,80,33354,1,0
248,112,33582,1,0
280,184,33809,2,0,B|280:232|248:264,8,75.000000298023
160,272,36082,5,0
248,152,36536,1,0
336,272,36991,1,0
464,200,37445,5,0
416,144,37672,1,0
360,96,37900,1,0
216,64,38354,5,0
104,160,38809,1,0
248,192,39263,1,0
304,240,39491,5,0
360,288,39718,1,0
416,336,39945,1,0
344,352,40172,2,0,B|312:336|272:352,1,75.000000298023
200,352,40627,2,0,B|160:328|112:360,1,75.000000298023
56,344,41082,5,0
104,288,41309,1,0
48,240,41536,1,0
48,88,41991,5,0
160,184,42445,1,0
272,88,42900,1,0
328,136,43127,1,0
384,88,43354,1,0
480,200,43809,1,0
424,248,44036,1,0
368,200,44263,1,0
312,248,44491,1,0
256,200,44718,1,0
104,192,45172,5,0
240,248,45627,1,0
376,192,46082,1,0
376,40,46536,1,0
376,40,46763,2,0,B|376:136,1,75.000000298023
304,120,47218,2,0,B|304:24,1,75.000000298023
304,48,47672,1,0
232,48,47900,1,0
160,48,48127,1,0
88,48,48354,2,0,B|88:136,4,75.000000298023
256,40,50172,2,0,B|256:144,6,75.000000298023
256,192,51991,1,0
464,192,66536,5,0
312,192,66991,2,0,B|232:192,4,75.000000298023
160,192,68354,1,0
80,320,68809,5,0
80,168,69263,1,0
208,88,69718,1,0
352,136,70172,2,0,B|352:288,1,150.000000596046
280,264,70854,1,0
240,328,71082,5,0
88,328,71536,1,0
32,192,71991,2,0,B|32:88,2,75.000000298023
104,192,72672,1,0
176,192,72900,2,0,B|248:192,8,37.5000001490115
328,192,74263,5,0
424,72,74718,1,0
120,56,75172,2,0,B|32:56,2,75.000000298023
56,192,76082,1,0
136,320,76536,5,0
272,256,76991,2,0,B|272:360,1,75.000000298023,0|0
272,328,77445,5,0
344,312,77672,1,0
400,264,77900,1,0
352,208,78127,1,0
296,160,78354,5,0
144,144,78809,2,0,B|192:144|192:208|144:208|144:208|144:272,1,150.000000596046
272,336,79718,1,0
272,264,79945,1,0
272,192,80172,1,0
328,144,80400,1,0
272,88,80627,1,0
224,144,80854,1,0
152,144,81082,6,0,B|72:144,1,75.000000298023
80,216,81536,2,0,B|80:304,2,75.000000298023
376,192,82900,5,0
224,192,83354,1,0
256,48,83809,1,0
104,48,84263,1,0
56,192,84718,5,0
88,264,84945,1,0
160,296,85172,1,0
232,264,85400,1,0
264,192,85627,1,0
416,192,86082,1,0
264,192,86536,1,0
192,192,86763,6,0,B|192:296,2,75.000000298023,8|2|8
256,192,87445,2,0,B|256:288,3,75.000000298023,2|8|2|8
296,128,88354,6,0,B|256:88|208:136,1,75.000000298023
296,272,88809,2,0,B|256:312|200:264,1,75.000000298023
72,192,89263,2,0,B|72:296,2,75.000000298023,2|8|2
360,48,90172,1,0
472,40,90400,5,0
392,112,90627,1,0
256,192,90854,1,0
416,192,91082,2,0,B|416:296,3,75.000000298023,2|8|2|8
288,192,91991,5,0
256,352,92218,1,0
216,192,92445,1,0
256,192,93809,5,0
216,352,94036,5,0
296,352,94263,1,0
416,240,94491,5,0
424,152,94718,1,0
304,40,94945,5,0
216,120,95172,1,0
128,48,95400,1,0
200,192,95627,5,0
40,192,95854,1,0
112,336,96082,1,0
272,328,96309,1,0
352,264,96536,1,0
384,192,96763,6,0,B|384:88,1,75.000000298023,10|10
224,80,97218,2,0,B|224:144,2,37.5000001490115
224,240,97672,6,0,B|224:192,2,37.5000001490115
368,168,98127,1,0
376,328,98354,1,0
216,336,98582,2,0,B|256:288|296:336,1,75.000000298023,8|2
184,216,99036,1,0
72,336,99263,6,0,B|112:296|160:344,1,75.000000298023,2|10
40,224,99718,1,0
152,224,99945,1,0
264,224,100172,1,0
256,64,100400,5,0
96,64,100854,1,0
264,128,102445,1,0
296,288,102672,2,0,B|296:192,1,75.000000298023,0|2
152,184,104945,5,0
224,328,105172,1,0
384,328,105400,1,0
376,168,105627,2,0,B|328:192|288:128,1,75.000000298023,2|0
136,112,106082,1,0
144,272,106309,1,0
24,192,107445,1,0
184,192,107672,5,0
296,192,107900,1,0
296,32,108127,5,0
296,144,108354,1,0
448,192,108582,6,0,B|448:96,2,75.000000298023,8|2|8
288,200,109263,2,0,B|288:296,3,75.000000298023
256,136,110172,5,0
104,192,110400,2,0,B|104:144,2,37.5000001490115,0|0|2
264,192,110854,5,0
376,192,111082,1,0
56,208,112218,6,0,B|16:256|64:296,1,75.000000298023,0|2
216,336,112672,2,0,B|256:368|304:336,1,75.000000298023,0|2
464,296,113127,2,0,B|496:256|456:208,1,75.000000298023,0|2
296,192,113582,5,0
136,192,113809,1,0
216,336,114036,1,0
216,176,114263,1,0
216,336,114491,1,0
216,224,114718,1,0
56,192,114945,6,0,B|56:136,5,37.5000001490115
56,96,115627,1,0
184,192,115854,6,0,B|184:88,6,75.000000298023,0|2|0|2|0|2|0
256,48,117445,5,0
336,192,117672,1,0
240,320,117900,2,0,B|336:320,2,75.000000298023
80,304,118582,1,0
72,144,118809,1,0
232,128,119036,1,0
328,256,119263,1,0
392,104,119491,6,0,B|440:104|440:104|440:152,1,75.000000298023,2|2
288,192,120854,1,0
152,104,121082,6,0,B|112:104|112:104|112:160,1,75.000000298023
256,232,121536,1,0
256,72,121763,1,0
256,184,121991,1,0
256,192,122900,5,0
96,192,123127,6,0,B|192:192,1,75.000000298023,2|2
256,40,123582,1,0
256,200,123809,2,0,B|256:296,3,75.000000298023,2|2|2|2
256,200,124718,5,0
256,192,141082,12,0,143809
64,192,144263,5,0
152,328,144491,1,0
240,192,144718,1,0
472,192,145172,5,0
384,328,145400,1,0
296,192,145627,1,0
256,40,146082,5,0
256,192,146309,12,0,150172
72,112,150627,5,0
216,40,150854,1,0
104,160,151082,5,0
248,88,151309,1,0
136,208,151536,5,0
280,136,151763,5,0
472,96,152218,1,0
424,248,152445,5,0
216,240,152900,1,0
56,272,153127,5,0
88,176,153354,1,0
152,248,153582,1,0
56,272,153809,1,0
64,48,155627,5,0
136,192,155854,1,0
272,104,156082,1,0
408,192,156309,1,0
296,192,156536,1,0
224,336,156763,21,0
272,232,156991,1,0
152,128,157218,5,0
256,176,157445,1,0
224,336,157672,5,0
296,192,157900,1,0
192,272,159263,6,0,B|248:272,8,37.5000001490115
336,192,160400,5,0
224,192,160627,1,0
64,192,160854,5,0
176,192,161082,1,0
336,192,161309,5,0
176,192,161536,1,0
336,192,161763,1,0
256,48,161991,1,0
256,208,162218,1,0
416,200,162445,1,0
416,88,162672,1,0
256,48,162900,5,0
256,208,163127,1,0
96,192,163354,1,0
96,80,163582,1,0
256,48,163809,1,0
256,208,164036,21,0
256,320,164263,1,0
360,192,164491,1,0
288,304,165172,6,0,B|248:360|200:312,1,75.000000298023
392,56,166309,2,0,B|296:56,1,75.000000298023
256,216,167218,2,0,B|256:120,1,75.000000298023,0|2
400,192,167672,1,0
240,192,167900,1,0
80,192,168127,1,0
240,192,168354,1,0
256,208,169263,2,0,B|256:304,3,75.000000298023,2|0|2|0
104,248,170172,5,0
168,160,170400,1,0
232,64,170627,1,0
304,160,170854,1,0
368,256,171082,1,0
216,192,171309,21,0
56,192,171536,1,0
216,192,171763,1,0
376,192,171991,1,0
456,304,172900,5,0
344,304,173127,1,0
184,304,173354,1,0
344,304,173582,1,0
464,192,173809,5,0
304,192,174036,2,0,B|304:256,6,37.5000001490115,0|0|2|0|0|0|0
144,192,174945,5,0
248,192,175172,1,0
88,192,175400,1,0
248,192,175627,1,0
400,144,175854,6,0,B|296:144,1,75.000000298023,2|10
160,208,176763,2,0,B|256:208,1,75.000000298023,2|10
416,192,177218,5,0
256,192,177445,1,0
352,64,177672,1,0
192,48,177900,1,0
112,192,178127,1,0
112,304,178354,1,0
272,208,178809,5,0
272,208,179263,1,0
432,192,179491,5,0
432,304,179718,1,0
312,192,179945,1,0
152,192,180172,1,0
40,312,180400,1,0
40,200,180627,1,0
80,48,180854,1,0
152,192,181082,6,0,B|200:192,8,37.5000001490115
256,64,182218,5,0
256,176,182445,1,0
256,336,182672,1,0
256,176,182900,1,0
256,192,197900,12,0,198809
48,192,199263,5,0
144,192,199491,1,0
240,192,199718,1,0
336,192,199945,1,0
472,192,201309,5,0
312,192,201536,1,0
152,192,201763,1,0
152,192,203127,5,0
256,320,203354,1,0
352,192,203582,1,0
448,64,203809,5,0
352,192,204036,1,0
256,64,204263,1,0
160,192,204491,5,0
64,64,204718,1,0
160,192,204945,1,0
256,64,205172,5,0
352,192,205400,1,0
256,320,205627,1,0
160,192,205854,5,0
256,320,206082,1,0
352,192,206309,1,0
256,64,206536,6,0,B|256:160,2,75.000000298023,2|0|2
352,192,207218,2,0,B|456:192,2,75.000000298023,0|2|0
256,64,207900,1,0
256,64,208127,1,0
256,224,208354,6,0,B|256:336,2,112.500000447034,2|0|2
96,192,209718,1,0
96,192,209945,1,0
256,192,210172,5,0
256,32,210400,2,0,B|256:136,1,75.000000298023,0|0
256,352,210854,2,0,B|256:256,1,75.000000298023,0|2
256,192,211309,1,0
256,192,211536,1,0
256,344,211991,5,0
40,192,212218,5,0
256,40,212445,5,0
472,192,212672,5,0
128,192,212900,5,0
384,192,213127,5,0
40,192,213354,5,0
472,192,213582,5,0
