osu file format v9

[General]
AudioFilename: ATB - Marrakech.mp3
AudioLeadIn: 0
PreviewTime: 58168
Countdown: 0
SampleSet: Soft
StackLeniency: 0.7
Mode: 0
LetterboxInBreaks: 1

[Editor]
Bookmarks: 49987
DistanceSpacing: 0.8
BeatDivisor: 2
GridSize: 4

[Metadata]
Title:Marrakech
Artist:ATB
Creator:-Bakari-
Version:Normal
Source:
Tags:andre tanneberger trance no silence tiff lacey

[Difficulty]
HPDrainRate:3
CircleSize:4
OverallDifficulty:3
ApproachRate:4
SliderMultiplier:1.2
SliderTickRate:2

[Events]
//Background and Video events
0,0,"bg.jpg"
//Break Periods
2,87240,100132
//Storyboard Layer 0 (Background)
//Storyboard Layer 1 (Fail)
//Storyboard Layer 2 (Pass)
//Storyboard Layer 3 (Foreground)
//Storyboard Sound Samples
//Background Colour Transformations
3,100,163,162,255

[TimingPoints]
14836,451.127819548872,4,1,0,30,1,0
56001,-100,4,2,0,24,0,0
58144,-100,4,2,0,50,0,1
65362,-100,4,2,0,45,0,1
67166,-100,4,2,0,40,0,1
72580,-100,4,2,0,45,0,1
73031,-100,4,2,0,50,0,1
79798,-100,4,2,0,45,0,1
83407,-100,4,2,0,40,0,1
86565,-100,4,2,0,45,0,1
87016,-100,4,2,0,35,0,0
87016,-100,4,2,0,50,0,0
126715,-100,4,2,0,30,0,0
141602,-100,4,2,0,5,0,0

[Colours]
Combo1 : 219,202,227
Combo2 : 255,237,174
Combo3 : 197,206,254

[HitObjects]
100,100,14835,1,4
152,176,15287,1,8
56,188,15738,1,0
72,284,16189,1,8
168,300,16640,2,0,B|208:252|284:236,1,120,4|8
360,276,17542,2,0,B|384:212|332:164,1,120,0|8
344,72,18445,6,0,B|468:56,2,120,4|8|0
256,44,19798,1,8
160,64,20249,2,0,B|96:84|44:48,1,120,4|8
32,144,21151,2,0,B|56:264,1,120,0|8
144,276,22054,6,0,B|200:252|280:260,1,120,4|8
316,336,22956,1,0
388,272,23407,1,8
452,200,23858,2,0,B|408:160|416:88,1,120,4|8
332,44,24760,2,0,B|343:109|300:155,1,120,0|8
238,80,25663,5,4
140,96,26114,2,0,B|64:92|32:24,1,120,8|0
4,128,27016,1,8
60,208,27467,2,0,B|76:268|52:336,1,120,4|8
148,344,28369,1,0
224,284,28820,1,8
304,336,29272,6,0,B|372:356|424:300,2,120,4|8|0
340,248,30625,1,8
428,212,31076,2,0,B|472:88,1,120,4|8
396,36,31978,1,0
300,44,32429,1,8
204,48,32881,5,4
108,44,33332,1,8
48,120,33783,2,0,B|108:156|172:120,1,120,0|8
252,164,34685,1,4
184,232,35136,1,8
276,264,35587,1,0
332,184,36039,1,8
364,96,36490,6,0,B|432:88|476:124,1,120,4|8
468,176,37166,1,0
448,220,37392,2,0,B|428:288|476:336,1,120,0|8
376,332,38294,1,4
280,340,38745,2,0,B|220:312|160:328,1,120,8|0
84,272,39648,2,0,B|118:214|82:158,1,120,8|4
256,192,40550,12,0,42805
136,324,43708,5,4
81,245,44159,2,0,B|119:198|97:132,1,120,8|0
60,42,45061,1,8
156,60,45512,2,0,B|280:48,1,120,4|8
296,144,46414,2,0,B|360:172|420:136,1,120,0|8
472,216,47317,5,4
432,240,47542,1,0
404,280,47768,1,8
324,332,48219,2,0,B|272:300|204:308,1,120,0|8
116,332,49121,1,4
120,236,49572,2,0,B|148:172|108:116,1,120,8|0
64,40,50475,1,8
160,40,50926,5,4
236,96,51377,2,0,B|298:87|333:32,1,120,8|0
423,68,52279,2,0,B|471:109,2,60,8|0|4
356,136,53181,2,0,B|332:212|380:252,1,120,8|0
432,324,54084,2,0,B|312:372,1,120,8|4
256,192,54986,12,0,57242
224,268,58144,6,0,B|276:300|340:280,1,120,4|8
412,217,59046,2,0,B|485:216|515:280,1,120,0|8
423,312,59948,1,4
340,361,60399,2,0,B|283:366|220:371,1,120,8|0
131,334,61302,1,8
72,260,61753,6,0,B|100:192|60:144,2,120,4|8|0
168,260,63106,1,8
264,248,63557,2,0,B|304:196|276:132,1,120,4|8
252,40,64460,2,0,B|312:72|368:32,1,120,0|8
452,76,65362,6,0,B|442:140|469:194,1,120,4|8
376,184,66264,2,0,B|318:205|276:272,1,120,0|8
232,336,67166,2,0,B|176:304|116:328,1,120,4|8
24,300,68069,2,0,B|68:252|48:180,1,120,0|8
120,124,68971,5,0
216,116,69422,1,8
256,204,69873,2,0,B|320:168|308:88,1,120,0|8
404,112,70775,1,4
408,208,71226,2,0,B|352:256|364:316,1,120,8|0
272,340,72129,2,0,B|140:288,1,120,8|4
96,224,73031,6,0,B|84:160|140:112,2,120,8|0|8
188,196,74384,2,0,B|256:200|308:144,1,120,4|8
392,160,75287,2,0,B|432:236,2,60,0|0|8
368,68,76189,6,0,B|240:64,1,120,4|8
232,160,77091,2,0,B|96:156,2,120,0|8|4
220,256,78445,1,8
316,272,78896,2,0,B|376:296|400:356,1,120,0|8
472,288,79798,5,4
428,204,80249,2,0,B|464:84,1,120,8|0
372,52,81151,1,8
348,144,81602,2,0,B|284:120|280:44,2,120,4|8|0
316,236,82956,1,8
237,180,83407,6,0,B|196:232|127:240,1,120
84,160,84309,2,0,B|136:120|128:40,1,120,0|8
224,72,85211,1,4
320,80,85663,2,4,B|456:100,2,120,8|0|8
268,160,87016,5,4
256,332,101452,5,4
160,352,101903,2,0,B|152:308|184:256|220:244,1,120,8|0
256,168,102805,1,8
344,132,103257,2,0,B|368:125|400:73|392:29,2,120,4|8|0
364,224,104610,1,8
352,320,105061,6,0,B|480:356,2,120,4|8|0
264,280,106414,1,8
172,292,106866,2,0,B|120:244|56:244,1,120,4|8
80,148,107768,2,0,B|160:56,1,120,0|8
244,104,108670,5,4
328,60,109121,1,8
404,120,109572,2,0,B|416:52|492:24,2,120,0|8|4
320,168,110926,1,8
392,228,111377,2,0,B|432:288|496:292,1,120,0|8
432,368,112279,6,0,B|376:340|304:356,1,120,4|8
224,316,113181,1,0
128,336,113632,1,8
124,240,114084,6,0,B|192:228|208:144,1,120,4|8
296,136,114986,2,0,B|388:216,1,120,0|8
360,308,115888,6,0,B|436:324|472:260,2,120,4|8|0
264,280,117242,1,8
184,332,117693,1,4
100,288,118144,2,0,B|136:224|88:168,2,120,8|0|8
192,256,119497,6,0,B|200:220|244:188|296:208,1,120,4|8
240,120,120399,1,0
304,48,120851,2,0,B|352:88|428:56,2,120,8|4|8
208,40,122204,2,0,B|84:72,1,120,0|8
44,152,123106,5,4
116,216,123557,1,8
36,272,124008,2,0,B|60:308|104:320|152:308,1,120,0|8
236,300,124911,1,4
316,244,125362,2,0,B|304:172|344:124,2,120,8|0|8
228,204,126715,5,4
164,132,127166,2,0,B|100:112|40:160,2,120,8|0|8
220,52,128520,2,0,B|288:60|340:20,2,120,4|8|0
248,144,129873,1,8
200,228,130324,6,0,B|132:240|96:300,1,120,4|8
28,228,131226,1,0
40,132,131678,2,0,B|104:104|112:44,2,120,8|4|8
120,184,133031,1,0
188,120,133482,1,8
272,72,133933,6,0,B|320:116|400:92,2,120,4|8|0
252,168,135287,2,0,B|288:300,2,120,8|4|8
156,172,136640,1,0
168,268,137091,1,8
172,364,137542,6,0,B|104:360|72:292,1,120
64,204,138445,1,0
92,112,138896,1,8
184,84,139347,2,0,B|312:68,1,120,4|8
388,112,140249,1,0
412,204,140700,2,0,B|368:248|344:312,1,120,8|4
256,192,141602,12,0,144309
