osu file format v9

[General]
AudioFilename: ATB - Could You Believe (Radio Edit).mp3
AudioLeadIn: 0
PreviewTime: -1
Countdown: 1
SampleSet: Soft
StackLeniency: 0.7
Mode: 0
LetterboxInBreaks: 1

[Editor]
Bookmarks: 14916,43284,103972
DistanceSpacing: 1
BeatDivisor: 4
GridSize: 8

[Metadata]
Title:Could You Believe
Artist:ATB
Creator:dkun
Version:Mighty Beliefs!
Source:
Tags:mmzz

[Difficulty]
HPDrainRate:8
CircleSize:4
OverallDifficulty:7
ApproachRate:8
SliderMultiplier:1.9
SliderTickRate:1

[Events]
//Background and Video events
0,0,"sss.jpg"
//Break Periods
2,89988,103454
//Storyboard Layer 0 (Background)
//Storyboard Layer 1 (Fail)
//Storyboard Layer 2 (Pass)
//Storyboard Layer 3 (Foreground)
//Storyboard Sound Samples
//Background Colour Transformations
3,100,163,162,255

[TimingPoints]
500,465.044179197024,4,2,0,60,1,0
60025,-100,4,2,0,60,0,1
65606,-100,4,2,0,60,0,0
67466,-100,4,2,0,60,0,1
89323,-100,4,2,0,60,0,0
149314,-100,4,2,0,100,0,1
205119,-100,4,2,0,100,0,0

[Colours]
Combo1 : 255,255,255
Combo2 : 0,73,244

[HitObjects]
208,48,14916,1,0
304,48,15148,1,0
352,128,15381,2,8,B|256:184|144:112,3,190,0|8|0|8
80,96,17009,5,0
40,192,17241,1,8
112,256,17474,1,0
184,192,17706,1,8
256,128,17939,1,0
328,192,18171,1,8
400,256,18404,1,0
472,192,18636,1,8
408,96,18869,5,0
352,168,19101,2,8,B|256:224|160:160,3,190,0|8|0|8
88,112,20729,1,0
40,192,20961,1,8
96,272,21194,1,0
176,224,21426,1,8
256,272,21659,1,0
336,224,21892,1,8
416,272,22124,1,0
472,192,22357,1,8
424,112,22589,5,0
352,48,22822,1,8
256,24,23054,1,0
160,48,23287,1,8
88,112,23519,1,0
120,200,23752,2,8,B|224:160,1,95
304,168,24217,2,8,B|408:208,1,95
464,264,24682,5,0
384,312,24914,1,8
312,248,25147,1,0
256,328,25379,1,8
200,248,25612,1,0
128,312,25844,1,8
48,256,26077,1,0
48,256,26309,1,8
48,256,26542,1,0
120,192,26774,5,0
120,192,27007,1,8
176,112,27240,1,0
176,112,27472,1,8
256,56,27705,1,0
256,56,27937,1,8
336,112,28170,1,0
336,112,28402,1,8
384,192,28635,1,0
384,192,28867,1,8
368,288,29100,5,0
304,360,29332,1,8
256,280,29565,1,0
208,360,29797,1,8
144,288,30030,1,0
160,192,30262,2,8,B|256:128|352:200,3,190,0|8|0|8
432,216,31890,5,0
488,136,32123,1,8
432,56,32355,1,0
344,96,32588,1,8
256,56,32820,1,0
168,96,33053,1,8
80,56,33285,1,0
24,136,33518,5,8
80,216,33750,1,0
160,264,33983,2,8,B|256:320|368:248,3,190,0|8|0|8
416,208,35610,5,0
464,128,35843,1,8
376,96,36075,1,0
312,32,36308,1,8
256,112,36540,1,0
200,32,36773,1,8
128,96,37005,1,0
40,128,37238,1,8
96,208,37471,5,0
136,296,37703,1,8
208,232,37936,1,0
256,312,38168,1,8
304,232,38401,1,0
376,296,38633,1,8
416,208,38866,1,0
368,128,39098,5,0
304,56,39331,1,0
256,40,39447,1,8
208,56,39563,1,0
144,128,39796,1,0
96,208,40028,1,8
176,256,40261,1,0
256,312,40493,1,8
336,256,40726,1,0
416,208,40958,1,8
416,208,41191,1,0
256,192,41423,12,8,42819
144,120,43284,5,0
208,48,43516,1,8
304,48,43749,1,0
368,120,43981,1,8
424,192,44214,6,8,B|344:272|248:184,1,190
255,190,44911,1,2
88,192,45144,2,8,B|168:272|264:184,1,190
184,136,45841,5,0
208,40,46074,1,0
256,120,46306,1,0
304,40,46539,1,0
328,136,46771,1,0
352,232,47004,2,0,B|264:288|168:232,2,190
448,232,48167,5,0
384,304,48399,1,0
312,248,48632,1,0
256,328,48864,1,0
200,248,49097,1,0
120,304,49329,1,0
56,232,49562,1,0
80,136,49794,2,0,B|176:64|280:144,1,190
257,128,50492,1,0
432,136,50724,2,0,B|336:64|232:144,1,190
120,256,51654,5,0
200,304,51887,1,0
256,224,52119,1,0
312,304,52352,1,0
392,256,52584,1,0
392,256,52817,1,0
352,152,53049,2,0,B|248:112|144:160,3,190
80,192,54677,1,0
120,280,54910,1,0
208,248,55142,1,0
256,328,55375,5,0
304,248,55607,1,0
392,280,55840,1,0
424,192,56072,1,0
344,136,56305,1,0
256,104,56537,1,0
160,120,56770,1,0
96,192,57002,1,0
80,288,57235,2,0,B|160:352|264:280,1,190
255,285,57932,1,0
432,288,58165,2,0,B|352:352|248:280,1,190
255,285,58863,5,0
184,224,59095,1,0
256,160,59328,1,0
336,104,59560,1,0
256,48,59793,1,0
168,80,60025,5,0
120,168,60258,1,0
200,216,60490,1,0
256,288,60723,1,0
312,216,60955,1,0
392,168,61188,1,0
344,80,61420,1,0
256,40,61653,6,0,B|256:160,3,95
160,152,62583,5,0
208,232,62815,1,0
256,312,63048,1,0
304,232,63280,1,0
352,152,63513,1,0
344,56,63746,2,0,B|240:8|152:64,3,190
104,136,65373,1,0
80,224,65606,5,0
144,296,65838,1,0
216,232,66071,1,0
256,320,66303,1,0
296,232,66536,1,0
360,296,66768,1,0
424,224,67001,1,0
352,136,67233,1,0
352,136,67466,2,0,B|248:96|152:144,3,190
88,192,69094,5,0
152,256,69326,1,0
192,344,69559,1,0
256,280,69791,1,0
320,344,70024,1,0
360,256,70256,1,0
424,192,70489,1,0
424,192,70721,1,0
344,144,70954,1,0
344,144,71186,2,0,B|240:88|144:160,3,190
88,200,72814,5,0
48,112,73046,1,0
136,72,73279,1,0
208,136,73511,1,0
256,48,73744,1,0
304,136,73976,1,0
376,72,74209,1,0
464,112,74442,1,0
424,200,74674,1,0
456,288,74907,5,0
384,344,75139,1,0
296,320,75372,1,0
256,232,75604,1,0
216,320,75837,1,0
120,344,76069,1,0
48,288,76302,1,0
120,232,76534,1,0
120,232,76767,2,0,B|152:128|264:112,1,190
254,113,77464,1,0
392,232,77697,2,0,B|360:128|248:112,1,190
254,113,78394,1,0
168,152,78627,5,0
152,248,78859,1,0
192,336,79092,1,0
256,264,79324,1,0
320,336,79557,1,0
360,248,79790,1,0
344,152,80022,1,0
352,56,80255,1,0
352,56,80487,2,0,B|248:16|144:64,3,190
88,112,82115,1,0
144,192,82347,5,0
88,272,82580,1,0
176,304,82812,1,0
256,248,83045,1,0
336,304,83277,1,0
424,272,83510,1,0
368,192,83742,1,0
344,96,83975,1,0
344,96,84207,2,0,B|248:48|144:104,3,190
80,144,85835,5,0
160,192,86068,1,0
80,240,86300,1,0
136,320,86533,1,0
208,264,86765,1,0
256,344,86998,1,0
304,264,87230,1,0
384,320,87463,1,0
432,240,87695,1,0
352,192,87928,1,0
432,144,88160,1,0
344,104,88393,2,0,B|248:56|160:104,3,190
152,112,104204,5,0
216,40,104437,1,0
312,40,104669,1,0
376,112,104902,1,0
336,200,105134,2,0,B|232:280,1,95
176,200,105599,2,0,B|280:280,1,95
168,312,106065,2,0,B|256:368|360:304,3,190
432,272,107692,1,0
480,192,107925,1,0
432,112,108157,1,0
352,64,108390,6,0,B|272:160,1,95
160,64,108855,2,0,B|240:160,1,95
168,216,109320,2,0,B|264:272|376:200,1,190
440,192,110017,1,0
480,280,110250,1,0
384,296,110482,1,0
312,240,110715,1,0
256,320,110947,1,0
200,240,111180,1,0
120,296,111413,1,0
24,280,111645,1,0
72,192,111878,5,0
120,112,112110,1,0
200,56,112343,1,0
256,128,112575,1,0
312,56,112808,1,0
392,112,113040,1,0
448,192,113273,1,0
368,240,113505,2,0,B|280:312,1,95
144,240,113970,2,0,B|232:312,1,95
256,216,114435,2,0,B|256:96,1,95
168,80,114900,2,0,B|264:16|352:88,3,190,0|0|0|8
416,152,116528,5,0
360,232,116761,1,0
328,320,116993,1,0
256,256,117226,1,0
184,320,117458,1,0
152,232,117691,1,0
96,152,117923,1,0
176,96,118156,1,0
256,48,118388,1,0
336,96,118621,1,0
416,152,118853,1,0
352,224,119086,2,0,B|256:272|152:216,3,190
88,176,120713,5,0
112,88,120946,1,0
200,128,121178,1,0
256,48,121411,1,0
312,128,121644,1,0
400,88,121876,1,0
440,176,122109,1,0
344,240,122341,2,0,B|248:288|144:232,3,190
104,160,123969,2,0,B|176:64,1,95
161,84,124434,1,0
256,56,124666,2,0,B|256:160,1,95
256,151,125131,1,0
352,80,125364,2,0,B|424:176,1,95
409,156,125829,1,0
464,232,126061,5,0
408,312,126294,1,0
320,344,126526,1,0
256,272,126759,1,0
192,344,126992,1,0
104,312,127224,1,0
48,232,127457,1,0
88,144,127689,2,0,B|176:56|264:152,1,190
254,141,128387,1,0
424,144,128619,2,0,B|336:56|248:152,1,190
254,141,129317,1,0
88,240,129782,5,0
152,304,130014,1,0
216,232,130247,1,0
256,320,130479,1,0
296,232,130712,1,0
360,304,130944,1,0
432,240,131177,2,0,B|480:144,1,95
474,155,131642,2,0,B|416:40,1,95
431,70,132107,1,0
431,70,132340,1,0
344,104,132572,2,0,B|248:16|152:128,1,190
175,103,133270,1,0
88,248,133502,5,0
128,336,133735,1,0
208,280,133967,1,0
304,280,134200,1,0
376,336,134432,1,0
432,248,134665,1,0
256,192,134897,12,0,136757
96,112,137222,5,0
168,48,137455,1,0
256,88,137688,1,0
256,88,137920,1,0
344,48,138153,1,0
416,112,138385,1,0
352,184,138618,2,0,B|232:240|144:160,2,190
376,272,139780,1,0
304,328,140013,1,0
208,328,140245,1,0
136,272,140478,1,0
192,88,140943,6,0,B|264:160,1,95
259,155,141408,1,0
328,88,141640,6,0,B|256:160,1,95
260,155,142105,1,0
