osu file format v12

[General]
AudioFilename: 01 - 9PM (Till I Come) (Radio Edit).mp3
AudioLeadIn: 2000
PreviewTime: 74510
Countdown: 0
SampleSet: Soft
StackLeniency: 0.7
Mode: 0
LetterboxInBreaks: 0

[Editor]
Bookmarks: 28431
DistanceSpacing: 0.9
BeatDivisor: 4
GridSize: 4

[Metadata]
Title:9 PM (Till I Come)
TitleUnicode:9 PM (Till I Come)
Artist:ATB
ArtistUnicode:ATB
Creator:-Bakari-
Version:Hard
Source:
Tags:Flask andre tanneberger trance tiff lacey Movin' Melodies
BeatmapID:180330
BeatmapSetID:60301

[Difficulty]
HPDrainRate:6
CircleSize:4
OverallDifficulty:7
ApproachRate:8
SliderMultiplier:1.7
SliderTickRate:2

[Events]
//Background and Video events
0,0,"notbg.jpg",0,0
//Break Periods
//Storyboard Layer 0 (Background)
//Storyboard Layer 1 (Fail)
//Storyboard Layer 2 (Pass)
//Storyboard Layer 3 (Foreground)
//Storyboard Sound Samples
//Background Colour Transformations
3,100,163,162,255

[TimingPoints]
810,460.687960687961,4,1,0,40,1,0
28451,-100,4,2,0,55,0,0
30744,460.687960687961,4,2,0,55,1,0
59998,-100,4,1,0,30,0,0
60459,-100,4,2,0,55,0,0
74519,460.687960687961,4,2,0,75,1,1
104003,-100,4,1,0,35,0,0
131644,-100,4,2,0,15,0,0

[Colours]
Combo1 : 213,210,189
Combo2 : 103,122,129
Combo3 : 172,204,208

[HitObjects]
316,304,810,2,0,B|348:272|340:224,1,85,4|0,0:0|0:0,0:0:0:0:
256,244,1270,1,8,0:0:0:0:
196,304,1501,2,0,B|164:272|172:224,1,85,0|0,0:0|0:0,0:0:0:0:
108,172,1961,2,0,B|56:152,1,42.5,0|0,0:0|0:0,0:0:0:0:
36,128,2192,2,0,B|20:84|44:44,1,85,8|0,0:0|0:0,0:0:0:0:
112,92,2652,5,0,0:0:0:0:
188,52,2883,1,0,0:0:0:0:
256,100,3113,1,8,0:0:0:0:
324,52,3343,1,0,0:0:0:0:
400,92,3574,1,0,0:0:0:0:
469,46,3804,2,0,B|492:84|476:128,1,85,0|8,0:0|0:0,0:0:0:0:
468,156,4149,1,0,0:0:0:0:
460,184,4265,1,0,0:0:0:0:
460,212,4380,1,0,0:0:0:0:
464,240,4495,5,0,0:0:0:0:
476,324,4725,1,0,0:0:0:0:
384,348,4956,2,0,B|340:332|302:358,1,85,8|0,0:0|0:0,0:0:0:0:
256,288,5416,1,0,0:0:0:0:
208,360,5647,2,0,B|170:333|126:349,2,85,0|8|0,0:0|0:0|0:0,0:0:0:0:
188,276,6338,6,0,B|144:264|88:280|64:304|64:304|21:262,1,170,0|8,0:0|0:0,0:0:0:0:
76,208,7029,2,0,B|116:188|168:196,1,85,0|0,0:0|0:0,0:0:0:0:
188,276,7489,1,0,0:0:0:0:
300,264,7720,1,8,0:0:0:0:
268,156,7950,1,0,0:0:0:0:
345,134,8181,6,0,B|388:128|428:148,1,85,0|0,0:0|0:0,0:0:0:0:
508,172,8641,1,8,0:0:0:0:
440,256,8872,1,0,0:0:0:0:
472,360,9102,1,0,0:0:0:0:
388,352,9332,2,0,B|304:324,1,85,0|8,0:0|0:0,0:0:0:0:
256,260,9793,1,0,0:0:0:0:
204,325,10023,6,0,B|124:352,1,85,0|0,0:0|0:0,0:0:0:0:
60,296,10484,1,8,0:0:0:0:
96,196,10714,1,0,0:0:0:0:
32,112,10945,1,0,0:0:0:0:
116,112,11175,5,0,0:0:0:0:
152,112,11290,1,0,0:0:0:0:
176,96,11405,1,8,0:0:0:0:
196,72,11520,1,0,0:0:0:0:
224,64,11636,1,0,0:0:0:0:
252,72,11751,1,0,0:0:0:0:
256,192,11866,12,8,15091,0:0:0:0:
100,212,15552,6,0,B|88:164,3,42.5,4|0|0|0,0:0|0:0|0:0|0:0,0:0:0:0:
84,128,16012,2,0,B|76:88|104:48,1,85,8|0,0:0|0:0,0:0:0:0:
164,108,16473,2,0,B|208:104,3,42.5,0|0|0|0,0:0|0:0|0:0|0:0,0:0:0:0:
248,104,16934,2,0,B|292:108|328:132,1,85,8|0,0:0|0:0,0:0:0:0:
400,172,17394,6,0,B|440:160,3,42.5,0|0|0|0,0:0|0:0|0:0|0:0,0:0:0:0:
476,140,17855,2,0,B|504:100|492:52,2,85,8|0|0,0:0|0:0|0:0,0:0:0:0:
352,120,18546,1,0,0:0:0:0:
396,240,18776,1,8,0:0:0:0:
316,340,19007,1,0,0:0:0:0:
276,264,19237,5,0,0:0:0:0:
256,284,19352,1,0,0:0:0:0:
244,312,19467,1,0,0:0:0:0:
224,332,19583,1,0,0:0:0:0:
200,348,19698,1,8,0:0:0:0:
116,356,19928,1,0,0:0:0:0:
132,272,20158,1,0,0:0:0:0:
104,268,20274,1,0,0:0:0:0:
76,276,20389,1,0,0:0:0:0:
52,292,20504,1,0,0:0:0:0:
36,312,20619,6,0,P|20:352|-28:364,2,85,8|0|0,0:0|0:0|0:0,0:0:0:0:
28,288,21195,2,0,B|-4:260,3,42.5,0|0|0|8,0:0|0:0|0:0|0:0,0:0:0:0:
20,176,21771,1,0,0:0:0:0:
28,92,22001,1,0,0:0:0:0:
40,64,22116,1,0,0:0:0:0:
60,40,22231,1,0,0:0:0:0:
88,24,22347,1,0,0:0:0:0:
120,20,22462,1,8,0:0:0:0:
108,104,22692,1,0,0:0:0:0:
192,116,22923,5,4,0:0:0:0:
180,144,23038,1,0,0:0:0:0:
160,168,23153,1,0,0:0:0:0:
132,184,23268,1,0,0:0:0:0:
104,188,23383,1,8,0:0:0:0:
52,256,23614,1,0,0:0:0:0:
136,268,23844,2,0,B|176:260|224:232|248:208|264:160,1,170,0|8,0:0|0:0,0:0:0:0:
248,80,24535,1,0,0:0:0:0:
316,32,24765,6,0,B|344:72|320:120|320:120|344:152|328:200,1,170,0|8,0:0|0:0,0:0:0:0:
280,264,25456,1,0,0:0:0:0:
196,272,25687,1,0,0:0:0:0:
168,268,25802,1,0,0:0:0:0:
144,252,25917,1,0,0:0:0:0:
128,228,26032,1,0,0:0:0:0:
124,200,26147,1,8,0:0:0:0:
208,188,26378,1,0,0:0:0:0:
292,180,26608,5,0,0:0:0:0:
288,152,26723,1,0,0:0:0:0:
272,128,26838,1,0,0:0:0:0:
248,112,26954,1,0,0:0:0:0:
220,108,27069,1,8,0:0:0:0:
192,112,27184,1,0,0:0:0:0:
164,124,27299,1,0,0:0:0:0:
84,100,27529,2,0,B|44:84|0:92,1,85,0|0,0:0|0:0,0:0:0:0:
24,172,27990,2,0,B|64:192|120:180,1,85,8|0,0:0|0:0,0:0:0:0:
152,256,28451,5,4,0:0:0:0:
200,264,28911,1,4,0:0:0:0:
252,272,29372,1,4,0:0:0:0:
304,284,29833,1,4,0:0:0:0:
356,296,30294,1,4,0:0:0:0:
452,236,30744,5,8,0:0:0:0:
392,172,30974,1,0,0:0:0:0:
308,160,31204,2,0,B|264:168|212:148|192:88|200:52,1,170,2|8,0:0|0:0,0:0:0:0:
112,64,31895,1,2,0:0:0:0:
68,316,32586,1,8,0:0:0:0:
68,316,33508,1,8,0:0:0:0:
408,324,34429,6,0,B|368:228,1,85,8|0,0:0|0:0,0:0:0:0:
296,276,34890,2,0,B|276:244|288:196|312:172|348:156|384:160,1,170,2|8,0:0|0:0,0:0:0:0:
364,76,35581,1,2,0:0:0:0:
376,248,36041,1,2,0:0:0:0:
408,324,36272,1,8,0:0:0:0:
408,324,37193,1,8,0:0:0:0:
256,32,38115,5,8,0:0:0:0:
220,108,38345,1,0,0:0:0:0:
252,188,38575,2,0,B|312:216|324:304|256:340,1,170,2|8,0:0|0:0,0:0:0:0:
220,264,39266,1,2,0:0:0:0:
400,84,39957,1,8,0:0:0:0:
400,84,40879,1,8,0:0:0:0:
184,348,41800,6,0,B|100:308,1,85,8|0,0:0|0:0,0:0:0:0:
52,248,42261,2,0,B|84:216|96:176|88:128|40:100,1,170,2|8,0:0|0:0,0:0:0:0:
4,176,42952,2,0,B|56:196|112:176|128:128|124:92,1,170,2|2,0:0|0:0,0:0:0:0:
208,76,43643,1,8,0:0:0:0:
208,76,44564,1,8,0:0:0:0:
336,192,45025,5,4,0:0:0:0:
260,344,45486,1,8,0:0:0:0:
208,276,45716,1,0,0:0:0:0:
128,244,45946,2,0,B|84:228|44:252,2,85,2|0|8,0:0|0:0|0:0,0:0:0:0:
96,320,46637,1,2,0:0:0:0:
76,152,47098,5,2,0:0:0:0:
160,164,47328,1,8,0:0:0:0:
220,224,47559,1,0,0:0:0:0:
240,140,47789,2,0,P|224:108|172:80,1,85,2|0,0:0|0:0,0:0:0:0:
160,164,48250,2,0,B|136:192|128:232|144:288|204:304,1,170,8|0,0:0|0:0,0:0:0:0:
368,324,49171,6,0,B|464:336,2,85,8|0|2,0:0|0:0|0:0,0:0:0:0:
304,268,49862,2,0,B|256:224|360:156|312:104,1,170,0|2,0:0|0:0,0:0:0:0:
148,112,50783,5,2,0:0:0:0:
164,196,51014,1,8,0:0:0:0:
220,260,51244,1,2,0:0:0:0:
304,268,51474,2,0,B|392:288|464:232,2,170,2|8|4,0:0|0:0|0:0,0:0:0:0:
144,324,52857,6,0,B|44:300,2,85,8|0|2,0:0|0:0|0:0,0:0:0:0:
224,292,53548,1,0,0:0:0:0:
300,252,53778,2,0,B|400:276,2,85,8|2|0,0:0|0:0|0:0,0:0:0:0:
272,172,54469,5,2,0:0:0:0:
436,208,54930,1,2,0:0:0:0:
424,292,55160,2,0,P|404:332|396:376,1,85,2|0,0:0|0:0,0:0:0:0:
320,340,55621,2,0,B|240:316|148:336,1,170,8|0,0:0|0:0,0:0:0:0:
36,208,56542,5,8,0:0:0:0:
104,256,56772,1,0,0:0:0:0:
104,96,57003,1,2,0:0:0:0:
140,172,57233,1,0,0:0:0:0:
212,32,57463,1,8,0:0:0:0:
216,116,57694,1,2,0:0:0:0:
372,184,58154,6,0,B|460:156|480:64,1,170,2|2,0:0|0:0,0:0:0:0:
396,52,58845,2,0,B|380:96|332:112,1,85,2|0,0:0|0:0,0:0:0:0:
312,28,59306,1,8,0:0:0:0:
304,196,59767,5,4,0:0:0:0:
284,220,59882,1,0,0:0:0:0:
256,232,59997,1,0,0:0:0:0:
172,228,60228,1,0,0:0:0:0:
168,312,60458,2,0,B|128:324|76:304,2,85,0|0|0,0:0|0:0|0:0,0:0:0:0:
252,332,61149,1,8,0:0:0:0:
252,332,61379,1,2,0:0:0:0:
232,68,61840,6,0,B|404:48,1,170,2|2,0:0|0:0,0:0:0:0:
388,132,62531,2,0,B|440:144|496:100|496:40|480:4,2,170,2|8|4,0:0|0:0|0:0,0:0:0:0:
348,124,63568,2,0,B|300:108,2,42.5,0|0|0,0:0|0:0|0:0,0:0:0:0:
372,160,63913,2,0,B|392:200|380:244,1,85,8|0,0:0|0:0,0:0:0:0:
385,328,64374,2,0,B|356:332|328:324|292:296|284:248|300:216,1,170,2|8,0:0|0:0,0:0:0:0:
240,156,65065,6,0,B|196:156|148:120,1,85,2|0,0:0|0:0,0:0:0:0:
128,104,65410,2,0,B|100:52,2,42.5,0|2|0,0:0|0:0|0:0,0:0:0:0:
128,148,65756,2,0,B|132:192|108:228,1,85,8|2,0:0|0:0,0:0:0:0:
84,312,66216,2,0,B|100:360|152:384|196:376|232:340,1,170,2|8,0:0|0:0,0:0:0:0:
164,284,66908,1,4,0:0:0:0:
232,232,67138,5,4,0:0:0:0:
244,204,67253,1,0,0:0:0:0:
248,176,67368,1,0,0:0:0:0:
244,148,67483,1,0,0:0:0:0:
236,120,67599,1,8,0:0:0:0:
136,172,67829,1,0,0:0:0:0:
136,56,68059,1,0,0:0:0:0:
236,120,68290,2,0,B|236:80|260:32|320:24|360:44,1,170,0|4,0:0|0:0,0:0:0:0:
404,112,68981,5,4,0:0:0:0:
320,116,69211,1,0,0:0:0:0:
316,200,69441,1,8,0:0:0:0:
400,196,69672,1,0,0:0:0:0:
428,204,69787,1,0,0:0:0:0:
452,220,69902,1,0,0:0:0:0:
464,248,70017,1,0,0:0:0:0:
464,276,70132,1,0,0:0:0:0:
456,300,70247,1,0,0:0:0:0:
444,324,70363,2,0,B|405:353,2,42.5,0|0|4,0:0|0:0|0:0,0:0:0:0:
339,299,70823,5,4,0:0:0:0:
366,131,71284,1,4,0:0:0:0:
214,54,71745,1,4,0:0:0:0:
94,174,72205,1,4,0:0:0:0:
171,326,72666,1,4,0:0:0:0:
250,355,72896,5,2,0:0:0:0:
335,207,73357,1,2,0:0:0:0:
250,198,73587,1,0,0:0:0:0:
190,259,73818,1,2,0:0:0:0:
112,224,74048,2,0,B|74:199|64:156,1,85,8|0,0:0|0:0,0:0:0:0:
148,148,74519,5,4,0:0:0:0:
176,136,74634,1,0,0:0:0:0:
200,116,74749,1,0,0:0:0:0:
208,88,74864,1,0,0:0:0:0:
212,60,74979,2,0,B|228:16|280:8,2,85,8|0|0,0:0|0:0|0:0,0:0:0:0:
288,92,75670,1,0,0:0:0:0:
364,128,75901,1,8,0:0:0:0:
440,92,76131,1,0,0:0:0:0:
502,34,76361,5,0,0:0:0:0:
499,153,76592,1,2,0:0:0:0:
484,264,76822,1,8,0:0:0:0:
399,263,77052,1,0,0:0:0:0:
314,275,77283,1,0,0:0:0:0:
368,344,77513,2,0,B|420:356|456:328,2,85,0|8|0,0:0|0:0|0:0,0:0:0:0:
280,360,78204,5,0,0:0:0:0:
124,296,78665,2,0,B|172:292|208:316,1,85,8|0,0:0|0:0,0:0:0:0:
280,272,79125,1,0,0:0:0:0:
324,200,79356,1,0,0:0:0:0:
308,116,79586,1,8,0:0:0:0:
232,80,79816,1,0,0:0:0:0:
444,72,80277,6,0,B|476:36,2,42.5,2|0|8,0:0|0:0|0:0,0:0:0:0:
412,152,80738,1,0,0:0:0:0:
488,192,80968,2,0,B|472:232|420:240,1,85,0|0,0:0|0:0,0:0:0:0:
344,208,81429,2,0,B|328:252|356:292,1,85,8|0,0:0|0:0,0:0:0:0:
400,360,81890,6,0,B|432:392,2,42.5,0|0|2,0:0|0:0|0:0,0:0:0:0:
364,336,82235,1,0,0:0:0:0:
328,316,82350,2,0,B|288:304|240:304,1,85,8|0,0:0|0:0,0:0:0:0:
196,232,82811,2,0,B|236:224|284:228,1,85,0|0,0:0|0:0,0:0:0:0:
320,152,83272,2,0,B|276:144|228:148,1,85,8|0,0:0|0:0,0:0:0:0:
152,156,83732,5,0,0:0:0:0:
76,196,83963,2,0,B|56:152|84:108,1,85,2|8,0:0|0:0,0:0:0:0:
159,85,84423,2,0,L|208:96,1,42.5
220,112,84654,2,0,B|240:156|240:216|180:240|140:236,2,170,0|8|0,0:0|0:0|0:0,0:0:0:0:
388,80,86036,6,0,B|364:36|324:20,1,85,8|0,0:0|0:0,0:0:0:0:
296,104,86496,2,0,B|316:148|360:168,1,85,0|0,0:0|0:0,0:0:0:0:
376,172,86842,1,0,0:0:0:0:
400,184,86957,1,8,0:0:0:0:
424,200,87072,1,0,0:0:0:0:
452,212,87187,2,0,B|496:240|496:292,1,85,0|0,0:0|0:0,0:0:0:0:
412,284,87648,5,2,0:0:0:0:
332,313,87878,1,8,0:0:0:0:
248,328,88109,2,0,B|160:300,1,85,0|0,0:0|0:0,0:0:0:0:
144,220,88569,2,0,B|232:248,1,85,0|8,0:0|0:0,0:0:0:0:
256,244,88915,1,0,0:0:0:0:
284,236,89030,1,0,0:0:0:0:
300,212,89145,1,0,0:0:0:0:
308,184,89261,5,4,0:0:0:0:
321,100,89491,1,0,0:0:0:0:
393,144,89721,2,0,B|483:136,1,85,8|0,0:0|0:0,0:0:0:0:
460,220,90182,2,0,B|376:228,1,85,0|0,0:0|0:0,0:0:0:0:
376,256,90527,1,0,0:0:0:0:
360,280,90643,1,8,0:0:0:0:
344,364,90873,5,0,0:0:0:0:
280,308,91103,1,0,0:0:0:0:
256,292,91218,1,0,0:0:0:0:
228,288,91334,1,0,0:0:0:0:
200,296,91449,1,0,0:0:0:0:
176,312,91564,2,0,B|132:336|88:316,1,85,8|0,0:0|0:0,0:0:0:0:
128,240,92025,6,0,B|160:212|208:196|264:196|304:228,2,170,0|8|0,0:0|0:0|0:0,0:0:0:0:
100,244,93061,1,0,0:0:0:0:
72,232,93176,1,0,0:0:0:0:
12,172,93407,1,8,0:0:0:0:
96,152,93637,1,0,0:0:0:0:
176,128,93867,2,0,B|228:112|280:124|280:124|344:100,1,170,0|8,0:0|0:0,0:0:0:0:
392,168,94558,1,0,0:0:0:0:
412,84,94789,6,0,B|456:96|476:140,1,85,0|2,0:0|0:0,0:0:0:0:
464,220,95249,1,8,0:0:0:0:
392,168,95480,2,0,B|364:200|364:248|388:292|420:320|480:324|520:292,1,255,0|8,0:0|0:0,0:0:0:0:
464,220,96401,1,0,0:0:0:0:
392,168,96632,5,0,0:0:0:0:
328,116,96862,1,0,0:0:0:0:
300,124,96977,1,0,0:0:0:0:
272,120,97092,1,8,0:0:0:0:
244,108,97207,1,0,0:0:0:0:
224,84,97323,1,0,0:0:0:0:
292,32,97553,1,0,0:0:0:0:
372,60,97783,1,0,0:0:0:0:
456,40,98014,1,8,0:0:0:0:
440,124,98244,5,0,0:0:0:0:
496,188,98474,1,0,0:0:0:0:
460,266,98705,2,0,B|424:248|412:200,1,85,0|8,0:0|0:0,0:0:0:0:
332,172,99165,2,0,B|332:216|352:256,1,85,0|0,0:0|0:0,0:0:0:0:
300,324,99626,2,0,B|276:288|264:244,1,85,0|8,0:0|0:0,0:0:0:0:
192,200,100087,1,0,0:0:0:0:
256,192,100317,12,4,103542,0:0:0:0:
400,280,104003,6,0,B|384:324,1,42.5,4|0,0:0|0:0,0:0:0:0:
344,324,104233,2,0,B|300:336,1,42.5
264,320,104463,2,0,B|216:332,2,42.5,8|0|0,0:0|0:0|0:0,0:0:0:0:
276,236,104924,2,0,B|324:224,2,42.5,0|0|0,0:0|0:0|0:0,0:0:0:0:
248,236,105269,1,0,0:0:0:0:
220,224,105385,1,8,0:0:0:0:
264,152,105615,1,0,0:0:0:0:
180,148,105845,5,0,0:0:0:0:
152,132,105960,1,0,0:0:0:0:
136,108,106076,1,0,0:0:0:0:
128,80,106191,1,0,0:0:0:0:
132,52,106306,1,8,0:0:0:0:
212,76,106536,1,0,0:0:0:0:
292,44,106767,2,0,B|340:40,3,42.5,0|0|0|0,0:0|0:0|0:0|0:0,0:0:0:0:
376,40,107227,2,0,B|416:52|436:96,1,85,8|0,0:0|0:0,0:0:0:0:
352,120,107688,6,0,B|364:168|416:180,1,85,0|0,0:0|0:0,0:0:0:0:
436,188,108034,1,0,0:0:0:0:
460,208,108149,1,8,0:0:0:0:
476,232,108264,1,0,0:0:0:0:
484,260,108379,1,0,0:0:0:0:
400,268,108609,2,0,B|308:260,1,85,0|0,0:0|0:0,0:0:0:0:
348,340,109070,2,0,B|440:348,1,85,8|0,0:0|0:0,0:0:0:0:
400,268,109531,6,0,B|488:260,1,85,0|0,0:0|0:0,0:0:0:0:
432,192,109991,2,0,B|512:160,1,85,8|0,0:0|0:0,0:0:0:0:
456,96,110452,2,0,B|512:20,1,85,0|0,0:0|0:0,0:0:0:0:
420,20,110913,1,8,0:0:0:0:
396,36,111028,1,0,0:0:0:0:
376,56,111143,1,0,0:0:0:0:
368,84,111258,1,0,0:0:0:0:
376,112,111374,6,0,B|400:152|380:200,1,85,4|0,0:0|0:0,0:0:0:0:
448,244,111834,2,0,B|472:208|472:160,1,85,8|0,0:0|0:0,0:0:0:0:
464,80,112295,1,0,0:0:0:0:
396,36,112525,1,0,0:0:0:0:
312,48,112756,2,0,B|220:32,1,85,8|0,0:0|0:0,0:0:0:0:
144,28,113216,6,0,B|140:80|176:120|224:128|268:108,1,170,0|8,0:0|0:0,0:0:0:0:
340,136,113907,1,0,0:0:0:0:
272,188,114138,2,0,B|228:204|180:188,1,85,0|0,0:0|0:0,0:0:0:0:
116,156,114598,2,0,B|80:128|68:80,1,85,8|0,0:0|0:0,0:0:0:0:
156,84,115059,6,0,B|184:120|232:120,1,85,0|0,0:0|0:0,0:0:0:0:
260,116,115405,1,0,0:0:0:0:
288,100,115520,1,8,0:0:0:0:
304,76,115635,1,0,0:0:0:0:
312,48,115750,1,0,0:0:0:0:
236,16,115980,1,0,0:0:0:0:
148,20,116211,1,0,0:0:0:0:
160,48,116326,1,0,0:0:0:0:
164,76,116441,1,8,0:0:0:0:
156,104,116556,1,0,0:0:0:0:
140,128,116671,1,0,0:0:0:0:
148,280,116902,6,0,B|104:256|60:276,1,85,0|0,0:0|0:0,0:0:0:0:
100,356,117362,2,0,B|140:384|192:360,1,85,8|0,0:0|0:0,0:0:0:0:
236,300,117823,2,0,B|248:252|212:216,1,85,0|0,0:0|0:0,0:0:0:0:
256,144,118284,2,0,B|292:168|312:224,1,85,8|0,0:0|0:0,0:0:0:0:
332,292,118745,6,0,B|380:280|400:236|404:184|372:152,1,170,4|8,0:0|0:0,0:0:0:0:
320,88,119436,1,0,0:0:0:0:
404,80,119666,2,0,B|396:36|344:12,1,85,0|0,0:0|0:0,0:0:0:0:
268,24,120127,2,0,B|232:60|244:120,1,85,8|0,0:0|0:0,0:0:0:0:
260,184,120587,6,0,B|288:216|280:304|200:316,1,170,4|8,0:0|0:0,0:0:0:0:
184,232,121278,1,0,0:0:0:0:
204,316,121509,2,0,B|200:360|128:411|68:364,1,170,0|8,0:0|0:0,0:0:0:0:
116,292,122200,1,0,0:0:0:0:
92,212,122430,6,0,B|92:164|60:128,2,85,4|0|8,0:0|0:0|0:0,0:0:0:0:
180,216,123121,1,0,0:0:0:0:
244,168,123351,1,0,0:0:0:0:
256,140,123467,1,0,0:0:0:0:
276,120,123582,1,0,0:0:0:0:
302,106,123697,1,0,0:0:0:0:
333,103,123812,1,8,0:0:0:0:
320,180,124042,1,0,0:0:0:0:
400,152,124273,6,4,B|416:192|396:240|364:272|296:264,2,170,0|8|0,0:0|0:0|0:0,0:0:0:0:
408,120,125309,2,0,B|440:92,2,42.5
376,132,125655,1,8,0:0:0:0:
348,116,125770,1,0,0:0:0:0:
332,92,125885,1,0,0:0:0:0:
264,40,126116,6,0,B|228:28|176:56|156:108|176:148,1,170,4|8,0:0|0:0,0:0:0:0:
196,168,126691,1,0,0:0:0:0:
212,196,126807,1,0,0:0:0:0:
212,224,126922,1,0,0:0:0:0:
200,252,127037,2,0,B|188:288|212:340|260:360|312:344,1,170,0|8,0:0|0:0,0:0:0:0:
280,264,127728,1,0,0:0:0:0:
256,192,127958,12,0,131644,0:0:0:0:
