osu file format v12

[General]
AudioFilename: 01 - 9PM (Till I Come) (Radio Edit).mp3
AudioLeadIn: 2000
PreviewTime: 74510
Countdown: 0
SampleSet: Soft
StackLeniency: 0.7
Mode: 0
LetterboxInBreaks: 0

[Editor]
Bookmarks: 28431
DistanceSpacing: 0.9
BeatDivisor: 4
GridSize: 4

[Metadata]
Title:9 PM (Till I Come)
TitleUnicode:9 PM (Till I Come)
Artist:ATB
ArtistUnicode:ATB
Creator:-Bakari-
Version:Easy
Source:
Tags:Flask andre tanneberger trance tiff lacey Movin' Melodies
BeatmapID:181395
BeatmapSetID:60301

[Difficulty]
HPDrainRate:2
CircleSize:3
OverallDifficulty:2
ApproachRate:3
SliderMultiplier:1.1
SliderTickRate:2

[Events]
//Background and Video events
0,0,"notbg.jpg",0,0
//Break Periods
2,59966,69383
//Storyboard Layer 0 (Background)
//Storyboard Layer 1 (Fail)
//Storyboard Layer 2 (Pass)
//Storyboard Layer 3 (Foreground)
//Storyboard Sound Samples
//Background Colour Transformations
3,100,163,162,255

[TimingPoints]
810,460.687960687961,4,1,0,35,1,0
28451,-100,4,2,0,45,0,0
30744,460.687960687961,4,2,0,45,1,0
54930,-100,4,2,0,60,0,0
56543,-100,4,2,0,45,0,0
74519,460.687960687961,4,2,0,50,1,1
104003,-100,4,1,0,35,0,0
131644,-100,4,2,0,15,0,0

[Colours]
Combo1 : 213,210,189
Combo2 : 103,122,129
Combo3 : 172,204,208

[HitObjects]
160,328,810,2,0,B|192:280|172:224,2,110,4|8|0,0:0|0:0|0:0,0:0:0:0:
80,268,2192,1,8,0:0:0:0:
80,168,2652,2,0,B|108:116|88:60,1,110,0|8,0:0|0:0,0:0:0:0:
176,15,3574,2,0,B|208:64|196:138,1,110,0|8,0:0|0:0,0:0:0:0:
184,220,4495,6,0,B|160:252|164:324|220:380|296:364,1,220,0|0,0:0|0:0,0:0:0:0:
272,264,5877,1,8,0:0:0:0:
360,308,6338,2,0,B|384:276|380:204|324:148|248:164,1,220,0|0,0:0|0:0,0:0:0:0:
204,80,7720,1,8,0:0:0:0:
304,76,8181,6,0,B|361:89|406:123|444:167|455:220,1,220,0|0,0:0|0:0,3:0:0:0:
428,316,9563,1,8,0:0:0:0:
340,356,10023,2,0,B|316:296|356:248,2,110,0|8|0,0:0|0:0|0:0,0:0:0:0:
244,332,11405,1,8,0:0:0:0:
160,280,11866,6,0,B|220:256|170:184|136:132|180:80,1,220,0|0,0:0|0:0,0:0:0:0:
260,140,13248,1,8,0:0:0:0:
336,76,13709,2,0,B|396:52|452:80,1,110,0|8,0:0|0:0,0:0:0:0:
448,176,14630,2,0,B|388:200|332:172,1,110,0|8,0:0|0:0,0:0:0:0:
312,272,15552,6,0,B|356:292|436:296|484:264,2,165,4|2|8,0:0|2:0|0:0,0:0:0:0:
216,232,17394,2,0,B|172:212|92:208|44:240,2,165,0|2|8,0:0|2:0|0:0,0:0:0:0:
304,188,19237,6,0,B|345:140|321:78,1,110,0|8,0:0|0:0,0:0:0:0:
233,121,20158,2,0,B|208:136|208:136|172:124|121:129,1,110,0|8,0:0|0:0,0:0:0:0:
32,112,21080,2,0,B|48:52|112:36,1,110,0|8,0:0|0:0,0:0:0:0:
204,20,22001,1,0,0:0:0:0:
300,44,22462,1,8,0:0:0:0:
244,124,22923,6,0,B|288:164|364:156|408:100|400:36,2,220,4|0|0,0:0|0:0|0:0,0:0:0:0:
148,104,25226,1,8,0:0:0:0:
64,152,25687,1,0,0:0:0:0:
100,244,26147,1,8,0:0:0:0:
188,292,26608,6,0,B|243:317|292:281,1,110,0|8,0:0|0:0,0:0:0:0:
228,204,27529,2,0,B|276:172|336:192,1,110,0|8,0:0|0:0,0:0:0:0:
408,124,28451,5,4,0:0:0:0:
336,56,28911,1,4,0:0:0:0:
236,48,29372,1,4,0:0:0:0:
140,72,29833,1,4,0:0:0:0:
84,156,30294,1,6,0:0:0:0:
108,252,30744,6,0,B|148:300|220:280,1,110,8|2,0:0|0:0,0:0:0:0:
268,204,31665,2,0,B|240:152,1,55,8|2,0:0|0:0,0:0:0:0:
140,48,32586,5,10,0:0:0:0:
68,224,33508,1,10,0:0:0:0:
252,296,34429,2,0,B|292:232|388:368|464:296,2,220,8|8|8,0:0|0:0|0:0,0:0:0:0:
412,180,37193,5,10,0:0:0:0:
244,76,38115,2,0,B|204:140|108:4|32:76,2,220,8|8|8,0:0|0:0|0:0,0:0:0:0:
256,272,40879,5,10,0:0:0:0:
60,244,41800,1,8,0:0:0:0:
92,140,42261,1,2,0:0:0:0:
156,220,42721,2,0,B|220:208,1,55,8|2,0:0|0:0,0:0:0:0:
268,128,43412,2,0,L|324:176,1,55,0|8,0:0|0:0,0:0:0:0:
428,316,44564,6,0,B|412:256|436:204,1,110,8|4,0:0|0:0,0:0:0:0:
488,124,45486,1,8,0:0:0:0:
416,56,45946,1,2,0:0:0:0:
324,96,46407,2,0,B|272:60,1,55,8|2,0:0|0:0,0:0:0:0:
180,76,47098,1,2,0:0:0:0:
92,29,47559,6,0,B|56:81|80:167|154:202|222:189|257:142,1,275,2|2,0:0|0:0,0:0:0:0:
340,160,49171,1,8,0:0:0:0:
420,216,49632,1,2,0:0:0:0:
448,120,50092,2,0,B|440:68|376:16|292:32|260:76,2,220,8|8|8,0:0|0:0|0:0,0:0:0:0:
420,216,52396,5,6,0:0:0:0:
396,312,52857,2,0,B|464:328|504:272,2,110,8|2|8,0:0|0:0|0:0,0:0:0:0:
348,304,54008,2,0,B|304:264|240:264,1,110,2|2,0:0|0:0,0:0:0:0:
156,304,54930,2,0,P|80:284|64:112,1,275,2|2,0:0|0:0,0:0:0:0:
160,112,56542,6,0,B|192:64|256:56|320:64|352:112,2,220,8|8|8,0:0|0:0|0:0,0:0:0:0:
136,156,58615,2,0,B|112:220,1,55,2|2,0:0|0:0,0:0:0:0:
156,300,59306,2,0,B|208:332,2,55,8|0|4,0:0|0:0|0:0,0:0:0:0:
256,192,70823,12,4,72666,0:0:0:0:
280,272,74519,6,0,B|300:220|356:196,1,110,4|8,0:0|0:0,0:0:0:0:
332,100,75440,2,0,B|256:104|184:192|180:244,1,220,2|2,0:0|0:0,0:0:0:0:
216,332,76822,1,8,0:0:0:0:
120,324,77283,2,0,P|72:356|8:360,1,110,2|8,0:0|0:0,0:0:0:0:
36,264,78204,6,0,B|96:244|108:180,2,110,0|8|2,0:0|0:0|0:0,0:0:0:0:
12,168,79586,2,0,B|36:116,1,55,8|2,0:0|0:0,0:0:0:0:
116,64,80277,1,2,0:0:0:0:
213,45,80738,2,0,B|225:97|190:159|119:163,1,165,2|8,0:0|0:0,0:0:0:0:
76,248,81890,6,0,B|136:268|188:256|244:224|276:176,1,220,0|2,0:0|0:0,0:0:0:0:
312,92,83272,1,8,0:0:0:0:
396,40,83732,2,0,B|428:92|396:148|396:148|360:208|400:256,1,220,0|2,0:0|0:0,0:0:0:0:
480,200,85114,1,8,0:0:0:0:
484,300,85575,5,0,0:0:0:0:
396,348,86036,2,0,B|328:348|296:288|296:288|256:248|204:252,1,220,8|8,0:0|0:0,0:0:0:0:
216,352,87418,2,0,B|152:348|116:292,1,110,0|8,0:0|0:0,0:0:0:0:
84,208,88339,2,0,B|76:148|112:104,1,110,2|8,0:0|0:0,0:0:0:0:
196,52,89261,5,4,0:0:0:0:
212,148,89721,2,0,B|276:132|292:68,1,110,8|0,0:0|0:0,0:0:0:0:
388,56,90643,2,0,B|452:64,1,55,8|0,0:0|0:0,0:0:0:0:
456,160,91334,2,0,B|384:148,1,55,0|8,0:0|0:0,0:0:0:0:
384,248,92025,6,0,B|512:268,2,110,2|8|0,0:0|0:0|0:0,0:0:0:0:
308,312,93407,2,0,B|180:292,1,110,8|0,0:0|0:0,0:0:0:0:
112,248,94328,2,0,B|108:302,1,55,8|0,0:0|0:0,0:0:0:0:
24,252,95019,6,0,L|28:192,1,55,0|8,0:0|0:0,0:0:0:0:
40,100,95710,1,2,0:0:0:0:
112,32,96171,1,8,0:0:0:0:
184,96,96632,1,0,0:0:0:0:
268,44,97092,6,0,B|300:88|288:160|240:200|168:200,2,220,8|8|8,0:0|0:0|0:0,0:0:0:0:
368,52,99396,2,0,B|384:108|364:160|364:160|364:228|408:256,1,220,2|0,0:0|0:0,0:0:0:0:
464,176,100778,6,0,B|516:208|524:288|484:344|412:352,1,220,8|8,0:0|0:0,0:0:0:0:
256,192,102160,12,4,104003,0:0:0:0:
224,288,104924,6,0,B|116:252,1,110,0|8,0:0|0:0,0:0:0:0:
120,156,105845,2,0,B|232:192,1,110,0|8,0:0|0:0,0:0:0:0:
324,200,106767,1,0,0:0:0:0:
388,124,107227,1,8,0:0:0:0:
292,104,107688,6,0,B|307:51|344:16|400:20|436:32,2,165,0|2|8,0:0|2:0|0:0,0:0:0:0:
300,204,109531,1,0,0:0:0:0:
208,164,109991,2,0,B|172:120|104:120,1,110,8|0,0:0|0:0,0:0:0:0:
120,220,110913,1,8,0:0:0:0:
76,308,111374,5,4,0:0:0:0:
172,332,111834,2,0,B|224:308|236:256|236:256|300:228|300:160,1,220,8|8,0:0|0:0,0:0:0:0:
360,88,113216,1,0,0:0:0:0:
260,76,113677,2,0,B|208:100|196:152|196:152|132:180|132:241,1,220,8|8,0:0|0:0,0:0:0:0:
52,184,115059,6,0,B|28:308,1,110,0|8,0:0|0:0,0:0:0:0:
124,328,115980,1,0,0:0:0:0:
176,244,116441,1,8,0:0:0:0:
272,268,116902,2,0,B|284:392,2,110,0|8|0,0:0|0:0|0:0,0:0:0:0:
272,168,118284,6,0,B|304:112|372:112,2,110,8|4|8,0:0|0:0|0:0,0:0:0:0:
360,212,119666,2,0,B|424:208|452:156,1,110,0|8,0:0|0:0,0:0:0:0:
504,244,120587,2,0,B|468:288|404:300,1,110,0|8,0:0|0:0,0:0:0:0:
316,340,121509,1,0,0:0:0:0:
220,320,121969,6,0,B|209:210,2,110,8|0|8,0:0|0:0|0:0,0:0:0:0:
120,328,123351,1,0,0:0:0:0:
44,268,123812,1,8,0:0:0:0:
80,176,124273,2,0,B|69:66,2,110,0|8|0,0:0|0:0|0:0,0:0:0:0:
148,248,125655,1,8,0:0:0:0:
244,276,126116,6,0,P|376:224|384:192,2,165,0|0|8,0:0|0:0|0:0,0:0:0:0:
256,192,127958,12,0,131644,0:0:0:0:
