osu file format v5

[General]
AudioFilename: Yara Tum Kahan.mp3
AudioLeadIn: 0
PreviewTime: -1
Countdown: 1
SampleSet: Normal
StackLeniency: 0.7
Mode: 0
LetterboxInBreaks: 1
EditorBookmarks: 7436,7836,14236,20636,27036,33436,36636,39836,43036,46236,49436,52636,55836,59036,60036,60236,60436,62236,64236,71836,73436,75036,76636,78236,81436,84636,85036,85636,86236,86636,87836,90236,91036,94236,97836,103836,105436

[Metadata]
Title:Yara Tum Kahan?
Artist:ASMAT
Creator:FolkFolk
Version:Normal
Source:DrumMania/Guitar Freaks
Tags:

[Difficulty]
HPDrainRate:5
CircleSize:4
OverallDifficulty:4
SliderMultiplier:1
SliderTickRate:2

[Events]
//Background and Video events
0,0,"Yara Tum Kahan.JPG"
//Break Periods
2,64836,70516
//Storyboard Layer 0 (Background)
//Storyboard Layer 1 (Failing)
//Storyboard Layer 2 (Passing)
//Storyboard Layer 3 (Foreground)
//Storyboard Sound Samples
//Background Colour Transformations
3,100,0,0,0

[TimingPoints]
7454,400,3,1,0,60,1

[HitObjects]
32,32,7854,1,0
224,32,8654,1,0
224,224,9454,1,0
416,224,10253,1,0
416,32,11053,1,0
224,32,11853,1,0
224,224,12653,1,0
32,224,13453,1,14
32,32,14253,5,0
224,32,15053,1,0
224,224,15853,1,0
416,224,16653,1,0
416,32,17453,1,0
224,32,18253,1,0
224,224,19053,1,0
32,224,19854,1,14
32,32,20654,6,10,B|160:32|160:160|320:160,1,300
192,160,22254,2,10,B|320:160|320:32|480:32,1,300
448,128,23854,1,0
448,128,24254,1,0
352,128,24654,1,0
352,128,25054,1,0
256,128,25454,2,10,B|256:256|256:256|352:256,1,200
128,256,27054,5,0
128,64,27854,1,0
320,64,28654,1,0
320,256,29454,1,0
128,256,30254,1,0
128,64,31054,1,0
320,64,31854,2,14,L|320:288,1,200
128,256,33454,5,8
128,96,34054,1,8
192,96,34254,1,8
384,96,35054,1,8
384,192,35454,1,8
384,288,35854,1,8
288,288,36254,1,8
192,288,36654,5,8
32,288,37254,1,8
32,224,37454,1,8
32,32,38254,1,8
128,32,38654,1,8
224,32,39054,1,14
416,32,39853,5,8
416,192,40453,1,8
352,192,40653,1,8
160,192,41453,1,8
160,96,41853,1,8
256,96,42253,1,8
352,96,42653,1,8
352,192,43053,5,8
192,192,43653,1,8
128,192,43853,1,8
320,192,44653,1,8
320,288,45053,1,8
416,288,45453,1,14
416,96,46253,5,0
352,160,46653,1,0
288,96,47053,1,0
224,160,47453,1,0
160,96,47853,1,0
96,160,48253,1,0
160,224,48653,1,0
224,288,49053,1,0
288,224,49453,5,0
352,288,49853,1,0
416,224,50253,1,0
352,160,50653,1,0
288,96,51053,1,0
224,160,51453,1,0
160,96,51853,1,0
96,160,52253,1,12
96,256,52653,6,14,B|320:256,2,200
480,256,55853,6,14,B|224:256,2,200
96,256,59053,5,8
96,160,59453,1,8
160,160,59653,1,8
256,160,60053,2,14,B|256:96,2,50
256,192,62253,5,8
160,192,62653,2,8,B|160:128,1,50
64,128,63253,2,14,B|64:192,2,50
64,288,64253,5,8
160,288,64653,1,8
256,192,71853,5,8
160,192,72253,2,8,B|96:192,1,50
352,192,73453,5,8
352,288,73853,2,8,B|416:288,1,50
160,288,75053,5,8
160,192,75453,2,8,B|160:128,1,50
416,128,76653,5,8
416,224,77053,1,8
320,224,77453,1,8
128,224,78253,6,2,B|256:224|256:352,2,200
128,128,80254,1,4
416,128,81454,6,2,B|288:128|288:256,2,200
416,224,83454,1,4
64,224,84654,5,8
64,128,85054,1,8
256,128,85654,1,8
448,128,86254,1,8
448,224,86654,1,8
256,192,87854,12,8,90254
256,352,91054,5,8
256,256,91454,1,8
256,160,91854,1,8
320,160,92120,1,8
352,160,92254,1,8
352,64,92654,1,8
256,64,93054,1,8
160,64,93454,1,8
160,128,93720,1,8
160,160,93854,1,8
160,256,94254,6,8,B|224:256|224:192,2,100
224,256,95320,1,8
224,288,95454,1,8
288,256,95654,1,8
352,256,95854,1,8
352,160,96254,1,8
352,64,96654,1,8
448,64,97054,2,6,B|448:128,2,50
384,128,97854,6,8,L|480:224,2,100
288,128,99054,1,8
192,128,99454,2,8,L|288:224,2,100
96,128,100654,1,8
96,224,101054,2,8,L|192:128,2,100
192,224,102254,1,8
288,224,102654,1,8
384,224,103054,1,8
192,160,103854,6,12,L|96:64,2,100
320,160,105454,6,12,L|416:64,2,100
