osu file format v5

[General]
AudioFilename: Yara Tum Kahan.mp3
AudioLeadIn: 0
PreviewTime: -1
Countdown: 1
SampleSet: Normal
StackLeniency: 1
Mode: 0
LetterboxInBreaks: 1
EditorBookmarks: 7854,9054,9454,10654,11054,13854,14454,15454,15854,17054,17454,20254,20654,23454,23854,26254,27254,28254,28654,29854,30254,33054,33454,36254,36654,39454,39854,42654,43054,43854,44454,45854,46254,52654,55654,55854,58854,59054,62054,62254,63654,63854,65454,65854,71454,77854,78654,84254,84654,86654,87454,90254,90654,92254,92654,93854,94254,97054,97454,98654,99054,100254,100654,103454,103854,105054,105454,106254

[Metadata]
Title:Yara Tum Kahan?
Artist:ASMAT
Creator:FolkFolk
Version:Insane
Source:DrumMania/Guitar Freaks
Tags:

[Difficulty]
HPDrainRate:8
CircleSize:5
OverallDifficulty:6
SliderMultiplier:2
SliderTickRate:4

[Events]
//Background and Video events
0,0,"Yara Tum Kahan.JPG"
//Break Periods
2,46036,51436
2,65636,70236
//Storyboard Layer 0 (Background)
//Storyboard Layer 1 (Failing)
//Storyboard Layer 2 (Passing)
//Storyboard Layer 3 (Foreground)
//Storyboard Sound Samples
//Background Colour Transformations
3,100,0,0,0

[TimingPoints]
7454,400,3,1,0,60,1

[HitObjects]
32,32,7854,1,0
32,80,8054,1,0
32,128,8254,1,0
32,176,8454,1,0
80,176,8654,1,0
144,176,8920,1,8
144,176,9054,1,8
256,176,9454,5,0
320,176,9720,1,8
320,176,9854,1,8
368,176,10053,1,8
416,176,10253,1,0
416,240,10520,1,8
416,240,10653,1,8
304,240,11053,5,0
256,240,11253,1,0
208,240,11453,1,0
208,192,11653,1,0
208,144,11853,1,0
208,80,12120,1,8
208,80,12253,1,8
160,80,12453,1,8
112,80,12653,2,0,B|-16:80,4,100
112,192,13853,2,14,B|240:192|240:64,1,200
272,32,14453,5,0
320,48,14653,1,0
368,64,14853,1,0
416,80,15053,1,0
416,144,15320,1,8
416,144,15454,1,8
304,144,15853,5,0
240,144,16120,1,8
240,144,16253,1,8
192,144,16453,1,8
144,144,16653,1,0
96,192,16920,1,8
96,192,17053,1,8
96,304,17453,5,0
128,272,17653,1,0
160,304,17853,1,0
192,272,18053,1,0
224,304,18254,1,0
288,304,18520,1,8
288,304,18653,1,8
288,256,18853,1,8
288,208,19053,2,4,B|224:208|224:144,4,100
288,96,20254,1,14
176,96,20654,5,0
128,144,20920,1,12
128,144,21054,1,12
128,192,21254,1,12
176,192,21454,2,4,B|176:256|112:256,3,100
128,304,22254,1,0
192,304,22520,1,8
192,304,22654,1,8
192,256,22854,1,8
240,256,23054,1,0
288,208,23320,1,12
288,208,23454,1,12
240,112,23854,5,8
240,112,23954,1,8
192,112,24154,1,8
192,112,24254,1,8
144,112,24454,1,8
96,144,24654,1,8
48,176,24854,1,8
96,208,25054,1,8
144,240,25254,1,8
192,208,25454,1,8
32,336,26254,2,6,B|32:272|-32:272|-32:176|64:176|128:240|128:336|288:336,1,400,6|6
256,288,27254,5,0
256,240,27454,1,0
304,240,27654,1,0
352,240,27854,1,0
416,240,28120,1,8
416,240,28254,1,8
416,128,28654,5,0
352,128,28920,1,8
352,128,29054,1,8
304,128,29254,1,8
256,128,29454,1,0
192,128,29720,1,8
192,128,29854,1,8
304,272,30254,5,0
352,256,30454,1,0
400,240,30654,1,0
448,224,30854,1,0
400,208,31054,1,0
400,144,31320,1,8
400,144,31454,1,8
352,128,31654,1,8
368,80,31854,2,4,B|331:115|280:63,4,100
288,144,33054,1,2
224,176,33454,6,0,B|149:106|272:5|20:22,1,300
32,80,34254,2,0,B|90:213|-8:308|217:309,1,300
176,256,35054,2,0,B|148:213|188:160,1,100
240,160,35454,2,0,B|216:112|156:109,1,100
160,48,35854,2,0,B|197:83|252:95,1,100
288,128,36254,2,14,B|334:149|390:116,1,100
384,176,36654,6,0,B|282:196|177:154|128:304,1,300
80,288,37454,2,0,B|47:192|-21:112|143:45,1,300
160,96,38254,2,0,B|136:145|176:199,1,100
208,160,38654,2,0,B|248:199|188:253,1,100
192,304,39054,1,0
288,304,39453,1,14
176,304,39853,6,0,B|79:262|113:127|270:112,1,300
272,64,40653,2,0,B|370:92|369:224|454:301,1,300
400,320,41453,2,0,B|354:324|306:284,1,100
352,256,41853,2,0,B|396:200|362:141,1,100
368,112,42253,2,0,B|312:66|253:136,1,100
272,160,42653,2,14,B|219:126|192:80,1,100
144,96,43053,5,0
304,96,43653,1,8
352,96,43853,1,8
256,192,44453,12,2,45853
32,192,52653,5,0
144,192,53053,1,8
192,192,53253,1,8
304,192,53653,2,10,B|304:320,2,100
352,192,54253,1,0
400,192,54453,1,0
448,192,54653,1,0
448,240,54853,1,0
448,288,55053,1,0
400,288,55253,1,0
352,288,55453,1,0
304,288,55653,1,0
256,288,55853,5,8
256,192,56253,1,8
256,144,56453,1,8
160,144,56853,2,10,B|205:186|162:276,2,100
160,192,57453,1,0
112,192,57653,1,0
64,192,57853,1,0
64,144,58053,1,0
64,96,58253,1,0
64,48,58453,1,0
112,48,58653,1,0
160,48,58853,1,0
208,48,59053,5,8
304,48,59453,1,8
352,48,59653,1,8
352,144,60053,2,10,B|405:161|459:127,2,100
352,192,60653,1,0
352,240,60853,1,0
352,288,61053,1,0
304,288,61253,1,0
256,288,61453,1,0
208,288,61653,1,0
208,240,61853,1,0
208,192,62053,1,0
208,144,62253,5,8
304,144,62653,1,8
304,192,62853,1,8
304,288,63253,2,8,B|240:288,2,50
352,288,63653,1,8
256,192,63853,12,2,65453
256,192,71453,5,12
304,192,71853,2,2,B|376:117|175:105,1,200
128,112,72653,2,2,B|19:164|140:333,1,200
160,288,73453,2,2,B|274:297|349:202,1,200
336,160,74253,2,2,B|216:136|136:81,1,200
144,144,75053,2,2,B|188:284|300:336,1,200
304,304,75853,2,2,B|160:262|40:288,1,200
112,224,76653,2,12,B|185:220|236:286,4,100
112,176,77853,2,2,B|193:206|243:164|286:234|237:313,1,200
352,272,78654,5,0
352,112,79254,1,8
304,112,79454,1,8
256,112,79654,1,8
208,112,79854,1,8
128,192,80254,2,8,B|26:124|221:57|366:106|425:177,1,400
416,272,81454,1,0
304,272,81854,1,0
192,272,82254,1,8
192,272,82454,1,8
192,160,82854,1,8
192,160,83054,1,8
352,160,83654,2,8,B|313:211|367:265,1,100
256,256,84254,1,6
368,256,84654,6,10,B|491:204|325:95,1,200
192,112,85654,1,12
192,160,85854,1,12
192,208,86054,1,12
192,256,86254,1,12
240,256,86454,1,12
288,256,86654,1,12
256,192,87454,12,2,90254
256,192,90654,5,14
256,80,91054,1,0
304,80,91254,1,0
304,128,91454,1,0
352,128,91654,1,0
352,176,91854,1,0
416,176,92120,1,8
416,176,92254,1,8
416,288,92654,5,0
352,288,92920,1,8
352,288,93054,1,8
304,288,93254,1,8
256,288,93454,1,0
192,288,93720,1,8
192,288,93854,1,8
192,176,94254,5,0
240,160,94454,1,0
288,144,94654,1,0
336,128,94854,1,0
288,96,95054,1,0
288,32,95320,1,8
288,32,95454,1,8
240,32,95654,1,8
192,32,95854,1,0
160,64,96054,1,0
128,96,96254,1,0
96,128,96454,1,0
128,160,96654,1,0
240,160,97054,1,14
240,272,97454,5,12
288,272,97654,1,12
336,272,97854,1,12
336,224,98054,1,12
336,176,98254,1,12
336,112,98520,1,12
336,112,98654,1,12
448,112,99054,5,12
448,176,99320,1,12
448,176,99454,1,12
448,224,99654,1,12
448,272,99854,1,12
384,272,100120,1,12
384,272,100254,1,12
272,272,100654,5,12
224,272,100854,1,12
176,272,101054,1,12
176,224,101254,1,12
176,176,101454,1,12
176,112,101720,1,12
176,112,101854,1,12
224,112,102054,1,12
272,128,102254,1,12
320,144,102454,1,12
368,160,102654,1,12
416,176,102854,1,12
368,208,103054,1,12
304,288,103454,1,2
256,192,103854,6,0,B|256:64,1,100
256,192,104254,2,0,B|256:320,1,100
256,192,104654,2,10,B|344:141|108:106,1,200
256,192,105454,5,8
256,192,105554,1,8
256,192,105654,1,8
256,192,105754,1,8
256,192,105854,1,8
256,192,105954,1,8
256,192,106054,1,8
256,192,106154,1,8
256,192,106254,1,8
