osu file format v5

[General]
AudioFilename: Yara Tum Kahan.mp3
AudioLeadIn: 0
PreviewTime: -1
Countdown: 1
SampleSet: Normal
StackLeniency: 0.7
Mode: 0
LetterboxInBreaks: 1
EditorBookmarks: 7454,7854,9454,11054,12654,13854,14254,15854,17454,19054,20254,20654,23836,33436,39836,46236,52636,65436,68636,71836,92636,97436,105436

[Metadata]
Title:Yara Tum Kahan?
Artist:ASMAT
Creator:FolkFolk
Version:Easy
Source:
Tags:

[Difficulty]
HPDrainRate:0
CircleSize:1
OverallDifficulty:1
SliderMultiplier:1
SliderTickRate:2

[Events]
//Background and Video events
0,0,"Yara Tum Kahan.JPG"
//Break Periods
2,77636,86276
//Storyboard Layer 0 (Background)
//Storyboard Layer 1 (Failing)
//Storyboard Layer 2 (Passing)
//Storyboard Layer 3 (Foreground)
//Storyboard Sound Samples
//Background Colour Transformations
3,100,0,0,0

[TimingPoints]
7454,400,3,1,0,60,1

[HitObjects]
48,48,7854,5,0
320,48,9454,1,0
320,320,11053,1,0
48,320,12653,1,14
320,320,14253,5,0
48,320,15853,1,0
48,48,17453,1,0
320,48,19053,1,14
48,48,20654,5,0
48,192,21454,1,0
192,192,22254,1,0
192,48,23054,1,14
336,48,23854,5,0
480,48,24654,1,0
480,192,25454,1,0
336,192,26254,2,14,B|432:128|336:16,1,200
64,32,28654,1,0
64,304,30254,1,0
336,304,31854,1,8
336,32,33454,5,0
192,32,34254,1,0
48,32,35054,1,0
48,176,35854,1,0
192,176,36654,1,0
336,176,37454,1,0
480,176,38254,1,0
480,320,39054,1,14
336,320,39853,5,0
192,320,40653,1,0
336,320,41453,1,0
480,320,42253,1,0
480,176,43053,1,0
336,176,43853,1,0
192,176,44653,1,0
48,176,45453,1,14
48,32,46253,6,14,B|432:32,1,300
352,96,47853,2,14,B|48:96,1,300
48,160,49453,2,14,B|384:160,1,300
352,224,51053,2,14,B|32:224,1,300
112,192,52653,5,0
112,192,54253,1,8
384,192,55853,1,0
384,192,57453,1,8
112,192,59053,1,0
112,192,60653,1,8
368,192,62253,1,0
368,192,63853,1,14
96,192,65453,5,0
96,48,66253,1,0
240,48,67053,1,0
384,48,67853,1,0
384,192,68653,5,0
240,192,69453,1,0
96,192,70253,1,8
96,256,70653,1,8
96,320,71053,1,14
240,320,71853,5,0
384,320,72653,1,0
384,176,73453,1,0
384,32,74253,1,0
240,32,75053,5,0
96,32,75853,1,0
96,176,76653,1,8
160,176,77053,1,8
224,176,77453,1,14
256,192,87854,12,14,90654
256,192,92654,5,0
256,192,94254,1,0
256,192,95854,1,14
256,192,97454,5,8
112,192,98254,1,8
112,48,99054,1,8
256,48,99854,1,8
256,192,100654,1,8
400,192,101454,1,8
400,48,102254,1,8
256,48,103054,1,14
160,144,103854,6,14,B|384:144,1,200
352,272,105454,5,14
288,272,105854,1,14
224,272,106254,1,14
