osu file format v13

[General]
AudioFilename: Not the American Average.mp3
AudioLeadIn: 0
PreviewTime: 114127
Countdown: 1
SampleSet: Normal
StackLeniency: 0.7
Mode: 0
LetterboxInBreaks: 1
EpilepsyWarning: 1
WidescreenStoryboard: 1

[Editor]
Bookmarks: 344,41817,110287,125647,275900
DistanceSpacing: 0.7
BeatDivisor: 4
GridSize: 4
TimelineZoom: 1.1

[Metadata]
Title:Not the American Average
TitleUnicode:Not the American Average
Artist:ASKING ALEXANDRIA
ArtistUnicode:ASKING ALEXANDRIA
Creator:starvfox
Version:Easy
Source:
Tags:puxtu CoroQuetz asking alexandria starvfox screamo theforgotten5
BeatmapID:459153
BeatmapSetID:183412

[Difficulty]
HPDrainRate:0
CircleSize:3
OverallDifficulty:2
ApproachRate:3
SliderMultiplier:0.999999999999999
SliderTickRate:1

[Events]
//Background and Video events
0,0,"Asking-Alexandria.jpg",0,0
//Break Periods
2,92791,96502
2,114127,128045
//Storyboard Layer 0 (Background)
//Storyboard Layer 1 (Fail)
//Storyboard Layer 2 (Pass)
//Storyboard Layer 3 (Foreground)
Sprite,Foreground,Centre,"black.png",320,240 M,0,236540,,320,240 F,0,236540,237500,0.04619354,1
Sprite,Foreground,Centre,"black.png",320,240 M,0,279228,,320,240 F,0,279231,279239,0 F,0,279239,279253,0 F,0,279253,281181,0,1
Sprite,Foreground,Centre,"Asking-Alexandria.jpg",320,240 M,0,237500,,320,240 F,0,237500,237980,1,0 S,0,237500,237980,1,1.858839
Sprite,Foreground,Centre,"Asking-Alexandria.jpg",320,240 F,0,240380,240620,1,0 S,0,240380,240620,0.9752257,1.743226
Sprite,Foreground,Centre,"Asking-Alexandria.jpg",320,240 F,0,241340,241580,1,0 S,0,241340,241580,0.9752257,1.743226
Sprite,Foreground,Centre,"Asking-Alexandria.jpg",320,240 F,0,243260,243500,1,0 S,0,243260,243500,0.9752257,1.743226
Sprite,Foreground,Centre,"Asking-Alexandria.jpg",320,240 F,0,244220,244460,1,0 S,0,244220,244460,0.9752257,1.743226
Sprite,Foreground,Centre,"Asking-Alexandria.jpg",320,240 F,0,245180,245420,1,0 S,0,245180,245420,0.9752257,1.743226
Sprite,Foreground,Centre,"Asking-Alexandria.jpg",320,240 F,0,245580,245820,1,0 S,0,245580,245820,0.9752257,1.743226
Sprite,Foreground,Centre,"Asking-Alexandria.jpg",320,240 F,0,245580,245820,1,0 S,0,245580,245820,0.9752257,1.743226
Sprite,Foreground,Centre,"Asking-Alexandria.jpg",320,240 F,0,246140,246380,1,0 S,0,246140,246380,0.9752257,1.743226
Sprite,Foreground,Centre,"Asking-Alexandria.jpg",320,240 F,0,246540,246780,1,0 S,0,246540,246780,0.9752257,1.743226
Sprite,Foreground,Centre,"Asking-Alexandria.jpg",320,240 F,0,247580,247820,1,0 S,0,247580,247820,0.9752257,1.743226
Sprite,Foreground,Centre,"Asking-Alexandria.jpg",320,240 F,0,248540,248780,1,0 S,0,248540,248780,0.9752257,1.743226
Sprite,Foreground,Centre,"Asking-Alexandria.jpg",320,240 F,0,249500,249740,1,0 S,0,249500,249740,0.9752257,1.743226
Sprite,Foreground,Centre,"black.png",320,240 M,0,324,5513,320,240 F,0,5513,5533,1,0.8018064 F,0,5533,10378,0.8018064,0.8297802 F,0,10378,10682,0.8297802,1
//Storyboard Sound Samples

[TimingPoints]
324,324.324324324324,4,1,0,65,1,0
42159,324.324324324324,4,1,0,65,1,0
66807,-76.9230769230769,4,1,0,65,0,1
87564,-76.9230769230769,4,1,0,65,0,0
92429,-76.9230769230769,4,1,0,65,0,0
97942,-76.9230769230769,4,1,0,65,0,1
110287,480,4,3,0,65,1,0
129485,239.808153477218,4,1,0,65,1,1
129487,-100,4,1,0,65,0,1
144847,-100,4,2,0,79,0,1
160180,666.666666666667,4,1,0,65,1,0
237500,480,4,3,0,65,1,0

[Colours]
Combo1 : 0,64,0
Combo2 : 0,64,64
Combo3 : 0,0,64
Combo4 : 128,128,128

[HitObjects]
144,72,5513,6,0,P|112:120|120:272,1,200
100,160,6810,6,0,B|96:212|92:268|176:340,1,200
412,160,8107,6,0,B|416:212|420:268|336:340,1,200
368,72,9405,6,0,P|400:120|392:272,1,200
196,80,10702,2,0,P|148:164|180:268,1,200
232,176,11999,2,0,P|284:248|408:244,1,200
352,176,13296,6,0,P|360:116|340:24,1,150
264,96,14269,2,0,L|64:96,1,200
164,96,16215,6,0,P|140:196|176:288,1,200
236,188,17188,2,0,L|392:188,2,150,0|0|0,0:0|0:0|0:0,0:0:0:0:
256,192,18486,12,0,19783,0:0:0:0:
256,192,19864,12,0,20756,0:0:0:0:
56,32,21080,6,0,B|72:80|112:120|136:120|136:120|332:120,2,300,0|0|0,0:0|0:0|0:0,0:0:0:0:
456,32,23675,6,0,B|440:80|400:120|376:120|376:120|180:120,2,300,0|0|0,0:0|0:0|0:0,0:0:0:0:
188,248,26269,6,0,L|384:156,1,200
320,116,27242,2,0,P|284:176|284:308,1,200
156,96,28702,5,0,0:0:0:0:
156,232,28864,2,0,L|180:208|204:184,1,50
264,268,29351,1,0,0:0:0:0:
280,56,29675,1,0,0:0:0:0:
348,152,29999,1,0,0:0:0:0:
248,160,30323,1,0,0:0:0:0:
156,232,30648,2,0,P|124:204|124:100,1,150
248,28,31459,6,0,B|300:76|316:112|316:112|316:204,2,200,0|0|0,0:0|0:0|0:0,0:0:0:0:
232,132,33242,2,0,B|232:200|236:228|236:228|268:292,1,150
420,80,34378,6,0,L|304:104,1,99.9999999999999
344,192,35026,2,2,L|460:168,1,99.9999999999999
324,96,35675,2,0,B|264:96|248:112|228:132|228:132|228:232,1,200
256,192,36810,12,0,38594,0:0:0:0:
244,92,39242,6,0,B|180:92|164:100|152:128|152:132|152:136|152:136|152:236,1,200
232,260,40378,2,0,B|296:260|312:252|324:224|324:220|324:216|324:216|324:72,1,250
236,176,41837,1,0,0:0:0:0:
260,256,42159,6,0,L|236:260,8,25,0|0|0|0|0|0|0|0|0,0:0|0:0|0:0|0:0|0:0|0:0|0:0|0:0|0:0,0:0:0:0:
96,64,43780,2,0,P|80:104|88:232,1,150
152,208,44591,1,0,0:0:0:0:
152,208,44753,1,0,0:0:0:0:
296,160,45077,2,0,P|324:136|352:128,1,50
256,76,45402,1,0,0:0:0:0:
256,76,45888,1,0,0:0:0:0:
144,104,46213,2,0,L|136:144,2,25,0|0|0,0:0|0:0|0:0,0:0:0:0:
256,192,46456,12,0,48645,0:0:0:0:
152,72,48969,6,0,P|136:116|136:188,1,99.9999999999999
192,232,49618,2,0,P|224:216|256:212,1,50
328,212,50104,2,0,P|316:260|320:332,1,99.9999999999999
248,128,50753,2,0,P|268:100|336:68,1,99.9999999999999
420,252,51564,6,0,P|404:292|404:360,1,99.9999999999999
312,312,52537,2,0,P|284:264|292:204,1,99.9999999999999
256,192,53834,12,0,56429,0:0:0:0:
156,96,56753,6,0,P|140:132|144:196,1,99.9999999999999
176,276,57402,2,0,P|256:244|320:268,2,150,0|0|0,0:0|0:0|0:0,0:0:0:0:
256,160,58699,2,0,L|256:192,4,25,0|0|0|0|0,0:0|0:0|0:0|0:0|0:0,0:0:0:0:
256,192,59104,12,0,61618,0:0:0:0:
236,96,61942,6,0,P|184:108|176:160,1,99.9999999999999
276,288,62591,2,0,P|328:276|336:224,1,99.9999999999999
256,196,63240,1,0,0:0:0:0:
256,196,63564,1,0,0:0:0:0:
256,196,63888,1,0,0:0:0:0:
256,196,64213,1,0,0:0:0:0:
256,192,64294,12,0,66807,0:0:0:0:
96,48,67456,6,0,L|96:316,1,259.999988098145
176,308,68753,2,0,P|320:280|452:308,1,259.999988098145
384,244,70050,2,0,P|336:120|388:8,1,259.999988098145
256,192,71348,12,0,71996,0:0:0:0:
200,64,72645,6,0,P|176:188|196:264,2,194.999991073609,0|0|0,0:0|0:0|0:0,0:0:0:0:
280,156,74267,2,0,P|392:220|336:332,1,259.999988098145
224,248,75240,2,0,L|204:288,8,32.4999985122681,0|0|0|0|0|0|0|0|0,0:0|0:0|0:0|0:0|0:0|0:0|0:0|0:0|0:0,0:0:0:0:
176,184,76213,2,0,P|200:128|176:52,1,129.999994049072
268,144,76861,1,0,0:0:0:0:
416,48,77186,6,0,L|416:316,1,259.999988098145
336,308,78483,2,0,P|192:280|60:308,1,259.999988098145
128,244,79780,2,0,P|176:120|124:8,1,259.999988098145
256,192,81078,12,0,81726,0:0:0:0:
312,64,82375,6,0,P|336:188|316:264,2,194.999991073609,0|0|0,0:0|0:0|0:0,0:0:0:0:
232,156,83997,2,0,P|120:220|176:332,1,259.999988098145
288,248,84970,2,0,L|308:288,8,32.4999985122681,0|0|0|0|0|0|0|0|0,0:0|0:0|0:0|0:0|0:0|0:0|0:0|0:0|0:0,0:0:0:0:
336,184,85943,2,0,P|328:120|336:52,1,129.999994049072
244,144,86591,1,0,0:0:0:0:
184,96,86915,1,0,0:0:0:0:
108,96,87240,1,0,0:0:0:0:
68,160,87564,1,0,0:0:0:0:
256,192,87645,12,0,88537,0:0:0:0:
256,188,92267,6,0,L|196:232,2,64.9999970245362,0|0|0,0:0|0:0|0:0,0:0:0:0:
52,48,97942,6,0,B|76:56|76:56|80:56|80:56|88:56|88:56|84:56|84:56|96:56|96:56|92:56|92:56|104:56|104:56|100:56|100:56|112:56|112:56|108:56|108:56|120:56|120:56|116:56|116:56|128:56|128:56|124:56|124:56|136:56|136:56|132:56|132:56,3,129.999994049072,0|0|0|0,0:0|0:0|0:0|0:0,0:0:0:0:
184,196,99240,6,0,B|192:172|192:172|192:168|192:168|192:160|192:160|192:164|192:164|192:152|192:152|192:156|192:156|192:144|192:144|192:148|192:148|192:136|192:136|192:140|192:140|192:128|192:128|192:132|192:132|192:120|192:120|192:124|192:124|192:112|192:112|192:116|192:116,3,129.999994049072,0|0|0|0,0:0|0:0|0:0|0:0,0:0:0:0:
304,212,100537,6,0,B|328:220|328:220|332:220|332:220|340:220|340:220|336:220|336:220|348:220|348:220|344:220|344:220|356:220|356:220|352:220|352:220|364:220|364:220|360:220|360:220|372:220|372:220|368:220|368:220|380:220|380:220|376:220|376:220|388:220|388:220|384:220|384:220,3,129.999994049072,0|0|0|0,0:0|0:0|0:0|0:0,0:0:0:0:
440,268,101834,6,0,B|432:292|432:292|432:296|432:296|432:304|432:304|432:300|432:300|432:312|432:312|432:308|432:308|432:320|432:320|432:316|432:316|432:328|432:328|432:324|432:324|432:336|432:336|432:332|432:332|432:344|432:344|432:340|432:340|432:352|432:352|432:348|432:348,3,129.999994049072,0|0|0|0,0:0|0:0|0:0|0:0,0:0:0:0:
256,192,103131,12,0,103780,0:0:0:0:
256,192,103861,12,0,105402,0:0:0:0:
140,68,105726,6,0,B|140:76|140:76|140:72|140:72|140:84|140:84|140:80|140:80|140:92|140:92|140:88|140:88|140:96|140:104|140:104|140:100|140:100|140:112|140:112|140:108|140:108|140:120|140:120|140:116|140:116|140:128|140:128|140:124|140:124|140:136|140:136|140:132|140:132|140:144|140:144|140:140|140:140|140:156|140:156|140:152|140:152|140:164|140:164|140:160|140:160|140:176|140:176|140:172|140:172|140:188|140:188|140:184|140:184|140:200|140:200|140:196|140:196|140:220|140:220|140:216|140:216,1,259.999988098145
203,30,107023,2,0,B|199:37|199:37|201:34|201:34|196:45|196:45|198:41|198:41|193:52|193:52|194:48|194:48|191:55|188:63|188:63|189:59|189:59|184:70|184:70|186:66|186:66|181:77|181:77|182:74|182:74|177:84|177:84|179:81|179:81|174:92|174:92|176:88|176:88|171:99|171:99|172:95|172:95|166:110|166:110|167:106|167:106|162:117|162:117|164:113|164:113|157:128|157:128|159:124|159:124|152:139|152:139|154:135|154:135|147:150|147:150|149:146|149:146|139:168|139:168|140:164|140:164,1,259.999988098145
256,192,108321,12,0,109618,0:0:0:0:
256,192,110267,5,0,0:0:0:0:
96,80,129485,5,0,0:0:0:0:
168,40,129964,1,0,0:0:0:0:
244,40,130444,1,0,0:0:0:0:
312,76,130923,1,0,0:0:0:0:
352,144,131403,1,0,0:0:0:0:
208,152,132362,6,0,L|200:184,8,25,0|0|0|0|0|0|0|0|0,0:0|0:0|0:0|0:0|0:0|0:0|0:0|0:0|0:0,0:0:0:0:
44,268,133321,5,0,0:0:0:0:
104,216,133561,1,0,0:0:0:0:
160,268,133801,1,0,0:0:0:0:
212,216,134041,1,0,0:0:0:0:
268,268,134281,1,0,0:0:0:0:
320,216,134520,1,0,0:0:0:0:
376,268,134760,1,0,0:0:0:0:
420,212,135000,1,0,0:0:0:0:
480,264,136199,2,0,L|484:292,8,25,0|0|0|0|0|0|0|0|0,0:0|0:0|0:0|0:0|0:0|0:0|0:0|0:0|0:0,0:0:0:0:
168,44,137158,5,0,0:0:0:0:
120,96,137398,1,0,0:0:0:0:
96,160,137638,1,0,0:0:0:0:
92,228,137878,1,0,0:0:0:0:
100,296,138118,1,0,0:0:0:0:
160,332,138357,1,0,0:0:0:0:
240,328,138597,1,0,0:0:0:0:
316,328,138837,1,0,0:0:0:0:
392,328,139077,1,0,0:0:0:0:
268,152,140036,6,0,L|208:132,8,50,0|0|0|0|0|0|0|0|0,0:0|0:0|0:0|0:0|0:0|0:0|0:0|0:0|0:0,0:0:0:0:
316,96,141235,1,0,0:0:0:0:
392,76,141475,1,0,0:0:0:0:
456,124,141715,1,0,0:0:0:0:
460,204,141955,1,0,0:0:0:0:
440,280,142194,1,0,0:0:0:0:
368,312,142434,1,0,0:0:0:0:
288,296,142674,1,0,0:0:0:0:
228,244,142914,1,0,0:0:0:0:
352,192,143753,6,0,L|348:224,2,25,0|0|0,0:0|0:0|0:0,0:0:0:0:
352,192,144113,1,0,0:0:0:0:
256,32,145072,5,0,0:0:0:0:
208,68,145312,1,0,0:0:0:0:
184,124,145552,1,0,0:0:0:0:
172,184,145791,1,0,0:0:0:0:
176,244,146031,1,0,0:0:0:0:
196,300,146271,1,0,0:0:0:0:
244,336,146511,1,0,0:0:0:0:
304,336,146751,1,0,0:0:0:0:
364,328,146990,1,0,0:0:0:0:
392,276,147230,1,0,0:0:0:0:
392,216,147470,1,0,0:0:0:0:
392,156,147710,1,0,0:0:0:0:
388,96,147950,1,0,0:0:0:0:
348,52,148190,1,0,0:0:0:0:
144,48,148669,6,0,L|68:124,1,99.9999999999999
184,100,149149,2,0,L|108:176,1,99.9999999999999
368,48,149628,2,0,L|444:124,1,99.9999999999999
328,100,150108,2,0,L|404:176,1,99.9999999999999
208,168,150588,2,0,L|328:168,1,99.9999999999999
208,232,151067,2,0,L|328:232,1,99.9999999999999
208,92,151547,2,0,L|328:92,1,99.9999999999999
284,168,152026,1,0,0:0:0:0:
352,88,152506,6,0,L|432:148,4,99.9999999999999,0|0|0|0|0,0:0|0:0|0:0|0:0|0:0,0:0:0:0:
312,184,153945,2,0,L|272:288,2,99.9999999999999,0|0|0,0:0|0:0|0:0,0:0:0:0:
208,120,154904,2,0,P|168:160|156:216,1,99.9999999999999
256,56,155624,1,0,0:0:0:0:
104,348,156823,6,0,P|68:312|72:256,2,99.9999999999999,0|0|0,0:0|0:0|0:0,0:0:0:0:
108,196,157782,2,0,L|228:196,2,99.9999999999999,0|0|0,0:0|0:0|0:0,0:0:0:0:
104,196,159221,1,0,0:0:0:0:
256,192,160180,1,0,0:0:0:0:
256,192,160221,12,0,162846,0:0:0:0:
