osu file format v13

[General]
AudioFilename: Not the American Average.mp3
AudioLeadIn: 0
PreviewTime: 114127
Countdown: 0
SampleSet: Normal
StackLeniency: 0.2
Mode: 3
LetterboxInBreaks: 0
EpilepsyWarning: 1
SpecialStyle: 0
WidescreenStoryboard: 1

[Editor]
Bookmarks: 344,10702,41817,110287,125647,275900
DistanceSpacing: 1.2
BeatDivisor: 4
GridSize: 4
TimelineZoom: 2.699999

[Metadata]
Title:Not the American Average
TitleUnicode:Not the American Average
Artist:ASKING ALEXANDRIA
ArtistUnicode:ASKING ALEXANDRIA
Creator:starvfox
Version:4K Hard
Source:
Tags:puxtu CoroQuetz asking alexandria starvfox screamo theforgotten5
BeatmapID:457955
BeatmapSetID:183412

[Difficulty]
HPDrainRate:7
CircleSize:4
OverallDifficulty:4
ApproachRate:4
SliderMultiplier:1.8
SliderTickRate:1

[Events]
//Background and Video events
0,0,"Asking-Alexandria.jpg",0,0
//Break Periods
//Storyboard Layer 0 (Background)
//Storyboard Layer 1 (Fail)
//Storyboard Layer 2 (Pass)
//Storyboard Layer 3 (Foreground)
//Storyboard Sound Samples

[TimingPoints]
324,324.324324324324,4,1,0,65,1,0
42159,324.324324324324,4,1,0,65,1,0
110287,480,4,1,0,65,1,0
127547,239.808153477218,4,1,0,65,1,0
160160,666.666666666667,4,1,0,65,1,0
229868,468.75,4,1,0,65,1,0
237500,480,4,3,0,65,1,0

[Colours]
Combo1 : 0,64,0
Combo2 : 0,64,64
Combo3 : 0,0,64
Combo4 : 128,128,128

[HitObjects]
64,192,324,5,0,0:0:0:0:
192,192,324,1,0,0:0:0:0:
320,192,648,1,0,0:0:0:0:
448,192,648,1,0,0:0:0:0:
64,192,972,1,0,0:0:0:0:
192,192,972,1,0,0:0:0:0:
448,192,1296,128,0,1621:0:0:0:0:
320,192,1296,128,0,1621:0:0:0:0:
64,192,1621,1,0,0:0:0:0:
192,192,1621,1,0,0:0:0:0:
448,192,1945,1,0,0:0:0:0:
320,192,1945,1,0,0:0:0:0:
320,192,2107,1,0,0:0:0:0:
192,192,2107,1,0,0:0:0:0:
320,192,2432,1,0,0:0:0:0:
448,192,2432,1,0,0:0:0:0:
448,192,2594,1,0,0:0:0:0:
320,192,2594,1,0,0:0:0:0:
64,192,2918,1,0,0:0:0:0:
320,192,3080,1,0,0:0:0:0:
64,192,3242,1,0,0:0:0:0:
448,192,3405,1,0,0:0:0:0:
64,192,3567,1,0,0:0:0:0:
448,192,3729,1,0,0:0:0:0:
320,192,3891,128,0,4053:0:0:0:0:
448,192,4053,128,0,4215:0:0:0:0:
64,192,4215,128,0,4378:0:0:0:0:
448,192,4378,128,0,4540:0:0:0:0:
320,192,4540,128,0,4702:0:0:0:0:
64,192,4702,128,0,4864:0:0:0:0:
320,192,4864,128,0,5026:0:0:0:0:
448,192,5026,128,0,5188:0:0:0:0:
64,192,5188,128,0,5351:0:0:0:0:
320,192,5351,128,0,5513:0:0:0:0:
64,192,5513,128,0,6161:0:0:0:0:
192,192,6161,1,0,0:0:0:0:
448,192,6810,128,0,7459:0:0:0:0:
320,192,7459,1,0,0:0:0:0:
192,192,7621,1,0,0:0:0:0:
448,192,7783,1,0,0:0:0:0:
320,192,7945,1,0,0:0:0:0:
64,192,8107,1,0,0:0:0:0:
192,192,8269,1,0,0:0:0:0:
448,192,8432,1,0,0:0:0:0:
448,192,8594,1,0,0:0:0:0:
320,192,8756,1,0,0:0:0:0:
320,192,8918,1,0,0:0:0:0:
320,192,9080,1,0,0:0:0:0:
320,192,9242,1,0,0:0:0:0:
64,192,9405,1,0,0:0:0:0:
192,192,9486,1,0,0:0:0:0:
320,192,9567,1,0,0:0:0:0:
192,192,9648,1,0,0:0:0:0:
320,192,9729,1,0,0:0:0:0:
448,192,9810,1,0,0:0:0:0:
320,192,9891,1,0,0:0:0:0:
448,192,9972,1,0,0:0:0:0:
320,192,10053,1,0,0:0:0:0:
192,192,10134,1,0,0:0:0:0:
64,192,10215,1,0,0:0:0:0:
192,192,10296,1,0,0:0:0:0:
320,192,10378,1,0,0:0:0:0:
64,192,10702,1,0,0:0:0:0:
192,192,10702,1,0,0:0:0:0:
320,192,10864,1,0,0:0:0:0:
448,192,10864,1,0,0:0:0:0:
192,192,11026,1,0,0:0:0:0:
64,192,11026,1,0,0:0:0:0:
320,192,11188,1,0,0:0:0:0:
448,192,11188,1,0,0:0:0:0:
64,192,11675,128,0,12323:0:0:0:0:
192,192,12323,128,0,12972:0:0:0:0:
320,192,12972,128,0,13296:0:0:0:0:
192,192,13296,1,0,0:0:0:0:
192,192,13459,1,0,0:0:0:0:
448,192,13621,1,0,0:0:0:0:
320,192,13783,1,0,0:0:0:0:
192,192,14107,1,0,0:0:0:0:
448,192,14269,1,0,0:0:0:0:
192,192,14432,1,0,0:0:0:0:
64,192,14918,1,0,0:0:0:0:
192,192,14918,1,0,0:0:0:0:
448,192,15080,1,0,0:0:0:0:
320,192,15161,1,0,0:0:0:0:
448,192,15242,1,0,0:0:0:0:
320,192,15405,128,0,15486:0:0:0:0:
448,192,15486,128,0,15567:0:0:0:0:
320,192,15567,1,0,0:0:0:0:
64,192,15891,128,0,16215:0:0:0:0:
192,192,16053,1,0,0:0:0:0:
448,192,16215,1,0,0:0:0:0:
192,192,16378,1,0,0:0:0:0:
64,192,16864,1,0,0:0:0:0:
192,192,16945,1,0,0:0:0:0:
320,192,17026,1,0,0:0:0:0:
192,192,17107,1,0,0:0:0:0:
320,192,17188,1,0,0:0:0:0:
448,192,17269,1,0,0:0:0:0:
320,192,17351,1,0,0:0:0:0:
192,192,17432,1,0,0:0:0:0:
64,192,17513,128,0,17594:0:0:0:0:
448,192,17594,128,0,17675:0:0:0:0:
192,192,17675,128,0,17756:0:0:0:0:
320,192,17756,128,0,17837:0:0:0:0:
64,192,17837,128,0,17918:0:0:0:0:
448,192,17918,128,0,17999:0:0:0:0:
320,192,17999,128,0,18080:0:0:0:0:
64,192,18080,128,0,18161:0:0:0:0:
192,192,18161,1,0,0:0:0:0:
64,192,18486,1,0,0:0:0:0:
320,192,18648,1,0,0:0:0:0:
64,192,18810,1,0,0:0:0:0:
448,192,18972,1,0,0:0:0:0:
64,192,19296,1,0,0:0:0:0:
192,192,19378,1,0,0:0:0:0:
320,192,19459,1,0,0:0:0:0:
192,192,19621,1,0,0:0:0:0:
320,192,19702,1,0,0:0:0:0:
448,192,19783,128,0,21080:0:0:0:0:
64,192,21080,1,0,0:0:0:0:
320,192,21242,1,0,0:0:0:0:
192,192,21405,1,0,0:0:0:0:
448,192,21567,1,0,0:0:0:0:
192,192,22053,1,0,0:0:0:0:
448,192,22053,1,0,0:0:0:0:
64,192,22702,128,0,22864:0:0:0:0:
448,192,22864,128,0,23026:0:0:0:0:
64,192,23026,128,0,23188:0:0:0:0:
320,192,23188,128,0,23351:0:0:0:0:
192,192,23351,128,0,23513:0:0:0:0:
448,192,23513,128,0,23675:0:0:0:0:
320,192,23675,128,0,23837:0:0:0:0:
192,192,23837,128,0,23999:0:0:0:0:
320,192,23999,128,0,24161:0:0:0:0:
448,192,24161,1,0,0:0:0:0:
64,192,24486,128,0,24648:0:0:0:0:
192,192,24648,128,0,24810:0:0:0:0:
320,192,24810,1,0,0:0:0:0:
192,192,25296,1,0,0:0:0:0:
320,192,25459,1,0,0:0:0:0:
192,192,25621,1,0,0:0:0:0:
320,192,25783,1,0,0:0:0:0:
448,192,25945,1,0,0:0:0:0:
320,192,26107,1,0,0:0:0:0:
192,192,26269,1,0,0:0:0:0:
64,192,26432,1,0,0:0:0:0:
448,192,26594,1,0,0:0:0:0:
64,192,26756,1,0,0:0:0:0:
448,192,26918,1,0,0:0:0:0:
320,192,27242,128,0,27891:0:0:0:0:
448,192,27242,128,0,27891:0:0:0:0:
64,192,27891,1,0,0:0:0:0:
320,192,28053,1,0,0:0:0:0:
64,192,28215,1,0,0:0:0:0:
320,192,28378,1,0,0:0:0:0:
448,192,28540,1,0,0:0:0:0:
192,192,28702,1,0,0:0:0:0:
448,192,28864,1,0,0:0:0:0:
192,192,29026,1,0,0:0:0:0:
448,192,29026,128,0,29188:0:0:0:0:
320,192,29188,128,0,29351:0:0:0:0:
192,192,29351,1,0,0:0:0:0:
320,192,29675,1,0,0:0:0:0:
192,192,29675,1,0,0:0:0:0:
192,192,29999,1,0,0:0:0:0:
320,192,29999,1,0,0:0:0:0:
64,192,30486,1,0,0:0:0:0:
192,192,30567,1,0,0:0:0:0:
320,192,30648,1,0,0:0:0:0:
448,192,30729,1,0,0:0:0:0:
320,192,30810,1,0,0:0:0:0:
448,192,30891,1,0,0:0:0:0:
320,192,30972,1,0,0:0:0:0:
192,192,31053,1,0,0:0:0:0:
320,192,31134,1,0,0:0:0:0:
64,192,31215,1,0,0:0:0:0:
192,192,31296,1,0,0:0:0:0:
448,192,31378,1,0,0:0:0:0:
64,192,31459,1,0,0:0:0:0:
320,192,31621,1,0,0:0:0:0:
448,192,31783,1,0,0:0:0:0:
192,192,31945,1,0,0:0:0:0:
320,192,32432,1,0,0:0:0:0:
64,192,32432,1,0,0:0:0:0:
320,192,33080,128,0,33242:0:0:0:0:
192,192,33242,128,0,33405:0:0:0:0:
320,192,33405,128,0,33567:0:0:0:0:
448,192,33567,128,0,33729:0:0:0:0:
320,192,33729,128,0,33891:0:0:0:0:
64,192,33891,128,0,34053:0:0:0:0:
448,192,34053,128,0,34215:0:0:0:0:
192,192,34215,128,0,34378:0:0:0:0:
448,192,34378,1,0,0:0:0:0:
448,192,34540,1,0,0:0:0:0:
448,192,34864,1,0,0:0:0:0:
448,192,35026,1,0,0:0:0:0:
64,192,35188,1,0,0:0:0:0:
448,192,35675,1,0,0:0:0:0:
320,192,35837,1,0,0:0:0:0:
192,192,35999,1,0,0:0:0:0:
64,192,36161,1,0,0:0:0:0:
320,192,36323,1,0,0:0:0:0:
320,192,36486,1,0,0:0:0:0:
448,192,36648,1,0,0:0:0:0:
448,192,36810,1,0,0:0:0:0:
320,192,36972,1,0,0:0:0:0:
448,192,37134,1,0,0:0:0:0:
64,192,37621,128,0,38269:0:0:0:0:
192,192,38269,1,0,0:0:0:0:
320,192,38432,1,0,0:0:0:0:
448,192,38594,1,0,0:0:0:0:
320,192,38756,1,0,0:0:0:0:
320,192,38918,1,0,0:0:0:0:
320,192,39080,1,0,0:0:0:0:
320,192,39242,1,0,0:0:0:0:
320,192,39405,1,0,0:0:0:0:
448,192,39567,1,0,0:0:0:0:
448,192,39729,1,0,0:0:0:0:
448,192,40053,1,0,0:0:0:0:
448,192,40378,1,0,0:0:0:0:
448,192,40540,1,0,0:0:0:0:
320,192,40621,1,0,0:0:0:0:
192,192,40702,1,0,0:0:0:0:
320,192,40783,1,0,0:0:0:0:
448,192,40864,1,0,0:0:0:0:
64,192,41026,1,0,0:0:0:0:
192,192,41107,1,0,0:0:0:0:
320,192,41188,1,0,0:0:0:0:
448,192,41351,1,0,0:0:0:0:
320,192,41432,1,0,0:0:0:0:
192,192,41513,1,0,0:0:0:0:
192,192,41675,1,0,0:0:0:0:
320,192,41756,1,0,0:0:0:0:
448,192,41837,1,0,0:0:0:0:
64,192,42159,1,0,0:0:0:0:
192,192,42240,1,0,0:0:0:0:
320,192,42321,1,0,0:0:0:0:
448,192,42402,1,0,0:0:0:0:
320,192,42483,1,0,0:0:0:0:
192,192,42564,1,0,0:0:0:0:
64,192,42645,1,0,0:0:0:0:
448,192,42726,1,0,0:0:0:0:
320,192,42807,1,0,0:0:0:0:
64,192,43780,128,0,44104:0:0:0:0:
448,192,43942,128,0,44104:0:0:0:0:
192,192,44104,128,0,44429:0:0:0:0:
64,192,44267,128,0,44591:0:0:0:0:
448,192,44429,128,0,44753:0:0:0:0:
320,192,44591,128,0,44915:0:0:0:0:
192,192,44753,128,0,45077:0:0:0:0:
448,192,44915,128,0,45240:0:0:0:0:
64,192,45077,1,0,0:0:0:0:
320,192,45240,1,0,0:0:0:0:
448,192,45564,1,0,0:0:0:0:
448,192,45888,1,0,0:0:0:0:
64,192,46213,1,0,0:0:0:0:
192,192,46294,1,0,0:0:0:0:
320,192,46375,1,0,0:0:0:0:
448,192,46375,128,0,47023:0:0:0:0:
64,192,47023,128,0,47186:0:0:0:0:
192,192,47186,128,0,47348:0:0:0:0:
448,192,47348,128,0,47510:0:0:0:0:
64,192,47510,128,0,47672:0:0:0:0:
320,192,47672,128,0,47834:0:0:0:0:
448,192,47753,1,0,0:0:0:0:
448,192,47834,1,0,0:0:0:0:
64,192,47834,128,0,47996:0:0:0:0:
448,192,47996,1,0,0:0:0:0:
320,192,48158,1,0,0:0:0:0:
192,192,48321,1,0,0:0:0:0:
64,192,48483,1,0,0:0:0:0:
448,192,48645,1,0,0:0:0:0:
320,192,48645,1,0,0:0:0:0:
192,192,49618,1,0,0:0:0:0:
448,192,49780,1,0,0:0:0:0:
320,192,49942,1,0,0:0:0:0:
192,192,50104,1,0,0:0:0:0:
448,192,50267,1,0,0:0:0:0:
320,192,50429,1,0,0:0:0:0:
192,192,50591,1,0,0:0:0:0:
192,192,50753,1,0,0:0:0:0:
448,192,50915,1,0,0:0:0:0:
320,192,51077,1,0,0:0:0:0:
192,192,51240,1,0,0:0:0:0:
320,192,51402,1,0,0:0:0:0:
448,192,51564,1,0,0:0:0:0:
320,192,51726,1,0,0:0:0:0:
320,192,51888,1,0,0:0:0:0:
64,192,52213,1,0,0:0:0:0:
192,192,52294,1,0,0:0:0:0:
320,192,52375,1,0,0:0:0:0:
448,192,52537,1,0,0:0:0:0:
320,192,52699,1,0,0:0:0:0:
64,192,52861,1,0,0:0:0:0:
320,192,53023,1,0,0:0:0:0:
192,192,53186,1,0,0:0:0:0:
320,192,53186,1,0,0:0:0:0:
448,192,53348,1,0,0:0:0:0:
320,192,53510,1,0,0:0:0:0:
192,192,53672,1,0,0:0:0:0:
448,192,53834,1,0,0:0:0:0:
320,192,53834,1,0,0:0:0:0:
448,192,54807,1,0,0:0:0:0:
320,192,54969,1,0,0:0:0:0:
192,192,55131,1,0,0:0:0:0:
64,192,55294,1,0,0:0:0:0:
192,192,55456,1,0,0:0:0:0:
448,192,55618,1,0,0:0:0:0:
192,192,55780,1,0,0:0:0:0:
448,192,55942,1,0,0:0:0:0:
320,192,56104,1,0,0:0:0:0:
320,192,56267,1,0,0:0:0:0:
320,192,56429,1,0,0:0:0:0:
448,192,56591,1,0,0:0:0:0:
448,192,56915,1,0,0:0:0:0:
448,192,57240,1,0,0:0:0:0:
320,192,57321,1,0,0:0:0:0:
192,192,57402,1,0,0:0:0:0:
448,192,57402,128,0,58050:0:0:0:0:
192,192,58050,1,0,0:0:0:0:
320,192,58131,1,0,0:0:0:0:
448,192,58213,1,0,0:0:0:0:
448,192,58375,1,0,0:0:0:0:
320,192,58456,1,0,0:0:0:0:
192,192,58537,1,0,0:0:0:0:
320,192,58699,1,0,0:0:0:0:
448,192,58780,1,0,0:0:0:0:
64,192,58861,1,0,0:0:0:0:
320,192,58942,1,0,0:0:0:0:
192,192,59023,1,0,0:0:0:0:
448,192,59186,1,0,0:0:0:0:
320,192,59348,1,0,0:0:0:0:
192,192,59510,1,0,0:0:0:0:
448,192,59672,1,0,0:0:0:0:
192,192,60645,1,0,0:0:0:0:
448,192,60807,1,0,0:0:0:0:
192,192,60969,1,0,0:0:0:0:
448,192,61131,1,0,0:0:0:0:
192,192,61294,1,0,0:0:0:0:
448,192,61456,1,0,0:0:0:0:
320,192,61618,1,0,0:0:0:0:
448,192,61618,128,0,61942:0:0:0:0:
320,192,61780,1,0,0:0:0:0:
64,192,61942,1,0,0:0:0:0:
320,192,61942,128,0,62267:0:0:0:0:
192,192,62104,1,0,0:0:0:0:
448,192,62267,128,0,62591:0:0:0:0:
64,192,62267,1,0,0:0:0:0:
192,192,62429,1,0,0:0:0:0:
64,192,62591,1,0,0:0:0:0:
192,192,62591,128,0,62915:0:0:0:0:
320,192,62753,1,0,0:0:0:0:
320,192,62915,128,0,63240:0:0:0:0:
64,192,62915,1,0,0:0:0:0:
448,192,63077,1,0,0:0:0:0:
448,192,63240,128,0,63564:0:0:0:0:
320,192,63564,128,0,63888:0:0:0:0:
64,192,63564,1,0,0:0:0:0:
192,192,63645,1,0,0:0:0:0:
448,192,63726,1,0,0:0:0:0:
192,192,63888,1,0,0:0:0:0:
448,192,64213,1,0,0:0:0:0:
320,192,64294,1,0,0:0:0:0:
192,192,64375,1,0,0:0:0:0:
448,192,64537,1,0,0:0:0:0:
448,192,64699,1,0,0:0:0:0:
448,192,64861,1,0,0:0:0:0:
448,192,65023,1,0,0:0:0:0:
448,192,65186,1,0,0:0:0:0:
448,192,65348,1,0,0:0:0:0:
448,192,65510,1,0,0:0:0:0:
448,192,65672,1,0,0:0:0:0:
448,192,65834,1,0,0:0:0:0:
448,192,65996,1,0,0:0:0:0:
448,192,66158,1,0,0:0:0:0:
320,192,66240,1,0,0:0:0:0:
192,192,66321,1,0,0:0:0:0:
320,192,66402,1,0,0:0:0:0:
448,192,66483,1,0,0:0:0:0:
192,192,66564,1,0,0:0:0:0:
448,192,66645,1,0,0:0:0:0:
192,192,66726,1,0,0:0:0:0:
448,192,66807,1,0,0:0:0:0:
64,192,66888,1,0,0:0:0:0:
320,192,66969,1,0,0:0:0:0:
448,192,67050,1,0,0:0:0:0:
192,192,67131,1,0,0:0:0:0:
448,192,67131,128,0,67294:0:0:0:0:
64,192,67294,128,0,67456:0:0:0:0:
192,192,67456,1,0,0:0:0:0:
448,192,67618,1,0,0:0:0:0:
192,192,67780,1,0,0:0:0:0:
448,192,67942,1,0,0:0:0:0:
192,192,68104,1,0,0:0:0:0:
448,192,68267,1,0,0:0:0:0:
192,192,68429,1,0,0:0:0:0:
64,192,68429,1,0,0:0:0:0:
320,192,68591,1,0,0:0:0:0:
192,192,68753,1,0,0:0:0:0:
64,192,68915,1,0,0:0:0:0:
448,192,69077,1,0,0:0:0:0:
320,192,69077,1,0,0:0:0:0:
192,192,69240,1,0,0:0:0:0:
64,192,69402,1,0,0:0:0:0:
320,192,69564,1,0,0:0:0:0:
448,192,69726,1,0,0:0:0:0:
320,192,69726,1,0,0:0:0:0:
320,192,69888,1,0,0:0:0:0:
192,192,70050,1,0,0:0:0:0:
192,192,70213,1,0,0:0:0:0:
192,192,70375,1,0,0:0:0:0:
64,192,70375,1,0,0:0:0:0:
320,192,70537,1,0,0:0:0:0:
448,192,70699,1,0,0:0:0:0:
320,192,70861,1,0,0:0:0:0:
192,192,71023,1,0,0:0:0:0:
64,192,71023,1,0,0:0:0:0:
320,192,71186,1,0,0:0:0:0:
448,192,71348,1,0,0:0:0:0:
320,192,71510,1,0,0:0:0:0:
448,192,71672,1,0,0:0:0:0:
320,192,71672,1,0,0:0:0:0:
448,192,71834,1,0,0:0:0:0:
192,192,71996,1,0,0:0:0:0:
448,192,72158,1,0,0:0:0:0:
320,192,72321,1,0,0:0:0:0:
64,192,72483,1,0,0:0:0:0:
448,192,72645,1,0,0:0:0:0:
320,192,72807,1,0,0:0:0:0:
192,192,72969,1,0,0:0:0:0:
64,192,73131,1,0,0:0:0:0:
192,192,73213,1,0,0:0:0:0:
192,192,73294,1,0,0:0:0:0:
448,192,73456,1,0,0:0:0:0:
320,192,73618,1,0,0:0:0:0:
448,192,73780,1,0,0:0:0:0:
320,192,73942,1,0,0:0:0:0:
192,192,74104,1,0,0:0:0:0:
448,192,74267,1,0,0:0:0:0:
320,192,74348,1,0,0:0:0:0:
448,192,74429,1,0,0:0:0:0:
320,192,74591,1,0,0:0:0:0:
192,192,74753,1,0,0:0:0:0:
64,192,74915,1,0,0:0:0:0:
192,192,75077,1,0,0:0:0:0:
64,192,75240,1,0,0:0:0:0:
192,192,75402,1,0,0:0:0:0:
448,192,75564,1,0,0:0:0:0:
320,192,75726,1,0,0:0:0:0:
320,192,75888,1,0,0:0:0:0:
448,192,75969,1,0,0:0:0:0:
320,192,76050,1,0,0:0:0:0:
192,192,76131,1,0,0:0:0:0:
320,192,76213,1,0,0:0:0:0:
192,192,76294,1,0,0:0:0:0:
320,192,76375,1,0,0:0:0:0:
448,192,76456,1,0,0:0:0:0:
320,192,76537,1,0,0:0:0:0:
64,192,76618,1,0,0:0:0:0:
192,192,76699,1,0,0:0:0:0:
320,192,76780,1,0,0:0:0:0:
448,192,76780,1,0,0:0:0:0:
448,192,76861,1,0,0:0:0:0:
320,192,76942,1,0,0:0:0:0:
192,192,77023,1,0,0:0:0:0:
64,192,77104,1,0,0:0:0:0:
192,192,77186,1,0,0:0:0:0:
320,192,77186,1,0,0:0:0:0:
192,192,77510,1,0,0:0:0:0:
320,192,77510,1,0,0:0:0:0:
320,192,77834,1,0,0:0:0:0:
320,192,77996,1,0,0:0:0:0:
192,192,78158,1,0,0:0:0:0:
192,192,78321,1,0,0:0:0:0:
320,192,78483,1,0,0:0:0:0:
320,192,78645,1,0,0:0:0:0:
192,192,78807,1,0,0:0:0:0:
192,192,78969,1,0,0:0:0:0:
448,192,79131,1,0,0:0:0:0:
448,192,79294,1,0,0:0:0:0:
320,192,79456,1,0,0:0:0:0:
320,192,79618,1,0,0:0:0:0:
192,192,79780,1,0,0:0:0:0:
192,192,79942,1,0,0:0:0:0:
320,192,80104,1,0,0:0:0:0:
320,192,80267,1,0,0:0:0:0:
192,192,80429,1,0,0:0:0:0:
192,192,80591,1,0,0:0:0:0:
448,192,80753,1,0,0:0:0:0:
448,192,80915,1,0,0:0:0:0:
64,192,81077,128,0,81240:0:0:0:0:
192,192,81240,128,0,81402:0:0:0:0:
64,192,81402,128,0,81564:0:0:0:0:
448,192,81564,128,0,81726:0:0:0:0:
64,192,81726,128,0,81807:0:0:0:0:
192,192,81807,128,0,81888:0:0:0:0:
320,192,81888,128,0,81969:0:0:0:0:
448,192,81969,128,0,82050:0:0:0:0:
64,192,82050,128,0,82131:0:0:0:0:
192,192,82131,128,0,82213:0:0:0:0:
320,192,82213,128,0,82294:0:0:0:0:
448,192,82294,128,0,82375:0:0:0:0:
64,192,83023,1,0,0:0:0:0:
192,192,83186,1,0,0:0:0:0:
320,192,83348,1,0,0:0:0:0:
448,192,83510,1,0,0:0:0:0:
320,192,83672,1,0,0:0:0:0:
320,192,83834,1,0,0:0:0:0:
64,192,83996,1,0,0:0:0:0:
192,192,83996,1,0,0:0:0:0:
448,192,84158,1,0,0:0:0:0:
320,192,84158,1,0,0:0:0:0:
192,192,84321,1,0,0:0:0:0:
320,192,84483,1,0,0:0:0:0:
192,192,84645,1,0,0:0:0:0:
320,192,84807,1,0,0:0:0:0:
320,192,85131,1,0,0:0:0:0:
64,192,85294,1,0,0:0:0:0:
320,192,85618,1,0,0:0:0:0:
320,192,85780,1,0,0:0:0:0:
320,192,85942,1,0,0:0:0:0:
64,192,86267,128,0,86348:0:0:0:0:
320,192,86267,128,0,86348:0:0:0:0:
448,192,86348,128,0,86429:0:0:0:0:
192,192,86429,128,0,86510:0:0:0:0:
320,192,86510,128,0,86591:0:0:0:0:
64,192,86591,128,0,86672:0:0:0:0:
448,192,86672,128,0,86753:0:0:0:0:
64,192,86753,128,0,86834:0:0:0:0:
320,192,86753,128,0,86834:0:0:0:0:
192,192,86834,1,0,0:0:0:0:
448,192,86915,1,0,0:0:0:0:
320,192,86915,1,0,0:0:0:0:
320,192,86996,1,0,0:0:0:0:
192,192,86996,1,0,0:0:0:0:
192,192,87077,1,0,0:0:0:0:
64,192,87077,1,0,0:0:0:0:
64,192,87158,1,0,0:0:0:0:
192,192,87158,1,0,0:0:0:0:
320,192,87240,1,0,0:0:0:0:
448,192,87240,1,0,0:0:0:0:
192,192,87321,1,0,0:0:0:0:
64,192,87402,1,0,0:0:0:0:
192,192,87483,1,0,0:0:0:0:
320,192,87564,128,0,87888:0:0:0:0:
192,192,87888,128,0,88213:0:0:0:0:
320,192,88213,128,0,88537:0:0:0:0:
448,192,88537,128,0,88861:0:0:0:0:
320,192,88861,128,0,89186:0:0:0:0:
192,192,89186,128,0,89510:0:0:0:0:
320,192,89510,1,0,0:0:0:0:
64,192,89510,128,0,89672:0:0:0:0:
448,192,89672,1,0,0:0:0:0:
320,192,89834,1,0,0:0:0:0:
448,192,89834,128,0,89996:0:0:0:0:
192,192,89996,128,0,90321:0:0:0:0:
320,192,90321,1,0,0:0:0:0:
320,192,90483,1,0,0:0:0:0:
192,192,90645,1,0,0:0:0:0:
320,192,90807,1,0,0:0:0:0:
448,192,90969,1,0,0:0:0:0:
320,192,91131,1,0,0:0:0:0:
448,192,91294,1,0,0:0:0:0:
320,192,91294,1,0,0:0:0:0:
320,192,91618,1,0,0:0:0:0:
192,192,91780,1,0,0:0:0:0:
448,192,91942,1,0,0:0:0:0:
192,192,92023,1,0,0:0:0:0:
320,192,92104,1,0,0:0:0:0:
192,192,92267,1,0,0:0:0:0:
320,192,92348,1,0,0:0:0:0:
448,192,92429,1,0,0:0:0:0:
64,192,92591,128,0,94050:0:0:0:0:
192,192,94050,1,0,0:0:0:0:
320,192,94131,1,0,0:0:0:0:
192,192,94213,1,0,0:0:0:0:
64,192,94294,1,0,0:0:0:0:
192,192,94375,1,0,0:0:0:0:
320,192,94456,1,0,0:0:0:0:
448,192,94537,1,0,0:0:0:0:
320,192,94618,1,0,0:0:0:0:
192,192,94699,1,0,0:0:0:0:
64,192,94780,1,0,0:0:0:0:
192,192,94861,1,0,0:0:0:0:
320,192,94942,1,0,0:0:0:0:
448,192,95023,1,0,0:0:0:0:
64,192,95104,128,0,95186:0:0:0:0:
320,192,95104,128,0,95186:0:0:0:0:
448,192,95186,128,0,95267:0:0:0:0:
64,192,95267,128,0,95348:0:0:0:0:
320,192,95348,1,0,0:0:0:0:
448,192,95429,128,0,95510:0:0:0:0:
64,192,95510,128,0,95591:0:0:0:0:
192,192,95591,1,0,0:0:0:0:
448,192,95672,1,0,0:0:0:0:
320,192,95753,1,0,0:0:0:0:
448,192,95834,1,0,0:0:0:0:
192,192,95915,1,0,0:0:0:0:
64,192,95996,1,0,0:0:0:0:
192,192,96077,1,0,0:0:0:0:
320,192,96158,1,0,0:0:0:0:
448,192,96240,1,0,0:0:0:0:
320,192,96321,1,0,0:0:0:0:
192,192,96402,1,0,0:0:0:0:
64,192,96483,1,0,0:0:0:0:
192,192,96564,1,0,0:0:0:0:
320,192,96645,1,0,0:0:0:0:
64,192,96726,128,0,97294:0:0:0:0:
192,192,96807,128,0,97213:0:0:0:0:
320,192,96888,128,0,97131:0:0:0:0:
448,192,97131,1,0,0:0:0:0:
320,192,97213,1,0,0:0:0:0:
192,192,97294,1,0,0:0:0:0:
64,192,97618,1,0,0:0:0:0:
192,192,97699,1,0,0:0:0:0:
320,192,97780,1,0,0:0:0:0:
448,192,97861,1,0,0:0:0:0:
64,192,97942,1,0,0:0:0:0:
192,192,97942,1,0,0:0:0:0:
320,192,98104,1,0,0:0:0:0:
448,192,98104,1,0,0:0:0:0:
64,192,98267,1,0,0:0:0:0:
192,192,98267,1,0,0:0:0:0:
320,192,98429,1,0,0:0:0:0:
448,192,98429,1,0,0:0:0:0:
64,192,98591,1,0,0:0:0:0:
192,192,98591,1,0,0:0:0:0:
448,192,98753,1,0,0:0:0:0:
320,192,98753,1,0,0:0:0:0:
64,192,98915,1,0,0:0:0:0:
192,192,98915,1,0,0:0:0:0:
448,192,99077,1,0,0:0:0:0:
320,192,99077,1,0,0:0:0:0:
64,192,99240,1,0,0:0:0:0:
320,192,99240,1,0,0:0:0:0:
448,192,99402,1,0,0:0:0:0:
192,192,99402,1,0,0:0:0:0:
64,192,99564,1,0,0:0:0:0:
320,192,99564,1,0,0:0:0:0:
192,192,99726,1,0,0:0:0:0:
448,192,99726,1,0,0:0:0:0:
64,192,99888,1,0,0:0:0:0:
320,192,99888,1,0,0:0:0:0:
192,192,100050,1,0,0:0:0:0:
448,192,100050,1,0,0:0:0:0:
64,192,100213,1,0,0:0:0:0:
320,192,100213,1,0,0:0:0:0:
192,192,100375,1,0,0:0:0:0:
448,192,100375,1,0,0:0:0:0:
64,192,100537,1,0,0:0:0:0:
320,192,100537,1,0,0:0:0:0:
448,192,100618,1,0,0:0:0:0:
64,192,100699,128,0,100780:0:0:0:0:
192,192,100699,128,0,100780:0:0:0:0:
320,192,100780,128,0,100861:0:0:0:0:
448,192,100780,128,0,100861:0:0:0:0:
64,192,100861,128,0,100942:0:0:0:0:
192,192,100861,128,0,100942:0:0:0:0:
320,192,100942,128,0,101023:0:0:0:0:
448,192,100942,128,0,101023:0:0:0:0:
192,192,101023,1,0,0:0:0:0:
64,192,101023,1,0,0:0:0:0:
64,192,101104,1,0,0:0:0:0:
192,192,101104,1,0,0:0:0:0:
320,192,101186,1,0,0:0:0:0:
192,192,101186,1,0,0:0:0:0:
64,192,101510,1,0,0:0:0:0:
448,192,101834,128,0,102483:0:0:0:0:
64,192,102483,1,0,0:0:0:0:
192,192,102564,1,0,0:0:0:0:
320,192,102645,1,0,0:0:0:0:
448,192,102726,1,0,0:0:0:0:
320,192,102807,1,0,0:0:0:0:
192,192,102888,1,0,0:0:0:0:
64,192,102969,1,0,0:0:0:0:
192,192,103050,1,0,0:0:0:0:
320,192,103131,1,0,0:0:0:0:
448,192,103131,1,0,0:0:0:0:
320,192,103294,1,0,0:0:0:0:
448,192,103294,1,0,0:0:0:0:
192,192,103456,1,0,0:0:0:0:
64,192,103456,1,0,0:0:0:0:
192,192,103618,1,0,0:0:0:0:
64,192,103618,1,0,0:0:0:0:
320,192,103780,1,0,0:0:0:0:
448,192,103780,1,0,0:0:0:0:
64,192,103942,1,0,0:0:0:0:
192,192,103942,1,0,0:0:0:0:
448,192,104104,1,0,0:0:0:0:
320,192,104104,1,0,0:0:0:0:
64,192,104267,1,0,0:0:0:0:
192,192,104267,1,0,0:0:0:0:
192,192,104429,1,0,0:0:0:0:
64,192,104429,1,0,0:0:0:0:
320,192,104591,1,0,0:0:0:0:
448,192,104591,1,0,0:0:0:0:
448,192,104753,1,0,0:0:0:0:
320,192,104753,1,0,0:0:0:0:
64,192,104915,1,0,0:0:0:0:
192,192,104915,1,0,0:0:0:0:
192,192,105077,1,0,0:0:0:0:
320,192,105158,1,0,0:0:0:0:
192,192,105240,1,0,0:0:0:0:
320,192,105321,1,0,0:0:0:0:
192,192,105402,1,0,0:0:0:0:
320,192,105483,1,0,0:0:0:0:
192,192,105564,1,0,0:0:0:0:
320,192,105645,1,0,0:0:0:0:
192,192,105726,1,0,0:0:0:0:
320,192,105888,1,0,0:0:0:0:
192,192,106050,1,0,0:0:0:0:
64,192,106213,1,0,0:0:0:0:
192,192,106375,1,0,0:0:0:0:
320,192,106537,1,0,0:0:0:0:
448,192,106699,1,0,0:0:0:0:
320,192,106861,1,0,0:0:0:0:
64,192,107023,128,0,107104:0:0:0:0:
192,192,107104,128,0,107186:0:0:0:0:
320,192,107186,128,0,107267:0:0:0:0:
448,192,107267,128,0,107348:0:0:0:0:
64,192,107348,1,0,0:0:0:0:
192,192,107429,1,0,0:0:0:0:
320,192,107510,1,0,0:0:0:0:
448,192,107591,1,0,0:0:0:0:
64,192,107672,128,0,107996:0:0:0:0:
192,192,107753,128,0,107915:0:0:0:0:
320,192,107834,128,0,107996:0:0:0:0:
448,192,107915,128,0,107996:0:0:0:0:
192,192,107996,1,0,0:0:0:0:
448,192,108077,128,0,108401:0:0:0:0:
320,192,108158,128,0,108401:0:0:0:0:
192,192,108239,128,0,108401:0:0:0:0:
64,192,108320,128,0,108401:0:0:0:0:
192,192,108483,1,0,0:0:0:0:
320,192,108564,1,0,0:0:0:0:
192,192,108645,1,0,0:0:0:0:
320,192,108726,1,0,0:0:0:0:
448,192,108807,1,0,0:0:0:0:
320,192,108888,1,0,0:0:0:0:
192,192,108969,1,0,0:0:0:0:
64,192,109050,1,0,0:0:0:0:
192,192,109131,1,0,0:0:0:0:
320,192,109213,1,0,0:0:0:0:
192,192,109294,1,0,0:0:0:0:
64,192,109375,1,0,0:0:0:0:
64,192,109456,1,0,0:0:0:0:
192,192,109537,1,0,0:0:0:0:
448,192,109618,1,0,0:0:0:0:
448,192,110267,1,0,0:0:0:0:
320,192,110267,1,0,0:0:0:0:
192,192,110267,1,0,0:0:0:0:
64,192,110267,1,0,0:0:0:0:
192,192,114127,1,0,0:0:0:0:
448,192,114367,1,0,0:0:0:0:
320,192,114487,1,0,0:0:0:0:
192,192,114607,1,0,0:0:0:0:
448,192,114847,1,0,0:0:0:0:
320,192,114967,1,0,0:0:0:0:
192,192,115087,1,0,0:0:0:0:
192,192,115327,1,0,0:0:0:0:
64,192,115567,1,0,0:0:0:0:
192,192,115687,1,0,0:0:0:0:
64,192,115807,1,0,0:0:0:0:
192,192,115927,1,0,0:0:0:0:
448,192,117007,1,0,0:0:0:0:
192,192,117487,1,0,0:0:0:0:
192,192,117967,1,0,0:0:0:0:
64,192,117967,1,0,0:0:0:0:
448,192,118207,1,0,0:0:0:0:
320,192,118327,1,0,0:0:0:0:
192,192,118447,1,0,0:0:0:0:
64,192,118687,1,0,0:0:0:0:
192,192,118807,1,0,0:0:0:0:
320,192,118927,1,0,0:0:0:0:
448,192,119167,1,0,0:0:0:0:
320,192,119167,1,0,0:0:0:0:
192,192,119407,1,0,0:0:0:0:
192,192,119527,1,0,0:0:0:0:
320,192,119647,1,0,0:0:0:0:
320,192,119767,1,0,0:0:0:0:
192,192,120847,1,0,0:0:0:0:
320,192,120847,1,0,0:0:0:0:
192,192,121327,1,0,0:0:0:0:
320,192,121327,1,0,0:0:0:0:
320,192,121807,1,0,0:0:0:0:
448,192,121807,1,0,0:0:0:0:
448,192,122047,1,0,0:0:0:0:
320,192,122167,1,0,0:0:0:0:
448,192,122287,1,0,0:0:0:0:
64,192,122527,1,0,0:0:0:0:
192,192,122647,1,0,0:0:0:0:
192,192,122767,1,0,0:0:0:0:
448,192,123007,1,0,0:0:0:0:
320,192,123247,1,0,0:0:0:0:
192,192,123367,1,0,0:0:0:0:
320,192,123487,1,0,0:0:0:0:
192,192,123607,1,0,0:0:0:0:
192,192,124687,1,0,0:0:0:0:
64,192,124687,1,0,0:0:0:0:
448,192,125167,1,0,0:0:0:0:
320,192,125167,1,0,0:0:0:0:
320,192,125647,1,0,0:0:0:0:
192,192,125887,1,0,0:0:0:0:
320,192,126007,1,0,0:0:0:0:
192,192,126127,1,0,0:0:0:0:
320,192,126367,1,0,0:0:0:0:
320,192,126486,1,0,0:0:0:0:
448,192,126607,1,0,0:0:0:0:
320,192,126727,1,0,0:0:0:0:
320,192,126847,1,0,0:0:0:0:
320,192,127087,1,0,0:0:0:0:
64,192,127547,1,0,0:0:0:0:
448,192,127547,1,0,0:0:0:0:
192,192,127846,1,0,0:0:0:0:
320,192,128266,1,0,0:0:0:0:
192,192,128326,1,0,0:0:0:0:
64,192,128386,1,0,0:0:0:0:
320,192,128446,1,0,0:0:0:0:
192,192,128506,1,0,0:0:0:0:
448,192,128746,1,0,0:0:0:0:
320,192,128746,1,0,0:0:0:0:
448,192,129465,1,0,0:0:0:0:
320,192,129465,1,0,0:0:0:0:
320,192,132343,1,0,0:0:0:0:
448,192,132343,1,0,0:0:0:0:
320,192,132702,1,0,0:0:0:0:
448,192,132822,1,0,0:0:0:0:
448,192,133302,1,0,0:0:0:0:
64,192,133542,1,0,0:0:0:0:
192,192,133662,1,0,0:0:0:0:
320,192,133782,1,0,0:0:0:0:
64,192,134021,1,0,0:0:0:0:
192,192,134021,1,0,0:0:0:0:
320,192,134141,1,0,0:0:0:0:
64,192,134261,1,0,0:0:0:0:
320,192,134381,1,0,0:0:0:0:
64,192,134501,1,0,0:0:0:0:
320,192,134621,1,0,0:0:0:0:
64,192,134741,1,0,0:0:0:0:
320,192,134861,1,0,0:0:0:0:
64,192,134981,1,0,0:0:0:0:
448,192,135220,1,0,0:0:0:0:
320,192,136180,128,0,136659:0:0:0:0:
448,192,136180,128,0,136659:0:0:0:0:
64,192,137139,1,0,0:0:0:0:
320,192,137379,1,0,0:0:0:0:
64,192,137499,1,0,0:0:0:0:
320,192,137499,1,0,0:0:0:0:
320,192,137858,1,0,0:0:0:0:
64,192,137978,1,0,0:0:0:0:
320,192,138098,1,0,0:0:0:0:
64,192,138218,1,0,0:0:0:0:
448,192,138218,1,0,0:0:0:0:
192,192,138458,1,0,0:0:0:0:
320,192,138578,1,0,0:0:0:0:
192,192,138698,1,0,0:0:0:0:
64,192,138698,1,0,0:0:0:0:
448,192,138698,1,0,0:0:0:0:
192,192,138817,1,0,0:0:0:0:
320,192,138817,1,0,0:0:0:0:
64,192,138937,1,0,0:0:0:0:
448,192,139057,1,0,0:0:0:0:
448,192,139897,1,0,0:0:0:0:
64,192,140017,1,0,0:0:0:0:
320,192,140136,1,0,0:0:0:0:
192,192,140256,1,0,0:0:0:0:
448,192,140376,1,0,0:0:0:0:
64,192,140496,1,0,0:0:0:0:
320,192,140616,1,0,0:0:0:0:
192,192,140736,1,0,0:0:0:0:
64,192,140856,1,0,0:0:0:0:
448,192,140976,1,0,0:0:0:0:
448,192,141216,1,0,0:0:0:0:
64,192,141335,1,0,0:0:0:0:
192,192,141335,1,0,0:0:0:0:
320,192,141455,1,0,0:0:0:0:
64,192,141695,1,0,0:0:0:0:
192,192,141815,1,0,0:0:0:0:
448,192,141815,1,0,0:0:0:0:
64,192,142055,1,0,0:0:0:0:
192,192,142055,1,0,0:0:0:0:
320,192,142175,1,0,0:0:0:0:
64,192,142295,1,0,0:0:0:0:
448,192,142415,1,0,0:0:0:0:
192,192,142535,1,0,0:0:0:0:
320,192,142654,1,0,0:0:0:0:
64,192,142654,1,0,0:0:0:0:
448,192,142654,1,0,0:0:0:0:
320,192,142894,1,0,0:0:0:0:
448,192,142894,1,0,0:0:0:0:
64,192,143734,1,0,0:0:0:0:
192,192,143734,1,0,0:0:0:0:
320,192,143734,1,0,0:0:0:0:
448,192,143853,1,0,0:0:0:0:
448,192,143973,1,0,0:0:0:0:
64,192,144093,1,0,0:0:0:0:
320,192,144813,1,0,0:0:0:0:
192,192,145052,1,0,0:0:0:0:
320,192,145292,1,0,0:0:0:0:
64,192,145532,1,0,0:0:0:0:
448,192,145532,1,0,0:0:0:0:
64,192,145772,1,0,0:0:0:0:
192,192,145772,1,0,0:0:0:0:
320,192,145772,1,0,0:0:0:0:
448,192,145772,1,0,0:0:0:0:
448,192,146012,1,0,0:0:0:0:
448,192,146252,1,0,0:0:0:0:
448,192,146491,1,0,0:0:0:0:
448,192,146731,1,0,0:0:0:0:
448,192,146971,1,0,0:0:0:0:
64,192,147091,1,0,0:0:0:0:
448,192,147211,1,0,0:0:0:0:
64,192,147331,1,0,0:0:0:0:
448,192,147451,1,0,0:0:0:0:
64,192,147570,1,0,0:0:0:0:
448,192,147690,1,0,0:0:0:0:
320,192,147690,1,0,0:0:0:0:
320,192,147810,1,0,0:0:0:0:
448,192,147810,1,0,0:0:0:0:
320,192,148050,1,0,0:0:0:0:
448,192,148050,1,0,0:0:0:0:
320,192,148290,1,0,0:0:0:0:
448,192,148290,1,0,0:0:0:0:
448,192,148410,1,0,0:0:0:0:
320,192,148410,1,0,0:0:0:0:
64,192,148650,1,0,0:0:0:0:
192,192,148650,1,0,0:0:0:0:
448,192,148770,1,0,0:0:0:0:
320,192,148770,1,0,0:0:0:0:
448,192,148889,1,0,0:0:0:0:
64,192,149009,1,0,0:0:0:0:
448,192,149129,1,0,0:0:0:0:
448,192,149369,1,0,0:0:0:0:
64,192,149489,1,0,0:0:0:0:
448,192,149609,1,0,0:0:0:0:
320,192,150088,1,0,0:0:0:0:
192,192,150328,1,0,0:0:0:0:
320,192,150568,1,0,0:0:0:0:
320,192,150808,1,0,0:0:0:0:
192,192,150928,1,0,0:0:0:0:
320,192,151048,1,0,0:0:0:0:
192,192,151168,1,0,0:0:0:0:
320,192,151288,1,0,0:0:0:0:
192,192,151407,1,0,0:0:0:0:
448,192,151527,1,0,0:0:0:0:
64,192,151767,1,0,0:0:0:0:
448,192,152007,1,0,0:0:0:0:
64,192,152007,1,0,0:0:0:0:
448,192,152606,1,0,0:0:0:0:
64,192,152606,1,0,0:0:0:0:
64,192,152966,1,0,0:0:0:0:
320,192,153206,1,0,0:0:0:0:
192,192,153446,1,0,0:0:0:0:
320,192,153446,1,0,0:0:0:0:
448,192,153925,1,0,0:0:0:0:
64,192,154165,1,0,0:0:0:0:
192,192,154405,1,0,0:0:0:0:
320,192,154405,1,0,0:0:0:0:
448,192,154765,1,0,0:0:0:0:
64,192,155124,1,0,0:0:0:0:
448,192,155124,1,0,0:0:0:0:
320,192,155244,1,0,0:0:0:0:
64,192,155364,1,0,0:0:0:0:
320,192,155424,1,0,0:0:0:0:
192,192,155424,1,0,0:0:0:0:
64,192,155424,1,0,0:0:0:0:
448,192,155484,1,0,0:0:0:0:
64,192,155544,1,0,0:0:0:0:
320,192,155604,1,0,0:0:0:0:
448,192,155664,1,0,0:0:0:0:
320,192,155724,1,0,0:0:0:0:
64,192,155784,1,0,0:0:0:0:
320,192,155844,1,0,0:0:0:0:
448,192,155904,1,0,0:0:0:0:
192,192,155964,1,0,0:0:0:0:
448,192,156024,1,0,0:0:0:0:
64,192,156084,1,0,0:0:0:0:
320,192,156204,1,0,0:0:0:0:
192,192,156323,1,0,0:0:0:0:
64,192,156323,1,0,0:0:0:0:
448,192,156683,1,0,0:0:0:0:
64,192,156803,1,0,0:0:0:0:
448,192,157043,1,0,0:0:0:0:
64,192,157043,1,0,0:0:0:0:
320,192,157283,1,0,0:0:0:0:
320,192,157762,1,0,0:0:0:0:
192,192,157882,1,0,0:0:0:0:
320,192,158002,1,0,0:0:0:0:
192,192,158002,1,0,0:0:0:0:
448,192,158242,1,0,0:0:0:0:
64,192,159201,1,0,0:0:0:0:
192,192,159201,1,0,0:0:0:0:
320,192,159201,1,0,0:0:0:0:
448,192,159201,1,0,0:0:0:0:
64,192,159441,1,0,0:0:0:0:
192,192,159441,1,0,0:0:0:0:
320,192,159441,1,0,0:0:0:0:
448,192,159441,1,0,0:0:0:0:
64,192,160160,128,0,163160:0:0:0:0:
192,192,160160,128,0,163160:0:0:0:0:
320,192,160160,128,0,163160:0:0:0:0:
448,192,160160,128,0,163160:0:0:0:0:
320,192,163493,128,0,163826:0:0:0:0:
192,192,163826,1,0,0:0:0:0:
320,192,164160,1,0,0:0:0:0:
192,192,164493,1,0,0:0:0:0:
448,192,164826,1,0,0:0:0:0:
64,192,165160,1,0,0:0:0:0:
320,192,165493,1,0,0:0:0:0:
192,192,165826,1,0,0:0:0:0:
448,192,166160,1,0,0:0:0:0:
64,192,166493,1,0,0:0:0:0:
320,192,166826,1,0,0:0:0:0:
192,192,167160,1,0,0:0:0:0:
320,192,167493,1,0,0:0:0:0:
448,192,167493,1,0,0:0:0:0:
64,192,167826,1,0,0:0:0:0:
192,192,167826,1,0,0:0:0:0:
448,192,168160,1,0,0:0:0:0:
64,192,168493,1,0,0:0:0:0:
320,192,168826,1,0,0:0:0:0:
192,192,169160,1,0,0:0:0:0:
448,192,169493,1,0,0:0:0:0:
64,192,169826,1,0,0:0:0:0:
320,192,170160,1,0,0:0:0:0:
192,192,170493,1,0,0:0:0:0:
64,192,170826,1,0,0:0:0:0:
192,192,170826,1,0,0:0:0:0:
320,192,170826,1,0,0:0:0:0:
448,192,170826,1,0,0:0:0:0:
320,192,171160,1,0,0:0:0:0:
192,192,171493,1,0,0:0:0:0:
320,192,171826,1,0,0:0:0:0:
64,192,172160,1,0,0:0:0:0:
192,192,172160,1,0,0:0:0:0:
320,192,172160,1,0,0:0:0:0:
448,192,172160,1,0,0:0:0:0:
320,192,172493,1,0,0:0:0:0:
192,192,172493,1,0,0:0:0:0:
192,192,172826,1,0,0:0:0:0:
64,192,172826,1,0,0:0:0:0:
320,192,172826,1,0,0:0:0:0:
448,192,172826,1,0,0:0:0:0:
320,192,173160,1,0,0:0:0:0:
192,192,173160,1,0,0:0:0:0:
64,192,173493,1,0,0:0:0:0:
192,192,173493,1,0,0:0:0:0:
320,192,173493,1,0,0:0:0:0:
448,192,173493,1,0,0:0:0:0:
64,192,173826,1,0,0:0:0:0:
448,192,174160,1,0,0:0:0:0:
64,192,174493,1,0,0:0:0:0:
320,192,174826,1,0,0:0:0:0:
192,192,175160,1,0,0:0:0:0:
448,192,175493,1,0,0:0:0:0:
64,192,175826,1,0,0:0:0:0:
320,192,176160,1,0,0:0:0:0:
448,192,176160,1,0,0:0:0:0:
64,192,176493,1,0,0:0:0:0:
192,192,176493,1,0,0:0:0:0:
320,192,176493,128,0,176826:0:0:0:0:
448,192,176493,128,0,176826:0:0:0:0:
64,192,176826,1,0,0:0:0:0:
192,192,176826,1,0,0:0:0:0:
320,192,177160,1,0,0:0:0:0:
64,192,177493,1,0,0:0:0:0:
192,192,177493,1,0,0:0:0:0:
320,192,177826,1,0,0:0:0:0:
64,192,178160,1,0,0:0:0:0:
192,192,178160,1,0,0:0:0:0:
320,192,178160,1,0,0:0:0:0:
448,192,178160,1,0,0:0:0:0:
320,192,178493,1,0,0:0:0:0:
320,192,178826,1,0,0:0:0:0:
448,192,178826,1,0,0:0:0:0:
192,192,179160,1,0,0:0:0:0:
320,192,179493,1,0,0:0:0:0:
192,192,179826,1,0,0:0:0:0:
320,192,180160,1,0,0:0:0:0:
448,192,180160,1,0,0:0:0:0:
64,192,180493,1,0,0:0:0:0:
192,192,180493,1,0,0:0:0:0:
320,192,180826,1,0,0:0:0:0:
192,192,181160,1,0,0:0:0:0:
448,192,181493,1,0,0:0:0:0:
64,192,181826,1,0,0:0:0:0:
320,192,182160,1,0,0:0:0:0:
192,192,182493,1,0,0:0:0:0:
64,192,182826,1,0,0:0:0:0:
192,192,182826,1,0,0:0:0:0:
320,192,182826,1,0,0:0:0:0:
448,192,182826,1,0,0:0:0:0:
192,192,183160,1,0,0:0:0:0:
320,192,183493,1,0,0:0:0:0:
64,192,183493,1,0,0:0:0:0:
192,192,183493,1,0,0:0:0:0:
448,192,183493,1,0,0:0:0:0:
320,192,183826,1,0,0:0:0:0:
192,192,183826,1,0,0:0:0:0:
448,192,184160,128,0,186826:0:0:0:0:
64,192,184160,128,0,186826:0:0:0:0:
320,192,185826,1,0,0:0:0:0:
192,192,186160,1,0,0:0:0:0:
320,192,186493,1,0,0:0:0:0:
192,192,186826,128,0,188160:0:0:0:0:
320,192,186826,128,0,188160:0:0:0:0:
64,192,187160,1,0,0:0:0:0:
448,192,187493,1,0,0:0:0:0:
64,192,187826,1,0,0:0:0:0:
448,192,188160,128,0,189493:0:0:0:0:
64,192,188160,128,0,189493:0:0:0:0:
192,192,188493,1,0,0:0:0:0:
320,192,188493,1,0,0:0:0:0:
320,192,188826,1,0,0:0:0:0:
192,192,189160,1,0,0:0:0:0:
192,192,189493,1,0,0:0:0:0:
320,192,189493,1,0,0:0:0:0:
192,192,191160,1,0,0:0:0:0:
320,192,191160,1,0,0:0:0:0:
448,192,191493,1,0,0:0:0:0:
64,192,191493,1,0,0:0:0:0:
192,192,191826,1,0,0:0:0:0:
448,192,192160,1,0,0:0:0:0:
64,192,192826,1,0,0:0:0:0:
320,192,193160,1,0,0:0:0:0:
64,192,193826,1,0,0:0:0:0:
192,192,193826,1,0,0:0:0:0:
320,192,193826,1,0,0:0:0:0:
448,192,193826,1,0,0:0:0:0:
448,192,194826,1,0,0:0:0:0:
64,192,195493,1,0,0:0:0:0:
448,192,195826,1,0,0:0:0:0:
192,192,196493,1,0,0:0:0:0:
320,192,196826,1,0,0:0:0:0:
192,192,197160,1,0,0:0:0:0:
320,192,197493,1,0,0:0:0:0:
320,192,197826,1,0,0:0:0:0:
320,192,198160,1,0,0:0:0:0:
320,192,198493,1,0,0:0:0:0:
64,192,198826,1,0,0:0:0:0:
448,192,199160,1,0,0:0:0:0:
64,192,199493,1,0,0:0:0:0:
448,192,199826,1,0,0:0:0:0:
64,192,200160,128,0,203493:0:0:0:0:
192,192,200826,128,0,202826:0:0:0:0:
320,192,201493,128,0,202826:0:0:0:0:
448,192,202160,128,0,203493:0:0:0:0:
320,192,204160,128,0,204493:0:0:0:0:
192,192,204826,1,0,0:0:0:0:
320,192,205493,1,0,0:0:0:0:
320,192,205826,1,0,0:0:0:0:
192,192,205826,128,0,206160:0:0:0:0:
320,192,206160,1,0,0:0:0:0:
320,192,206493,1,0,0:0:0:0:
320,192,206826,1,0,0:0:0:0:
320,192,207160,1,0,0:0:0:0:
320,192,207493,1,0,0:0:0:0:
320,192,207826,1,0,0:0:0:0:
192,192,208160,1,0,0:0:0:0:
320,192,208160,1,0,0:0:0:0:
320,192,208493,1,0,0:0:0:0:
320,192,208826,1,0,0:0:0:0:
320,192,209160,1,0,0:0:0:0:
320,192,209493,1,0,0:0:0:0:
320,192,209826,1,0,0:0:0:0:
320,192,210160,1,0,0:0:0:0:
320,192,210493,1,0,0:0:0:0:
192,192,210826,1,0,0:0:0:0:
192,192,211160,1,0,0:0:0:0:
192,192,211493,1,0,0:0:0:0:
192,192,211826,1,0,0:0:0:0:
192,192,212160,1,0,0:0:0:0:
192,192,212493,1,0,0:0:0:0:
192,192,212826,1,0,0:0:0:0:
192,192,213160,1,0,0:0:0:0:
64,192,213493,1,0,0:0:0:0:
64,192,213826,1,0,0:0:0:0:
64,192,214160,1,0,0:0:0:0:
64,192,214493,1,0,0:0:0:0:
64,192,214826,1,0,0:0:0:0:
64,192,215160,1,0,0:0:0:0:
64,192,215493,1,0,0:0:0:0:
64,192,215826,1,0,0:0:0:0:
448,192,216160,1,0,0:0:0:0:
448,192,216493,1,0,0:0:0:0:
448,192,216826,1,0,0:0:0:0:
448,192,217160,1,0,0:0:0:0:
448,192,217493,1,0,0:0:0:0:
448,192,217826,1,0,0:0:0:0:
448,192,218160,1,0,0:0:0:0:
448,192,218493,1,0,0:0:0:0:
192,192,218826,1,0,0:0:0:0:
320,192,219160,1,0,0:0:0:0:
192,192,219493,1,0,0:0:0:0:
448,192,219826,1,0,0:0:0:0:
448,192,220160,1,0,0:0:0:0:
320,192,220160,1,0,0:0:0:0:
64,192,220493,1,0,0:0:0:0:
448,192,220826,1,0,0:0:0:0:
64,192,221160,1,0,0:0:0:0:
192,192,221493,1,0,0:0:0:0:
320,192,221826,1,0,0:0:0:0:
448,192,222160,1,0,0:0:0:0:
64,192,222493,1,0,0:0:0:0:
192,192,222826,1,0,0:0:0:0:
320,192,223160,1,0,0:0:0:0:
448,192,223493,1,0,0:0:0:0:
448,192,223826,1,0,0:0:0:0:
320,192,224160,1,0,0:0:0:0:
192,192,224493,1,0,0:0:0:0:
64,192,225160,1,0,0:0:0:0:
320,192,225493,128,0,225826:0:0:0:0:
64,192,226493,1,0,0:0:0:0:
192,192,226493,1,0,0:0:0:0:
192,192,229868,1,0,0:0:0:0:
192,192,230219,1,0,0:0:0:0:
64,192,230746,128,0,231157:0:0:0:0:
192,192,231157,1,0,0:0:0:0:
64,192,231977,1,0,0:0:0:0:
320,192,232094,1,0,0:0:0:0:
448,192,232211,1,0,0:0:0:0:
64,192,232739,128,0,233090:0:0:0:0:
192,192,233090,1,0,0:0:0:0:
64,192,233676,1,0,0:0:0:0:
320,192,234028,1,0,0:0:0:0:
320,192,234614,1,0,0:0:0:0:
64,192,234994,1,0,0:0:0:0:
64,192,235815,1,0,0:0:0:0:
448,192,235961,1,0,0:0:0:0:
448,192,236078,1,0,0:0:0:0:
448,192,237500,128,0,239420:0:0:0:0:
320,192,237500,128,0,239420:0:0:0:0:
192,192,237500,128,0,239420:0:0:0:0:
64,192,237500,128,0,239420:0:0:0:0:
192,192,239900,1,0,0:0:0:0:
320,192,239900,1,0,0:0:0:0:
320,192,240140,1,0,0:0:0:0:
320,192,240380,1,0,0:0:0:0:
448,192,240620,1,0,0:0:0:0:
192,192,240860,1,0,0:0:0:0:
448,192,241340,1,0,0:0:0:0:
320,192,241340,1,0,0:0:0:0:
448,192,241700,1,0,0:0:0:0:
320,192,241700,1,0,0:0:0:0:
64,192,242300,1,0,0:0:0:0:
192,192,242300,1,0,0:0:0:0:
320,192,242300,1,0,0:0:0:0:
448,192,243260,1,0,0:0:0:0:
448,192,243500,1,0,0:0:0:0:
64,192,243500,1,0,0:0:0:0:
320,192,243620,1,0,0:0:0:0:
448,192,243740,1,0,0:0:0:0:
64,192,243740,1,0,0:0:0:0:
320,192,244220,1,0,0:0:0:0:
64,192,244220,1,0,0:0:0:0:
320,192,244460,1,0,0:0:0:0:
448,192,244700,1,0,0:0:0:0:
192,192,244700,1,0,0:0:0:0:
192,192,245180,1,0,0:0:0:0:
448,192,245180,1,0,0:0:0:0:
192,192,245540,1,0,0:0:0:0:
448,192,245540,1,0,0:0:0:0:
448,192,246140,1,0,0:0:0:0:
64,192,246140,1,0,0:0:0:0:
320,192,246500,1,0,0:0:0:0:
192,192,246500,1,0,0:0:0:0:
320,192,247100,1,0,0:0:0:0:
320,192,247340,1,0,0:0:0:0:
192,192,247340,1,0,0:0:0:0:
448,192,247460,1,0,0:0:0:0:
192,192,247580,1,0,0:0:0:0:
320,192,247580,1,0,0:0:0:0:
448,192,248060,1,0,0:0:0:0:
320,192,248060,1,0,0:0:0:0:
192,192,248420,1,0,0:0:0:0:
64,192,248420,1,0,0:0:0:0:
448,192,249020,1,0,0:0:0:0:
64,192,249020,1,0,0:0:0:0:
192,192,249020,1,0,0:0:0:0:
448,192,249260,1,0,0:0:0:0:
320,192,249380,1,0,0:0:0:0:
64,192,249380,1,0,0:0:0:0:
448,192,249500,1,0,0:0:0:0:
64,192,249740,1,0,0:0:0:0:
320,192,249860,1,0,0:0:0:0:
448,192,249980,1,0,0:0:0:0:
64,192,249980,1,0,0:0:0:0:
448,192,250460,1,0,0:0:0:0:
192,192,250460,1,0,0:0:0:0:
192,192,250700,1,0,0:0:0:0:
448,192,250700,1,0,0:0:0:0:
64,192,250940,1,0,0:0:0:0:
192,192,250940,128,0,251180:0:0:0:0:
448,192,251180,1,0,0:0:0:0:
64,192,251180,128,0,251420:0:0:0:0:
192,192,251420,128,0,251660:0:0:0:0:
64,192,251900,128,0,252380:0:0:0:0:
192,192,252380,1,0,0:0:0:0:
320,192,252500,1,0,0:0:0:0:
192,192,252620,1,0,0:0:0:0:
448,192,252740,1,0,0:0:0:0:
448,192,252860,1,0,0:0:0:0:
64,192,252860,1,0,0:0:0:0:
320,192,253820,1,0,0:0:0:0:
192,192,253820,1,0,0:0:0:0:
448,192,254780,1,0,0:0:0:0:
192,192,255740,1,0,0:0:0:0:
320,192,255740,1,0,0:0:0:0:
448,192,256700,1,0,0:0:0:0:
192,192,256700,1,0,0:0:0:0:
64,192,257660,1,0,0:0:0:0:
192,192,257660,1,0,0:0:0:0:
448,192,258620,1,0,0:0:0:0:
64,192,258620,1,0,0:0:0:0:
64,192,259580,1,0,0:0:0:0:
192,192,259580,1,0,0:0:0:0:
64,192,260540,1,0,0:0:0:0:
448,192,260540,1,0,0:0:0:0:
64,192,261020,1,0,0:0:0:0:
320,192,261020,1,0,0:0:0:0:
448,192,262700,1,0,0:0:0:0:
64,192,262700,1,0,0:0:0:0:
320,192,262760,1,0,0:0:0:0:
192,192,262820,1,0,0:0:0:0:
64,192,262880,1,0,0:0:0:0:
448,192,262940,1,0,0:0:0:0:
192,192,262940,1,0,0:0:0:0:
448,192,263540,1,0,0:0:0:0:
64,192,263540,1,0,0:0:0:0:
320,192,264140,1,0,0:0:0:0:
192,192,264740,1,0,0:0:0:0:
64,192,265340,1,0,0:0:0:0:
192,192,265340,1,0,0:0:0:0:
320,192,265340,1,0,0:0:0:0:
448,192,265340,1,0,0:0:0:0:
448,192,265820,1,0,0:0:0:0:
192,192,266540,1,0,0:0:0:0:
448,192,267140,1,0,0:0:0:0:
64,192,267740,128,0,268100:0:0:0:0:
192,192,268100,1,0,0:0:0:0:
320,192,268100,1,0,0:0:0:0:
192,192,268220,1,0,0:0:0:0:
64,192,268220,1,0,0:0:0:0:
320,192,268340,1,0,0:0:0:0:
448,192,268340,1,0,0:0:0:0:
448,192,268940,1,0,0:0:0:0:
64,192,269300,1,0,0:0:0:0:
448,192,270140,128,0,271220:0:0:0:0:
320,192,270500,1,0,0:0:0:0:
320,192,271340,1,0,0:0:0:0:
192,192,271820,1,0,0:0:0:0:
64,192,271820,1,0,0:0:0:0:
448,192,272540,1,0,0:0:0:0:
320,192,272540,1,0,0:0:0:0:
64,192,272900,1,0,0:0:0:0:
192,192,272900,1,0,0:0:0:0:
448,192,273020,1,0,0:0:0:0:
320,192,273020,1,0,0:0:0:0:
320,192,273140,1,0,0:0:0:0:
192,192,273140,1,0,0:0:0:0:
448,192,273740,1,0,0:0:0:0:
448,192,274220,1,0,0:0:0:0:
448,192,274700,1,0,0:0:0:0:
64,192,274820,1,0,0:0:0:0:
64,192,274940,1,0,0:0:0:0:
192,192,274940,1,0,0:0:0:0:
448,192,274940,1,0,0:0:0:0:
320,192,274940,1,0,0:0:0:0:
64,192,275420,1,0,0:0:0:0:
192,192,275420,1,0,0:0:0:0:
320,192,275420,1,0,0:0:0:0:
448,192,275420,1,0,0:0:0:0:
448,192,277700,1,0,0:0:0:0:
