osu file format v5

[General]
AudioFilename: ASIAN KUNG-FU GENERATION - 11 - World World.mp3
AudioLeadIn: 1004
PreviewTime: -1
Countdown: 1
SampleSet: Soft

[Metadata]
Title:World World
Artist:ASIAN KUNG-FU GENERATION
Creator:rockus
Version:Normal

[Difficulty]
HPDrainRate:5
CircleSize:5
OverallDifficulty:5
SliderMultiplier:1.4
SliderTickRate:1

[Events]
//Background and Video events
0,0,"cover.jpg"
//Break Periods
//Storyboard Layer 0 (Background)
//Storyboard Layer 1 (Failing)
//Storyboard Layer 2 (Passing)
//Storyboard Layer 3 (Foreground)
//Storyboard Sound Samples
//Background Colour Transformations
3,100,162,161,254

[TimingPoints]
4324,521.739130434783,4,2,0,100

[HitObjects]
288,32,4324,1,0
384,128,4845,1,2
384,224,5367,5,0
288,320,5888,1,2
224,320,6410,5,0
128,224,6931,1,2
128,128,7454,5,0
224,32,7975,1,2
224,32,8497,5,0
128,128,9018,1,2
128,224,9540,5,0
224,320,10061,1,2
288,320,10583,5,0
384,224,11106,1,2
384,128,11627,5,0
288,32,12148,1,4
192,128,12671,6,0,B|235:72|352:128,1,140
256,192,13715,1,2
320,256,14758,6,0,B|277:312|160:256,1,140
256,192,15802,1,2
256,192,16324,1,2
128,160,16845,6,0,B|244:48|416:160,1,280
384,192,18410,1,0
384,192,18671,1,0
256,192,19454,1,0
256,192,19715,1,2
69,120,21019,2,0,B|110:62|192:64,1,140
320,64,22063,2,0,B|402:62|448:128,1,140
442,263,23106,2,0,B|402:322|320:320,1,140
192,320,24150,2,0,B|110:322|64:256,1,140
128,128,25193,6,0,B|258:34|416:128,1,280
384,192,26758,1,0
384,192,27019,1,0
320,192,27802,1,0
320,192,28063,1,0
256,192,28324,1,2
256,192,28845,1,2
192,128,29367,6,0,B|448:288,1,280
512,320,30932,1,0
448,288,31454,1,0
384,256,31976,1,2
384,256,32237,1,2
320,128,33541,6,0,B|64:288,1,280
64,288,35628,1,2
128,256,36150,1,2
192,224,36671,1,2
256,192,37193,1,2
320,256,37715,6,0,B|64:96,1,280
82,107,39280,1,2
192,256,39802,6,0,B|448:96,1,280
430,107,41367,1,2
64,192,41889,6,2,B|261:32|448:192,1,420
256,192,43976,1,4
256,192,44497,1,4
256,192,45019,1,4
192,128,46063,6,0,B|64:32,1,140
64,128,47106,2,0,B|64:288,1,140
80,340,48150,2,0,B|192:256,1,140
256,192,49193,1,2
256,192,49715,1,2
288,32,50237,5,0
384,128,50758,1,2
384,224,51280,5,0
288,320,51801,1,2
224,320,52323,5,0
128,224,52844,1,2
128,128,53367,5,0
224,32,53888,1,2
320,128,54410,6,0,B|448:32,1,140
448,128,55453,2,0,B|448:288,1,140
432,340,56497,2,0,B|320:256,1,140
256,192,57540,1,2
256,192,58062,1,2
224,32,58584,5,0
128,128,59105,1,2
128,224,59627,5,0
224,320,60148,1,2
288,320,60670,5,0
384,224,61324,1,2
256,192,62237,12,2,66932
