osu file format v5

[General]
AudioFilename: Asian Kung-fu Generation - Re Re.mp3
AudioLeadIn: 0
PreviewTime: -1
Countdown: 1
SampleSet: Normal

[Metadata]
Title:Re:Re:
Artist:ASIAN KUNG-FU GENERATION
Creator:falzar999
Version:Hard

[Difficulty]
HPDrainRate:4
CircleSize:4
OverallDifficulty:3
SliderMultiplier:1.4
SliderTickRate:1

[Events]
//Background and Video events
1,24,"Asian Kung-fu Generation - Re Re.avi"
//Break Periods
//Storyboard Layer 0 (Background)
//Storyboard Layer 1 (Failing)
//Storyboard Layer 2 (Passing)
//Storyboard Layer 3 (Foreground)
//Storyboard Sound Samples
//Background Colour Transformations
3,100,163,162,255

[TimingPoints]
430,392.154882616264,4,1,1,100

[HitObjects]
101,94,6704,1,0
101,94,6802,1,0
101,94,7096,1,0
101,94,7194,1,0
101,94,7488,1,0
101,94,7586,1,0
101,94,7880,1,0
101,94,7978,1,0
101,94,8322,1,0
101,94,8420,1,0
101,94,8714,1,0
101,94,8812,1,0
101,94,9155,1,0
101,94,9253,1,0
101,94,9596,1,0
101,94,9694,1,0
101,94,10037,1,0
101,94,10135,1,0
101,94,10478,1,0
101,94,10576,1,0
101,94,10919,1,0
101,94,11017,1,0
101,94,11360,1,0
101,94,11458,1,0
256,192,11753,12,0,13027
89,298,13322,1,0
154,237,13763,1,0
199,211,14155,1,0
199,211,14547,1,0
199,211,14939,1,0
199,211,15331,1,0
199,211,15724,1,0
199,211,16116,1,0
199,211,16508,1,0
199,211,16900,1,0
199,211,17243,1,0
199,211,17586,1,0
76,117,19253,6,0,B|181:197|256:118|353:134|451:276,1,420
416,122,20871,2,0,B|329:172|289:240|8:256,1,420
74,119,22390,2,0,B|171:127|211:196|258:254|303:267|436:267,1,385
405,205,23910,2,0,B|258:142,2,157.5
391,264,25135,2,0,B|300:379,2,140
430,249,26606,2,0,B|398:309|288:316|226:249|232:98|234:92,1,332.5
241,79,28371,1,0
232,134,28665,2,0,B|232:284,7,140
128,128,31802,5,0
128,192,32194,1,0
128,256,32586,1,0
192,256,32929,1,0
192,192,33371,1,0
192,128,33714,1,0
256,128,34204,1,0
256,192,34547,1,0
256,256,34988,1,0
320,256,35331,1,0
320,192,35772,1,0
384,192,36116,1,0
384,192,36312,1,0
384,192,36508,1,4
384,192,36655,1,4
384,192,36851,1,4
384,192,37292,1,2
72,101,38076,5,0
128,128,38518,1,0
192,160,38910,1,0
192,224,39302,1,0
192,288,39694,1,0
256,288,39988,1,0
256,224,40429,1,0
256,160,40821,1,0
320,160,41214,1,0
320,224,41606,1,0
288,288,41998,1,0
192,288,42390,1,0
192,288,42586,1,0
192,288,42782,1,0
192,288,42978,1,4
192,288,43174,1,4
192,288,43370,1,4
192,288,43616,1,2
70,80,44400,5,0
100,132,44743,1,0
129,81,45135,1,0
162,134,45478,1,0
192,80,45919,1,0
223,135,46312,1,0
254,86,46704,1,0
283,140,47047,1,0
316,91,47488,1,0
341,150,47880,1,0
339,204,48272,1,0
248,206,48616,1,0
248,206,48812,1,0
248,206,49057,1,4
248,206,49253,1,4
248,206,49449,1,4
248,206,49841,1,2
117,76,50625,5,0
117,135,51017,1,0
173,136,51410,1,0
172,197,51753,1,0
233,202,52194,1,0
277,161,52586,1,0
320,117,52929,1,0
353,169,53321,1,0
371,225,53714,1,0
324,253,54106,1,0
287,299,54498,1,0
192,224,54890,1,0
192,224,55086,1,0
192,224,55331,1,0
192,288,55674,1,0
192,288,55919,1,0
256,288,56263,1,0
288,288,56508,1,0
352,256,56704,1,0
352,256,56851,1,0
256,224,57292,5,0
256,160,57733,1,0
256,96,58125,1,0
320,96,58468,1,0
320,160,58910,1,0
384,160,59302,1,0
384,224,59743,1,0
320,224,60086,1,0
288,160,60429,1,0
256,224,60821,1,0
224,160,61214,1,0
192,224,61655,1,0
160,160,61998,1,0
128,224,62390,1,0
128,288,62782,1,0
192,256,63174,1,0
224,288,63566,1,0
224,288,63959,1,0
224,288,64351,1,0
224,224,64743,1,0
224,224,65135,1,0
224,224,65527,1,0
224,224,65723,1,0
224,224,65919,1,0
224,224,66164,1,0
224,224,66312,1,0
224,224,66704,1,0
274,242,67096,1,0
274,242,67488,1,0
256,192,67684,12,0,68615
96,128,69449,2,0,B|224:128|224:224|224:256|320:256|480:256,1,420
480,160,70968,2,0,B|320:160|288:256|224:288|64:256,1,420
64,128,72586,2,0,B|224:128|224:224|480:224,1,420
512,192,74155,2,0,B|384:224|96:288,1,420
96,128,75723,2,0,B|192:96|224:224|352:192,1,262.5
352,160,76949,2,0,B|256:64,2,122.5
352,128,78468,1,0
416,192,78860,2,0,B|288:256|224:192|192:256|128:256|32:128,1,420
192,96,80429,2,0,B|192:192,3,87.5
224,96,82047,1,0
224,160,82439,1,0
224,224,82782,1,0
224,224,83174,1,0
224,224,83566,1,0
224,224,83958,1,0
224,224,84351,1,0
224,224,84743,1,0
256,224,85086,1,0
256,160,85527,1,0
320,160,85919,1,0
384,160,86311,1,0
384,160,86507,1,0
384,160,86704,1,0
384,160,86900,1,4
384,160,87096,1,4
384,160,87243,1,4
384,160,87488,1,2
96,96,88272,5,0
160,96,88664,1,0
160,160,89106,1,0
224,160,89498,1,0
224,224,89890,1,0
288,224,90331,1,0
288,288,90674,1,0
288,288,91017,1,0
224,288,91409,1,0
160,288,91802,1,0
160,224,92145,1,0
256,224,92586,1,0
256,224,92782,1,0
256,224,92978,1,4
256,224,93174,1,4
256,224,93370,1,4
256,224,93713,1,2
416,96,94547,5,0
384,128,94939,1,0
352,160,95331,1,0
320,192,95723,1,0
288,224,96066,1,0
256,192,96458,1,0
224,160,96900,1,0
192,128,97292,1,0
160,96,97635,1,0
160,128,98125,1,0
160,160,98468,1,0
224,192,98909,1,0
224,192,99056,1,0
224,192,99253,1,4
224,192,99449,1,4
224,192,99596,1,4
224,192,100037,1,2
352,192,100772,5,0
320,224,101164,1,0
288,192,101605,1,0
256,224,101900,1,0
224,192,102292,1,0
192,224,102782,1,0
160,192,103174,1,0
128,224,103517,1,0
96,192,103909,1,0
128,160,104351,1,0
160,192,104743,1,0
256,160,105135,1,0
256,160,105331,1,0
256,160,105527,1,0
320,160,105870,1,0
320,224,106115,1,0
256,224,106507,1,0
192,224,106703,1,0
192,224,106900,1,0
128,224,107096,5,0
128,160,107488,1,0
192,160,107929,1,0
256,160,108272,1,0
256,160,108419,1,0
384,160,108860,1,0
384,160,109056,1,0
320,192,109400,1,0
288,192,109841,1,0
256,192,110233,1,0
224,192,110625,1,0
192,192,110968,1,0
192,128,111409,1,0
256,128,111752,1,0
256,192,112194,1,0
320,192,112537,1,0
352,128,112929,1,0
352,128,113125,1,0
352,128,113321,1,0
352,128,113713,1,0
352,128,114154,1,0
352,128,114547,1,0
352,128,114939,1,0
352,128,115282,1,0
352,128,115478,1,0
352,128,115870,1,0
352,128,116066,1,0
352,128,116262,1,0
288,128,116507,1,0
288,192,116900,1,0
224,192,117292,1,0
224,256,117684,1,0
288,224,118027,1,0
352,160,118468,1,0
384,224,118811,1,0
441,99,119645,6,0,B|402:158|274:204|146:117|62:258,1,420
46,119,121213,2,0,B|140:106|242:244|446:251,1,420
455,191,122782,2,0,B|286:193|187:296|37:259,1,420
35,136,124301,2,0,B|158:116|226:246|467:231,1,437.5
450,146,125919,2,0,B|310:207|200:334|54:218,1,420
65,185,127488,2,0,B|161:125|193:204|225:244|241:242|276:206|280:180|292:170|301:166|334:173|351:209|359:229|364:244|374:251|383:266|413:269|439:242|454:236,1,420
449,217,129056,2,0,B|423:191|406:174|378:214|361:239|341:186|321:176|276:226|270:233|239:185|229:176|211:216|202:227|192:236|175:229|164:204|152:183|137:195|137:210|136:217|126:224|113:226|89:203|87:126,1,420
102,126,130625,2,0,B|175:262|366:94|469:304,1,420
463,169,132194,2,0,B|334:224|214:383|52:303|47:182|165:103,1,560
207,84,134105,1,0
240,82,134546,1,0
285,81,134939,1,0
349,117,135331,2,0,B|351:241|227:248|116:279|56:356|25:265,1,420
52,94,136899,6,0,B|83:161|133:88|187:158|246:93|293:158|288:248|61:236,1,420
75,241,138468,2,0,B|78:297|126:315|186:317|247:289|267:250|304:219|363:221|403:274|469:262,1,420
456,272,140037,2,0,B|453:191|373:254|306:205|239:209|214:261|139:255|92:144|112:133,1,420
117,146,141605,2,0,B|287:153|266:147,3,140
449,80,143174,1,0
449,80,143370,1,0
449,80,143566,1,0
449,80,143762,1,0
449,80,143958,1,0
407,83,144792,5,0
330,114,145576,1,0
287,145,145968,1,0
327,191,146752,1,0
219,216,147488,1,0
268,221,147880,1,0
216,169,148615,1,0
259,194,149056,1,0
326,217,149791,1,0
306,272,150576,1,0
247,275,151017,1,0
207,237,151752,1,0
227,188,152144,1,0
301,231,152978,1,0
170,239,154154,1,0
233,196,154939,1,0
313,191,155282,1,0
261,114,157095,5,0
261,114,157340,1,0
261,114,157635,1,0
261,114,157831,1,0
261,114,158076,1,0
261,114,158321,1,0
261,114,158566,1,0
261,114,158860,1,0
261,114,159056,1,0
261,114,159350,1,0
261,114,159595,1,0
261,114,159840,1,0
261,114,160135,1,0
261,114,160380,1,0
261,114,160674,1,0
261,114,160968,1,0
261,114,161164,1,0
261,114,161507,1,0
261,114,161703,1,0
261,114,161948,1,0
261,114,162193,1,0
261,114,162438,1,0
261,114,162733,1,0
261,114,162978,1,0
261,114,163223,1,0
384,96,163664,5,0
384,96,164007,1,0
384,160,164350,1,0
320,160,165135,1,0
256,160,165478,1,0
192,160,165870,1,0
192,224,166605,1,0
256,224,167046,1,0
320,224,167438,1,0
384,224,167880,1,0
384,160,168076,1,0
384,160,168272,1,0
384,160,168468,1,4
384,160,168664,1,4
384,160,168860,1,4
384,160,169056,1,6
128,256,169889,5,0
192,256,170233,1,0
256,256,170674,1,0
320,256,171458,1,0
320,192,171801,1,0
256,192,172242,1,0
192,224,172978,1,0
192,288,173321,1,0
256,288,173762,1,0
320,288,174105,1,0
212,235,174350,1,0
212,235,174546,1,0
212,235,174693,1,0
212,235,174889,1,0
212,235,175135,1,0
212,235,175331,1,0
288,192,175821,1,0
352,160,176164,1,0
352,224,176458,1,0
352,288,176850,1,0
288,288,177291,1,0
224,288,177634,1,0
256,224,178468,5,0
285,166,178860,1,0
320,128,179301,1,0
354,175,180429,1,0
354,175,180625,1,0
354,175,180821,1,0
354,175,181409,1,0
354,175,181605,1,0
224,160,182046,1,0
192,224,182242,1,0
256,224,182438,1,0
256,192,182782,12,0,183958
256,192,184252,12,0,185134
256,192,185429,12,0,186311
256,192,186654,12,0,187880
59,101,188664,2,0,B|182:117|278:180|483:212,1,420
436,95,190232,2,0,B|58:306,1,420
59,263,191801,2,0,B|69:156|204:256|300:222|396:110|387:64,1,420
353,100,193370,2,0,B|323:194|233:133|169:220|97:226|41:152|274:294,1,420
291,288,194938,2,0,B|287:228|287:199|287:180|306:106|306:95|304:66|247:64|179:60|155:64|126:64|121:64|95:61|57:57,1,420
60,110,196507,2,0,B|49:179|42:214|47:238|51:261|69:279|139:292|183:293|240:292|285:264|289:243|299:195|296:186,1,420
300,203,198076,2,0,B|291:127|259:80|199:79|169:99|140:137|96:205|128:270|174:311|231:313|237:306,1,420
220,307,199644,2,0,B|313:288|343:258|384:199|388:124|366:87|339:57|246:35|227:22,1,420
274,48,201213,2,0,B|274:371|59:339,1,420
45,305,202781,2,0,B|73:146|336:214|426:241,1,420
439,244,204350,2,0,B|469:93|360:33|247:27|166:45|168:89,1,420
158,127,205919,2,0,B|181:267|295:316|423:222|419:94,1,420
356,90,207487,2,0,B|216:116|208:238|164:301|414:287|436:281,1,420
432,274,209056,2,0,B|276:40|277:38|245:50|229:73|207:115|150:204|181:171,1,420
74,255,210625,2,0,B|375:264|426:84,1,420
389,118,212193,5,0
389,118,212389,1,0
389,118,212585,1,0
389,118,212781,1,0
389,118,212978,1,0
389,118,213174,1,0
389,118,213370,1,0
256,192,213860,12,0,214938
256,192,215281,12,0,216507
256,192,216850,12,0,218075
256,192,218468,12,0,219644
256,192,220036,12,0,221262
256,192,221556,12,0,222781
256,192,223124,12,0,224301
256,192,224693,12,0,226311
