osu file format v5

[General]
AudioFilename: Asian Kung-fu Generation - Re Re.mp3
AudioLeadIn: 0
PreviewTime: -1
Countdown: 1
SampleSet: Normal
EditorBookmarks: 6361,37292,63861,87243,145282

[Metadata]
Title:Re:Re:
Artist:ASIAN KUNG-FU GENERATION
Creator:falzar999
Version:Easy

[Difficulty]
HPDrainRate:3
CircleSize:2
OverallDifficulty:0
SliderMultiplier:1.4
SliderTickRate:1

[Events]
//Background and Video events
1,24,"Asian Kung-fu Generation - Re Re.avi"
//Break Periods
//Storyboard Layer 0 (Background)
//Storyboard Layer 1 (Failing)
//Storyboard Layer 2 (Passing)
//Storyboard Layer 3 (Foreground)
//Storyboard Sound Samples
//Background Colour Transformations
3,100,163,162,255

[TimingPoints]
430,392.154882616264,4,1,1,100

[Colours]
Combo1 : 255,173,0
Combo2 : 0,248,37
Combo3 : 51,93,255
Combo4 : 248,40,0

[HitObjects]
64,96,6704,1,0
160,96,8273,1,0
288,96,9841,1,0
448,96,11361,1,0
448,192,12978,1,0
288,192,14596,1,0
224,192,16165,1,0
224,256,17635,1,0
288,256,18469,1,0
288,192,19253,1,0
384,192,20429,1,0
384,256,20822,1,0
448,256,21998,1,0
448,192,22439,1,0
384,192,23567,1,0
384,256,23959,1,0
320,256,25184,5,0
320,192,25527,1,0
224,192,26753,1,0
256,224,27096,1,0
320,192,28272,1,0
320,256,28616,1,0
384,192,29890,1,0
384,256,30233,1,0
448,192,30625,1,0
448,256,30969,1,0
96,64,31851,5,0
96,128,32586,1,0
160,128,33420,1,0
160,64,34204,1,0
224,64,34988,1,0
224,128,35723,1,0
288,128,36557,1,0
288,128,37292,1,0
384,128,38076,1,0
384,64,38861,1,0
448,64,39694,1,0
448,128,40478,1,0
448,192,41214,1,0
448,256,41998,1,0
448,320,42782,1,0
384,320,43125,1,0
384,256,43567,1,0
320,224,44302,5,0
320,288,45135,1,0
256,288,45919,1,0
192,288,46704,1,0
192,224,47439,1,0
192,160,48321,1,0
192,96,49057,1,0
256,96,49498,1,0
320,96,49841,1,0
256,187,50625,6,0,B|255:345,1,140
327,326,51410,2,0,B|328:172,1,140
393,192,52194,2,0,B|391:338,1,140
455,335,52978,2,0,B|458:184,3,140
256,192,54547,12,0,56900
122,117,57929,2,0,B|121:199,3,70
187,114,58861,2,0,B|475:115,1,280
454,218,60037,2,0,B|449:299|441:320|421:339|395:352|364:354|347:354|308:344|268:324|254:304|230:266|225:249|210:172,1,420
22,65,61606,2,0,B|289:185,1,280
266,195,62782,2,0,B|333:141,2,70
256,192,63566,12,0,64792
146,159,65478,2,0,B|147:329,1,157.5
222,316,66312,2,0,B|221:28,1,280
276,35,67488,2,0,B|278:325,2,280
58,317,69449,2,0,B|419:66,1,420
458,177,71017,2,0,B|349:274|241:81,2,280
239,351,72978,2,0,B|131:193|276:175|373:272|179:262|184:172|232:146|323:166|368:247|251:267|191:102|337:82|419:169|326:208|272:60|338:44|418:44,1,420
70,284,74547,2,0,B|104:214|117:202|124:190|129:184|136:179|152:164|155:164|164:177|164:224|172:249|184:275|194:277|211:254|216:240|220:224|229:214|229:214|231:209|240:199,2,280
114,169,76508,5,0
117,232,76900,2,0,B|242:145,3,140
192,176,78468,1,0
219,246,78860,2,0,B|334:157,3,140
256,192,80478,12,0,81998
160,64,83272,1,4
224,64,83958,1,2
288,64,84743,1,4
352,64,85527,1,2
352,128,86311,1,4
288,128,87145,1,2
224,128,87929,1,4
160,128,88664,1,2
160,192,89498,1,4
224,192,90282,1,2
288,192,91017,5,4
352,192,91802,1,2
352,256,92586,1,4
288,256,93419,1,2
224,256,94155,1,4
160,256,94939,1,2
160,320,95723,1,4
224,320,96507,1,2
288,320,97292,1,4
352,320,98076,1,2
416,320,98860,5,4
416,256,99596,1,2
352,256,100478,1,4
288,256,101213,1,2
224,256,101998,1,4
224,192,102831,1,2
288,192,103566,1,4
352,192,104400,1,2
416,128,105135,1,4
416,192,105870,1,0
416,224,106654,1,4
416,224,107096,1,2
256,192,107586,12,0,108664
96,96,109056,2,0,B|224:160,9,140
192,224,112978,1,0
256,256,113419,2,0,B|320:128,8,140
192,224,116900,1,0
192,160,117292,1,0
192,160,118076,1,0
192,160,118860,5,0
480,352,119645,2,0,B|0:32,1,560
32,352,121605,2,0,B|512:32,1,560
32,352,123566,2,0,B|32:32|160:352|192:32|288:352|320:32|416:352|448:32|480:352|512:32,3,700
448,64,130625,1,0
384,96,131409,1,0
320,128,132194,1,0
256,160,133321,1,0
192,192,133762,1,0
256,224,134939,5,0
320,192,135331,1,0
384,192,136507,1,0
384,256,136899,1,0
352,288,138517,1,0
288,320,139644,1,0
224,352,140086,1,0
224,288,141213,1,0
288,256,141556,1,0
352,160,143174,5,0
352,160,143566,1,0
352,160,143958,1,0
352,160,144350,1,0
288,224,144792,5,0
224,256,145527,1,0
160,288,145968,1,0
160,224,146703,1,0
224,192,147488,1,0
288,160,147880,1,0
256,96,148664,1,0
192,128,149056,1,0
128,160,149841,1,0
160,224,150625,1,0
224,192,151017,1,0
288,160,151801,1,0
288,224,152144,1,0
224,256,152978,5,0
160,320,153762,1,0
224,320,154105,1,0
288,320,154840,1,0
288,256,155233,1,0
352,256,156017,1,0
352,320,156556,1,0
416,320,157193,1,0
256,192,157586,12,0,162782
96,96,163664,5,0
160,96,164350,1,0
224,96,165135,1,0
288,96,165919,1,0
352,96,166703,1,0
416,96,167536,1,0
480,96,168272,1,0
480,160,168664,1,0
480,224,169056,1,0
416,256,169889,5,0
352,256,170674,1,0
288,256,171458,1,0
224,256,172193,1,0
160,256,173027,1,0
96,256,173762,1,0
32,256,174497,1,0
32,192,174889,1,0
32,128,175233,1,0
64,64,176115,5,0
128,64,176850,1,0
192,64,177634,1,0
256,64,178468,1,0
320,64,179252,1,0
384,64,180821,5,0
384,128,181458,1,0
384,128,181605,1,0
256,192,182095,12,0,187880
65,91,188664,2,0,B|86:129|93:143|98:157|104:169|112:181|114:191|129:148|138:129|140:122|146:106|149:93|155:84|176:109|178:124|182:134|191:146|196:157|199:162|204:179|209:184|212:189|227:177|232:167|237:146|244:124|251:109|255:107|258:102|261:98|262:94|268:84|271:79|276:79|291:95|294:111|303:125|314:142|319:151|329:164|342:176,1,420
334,221,190232,2,0,B|334:222|328:244|306:264|293:272|268:273|249:262|247:245|227:219|206:202|182:206|174:217|166:226|161:234|154:241|145:247|136:262|127:275|116:277|101:258|95:245|94:236|95:215|89:206|77:201|75:201|60:212|48:227|42:241|34:259|18:295|18:295|7:316,1,420
64,319,191801,2,0,B|490:319,1,420
461,298,193370,2,0,B|459:7,3,280
306,69,196115,1,0
239,67,196507,6,0,B|237:362,4,280
154,90,200036,2,0,B|159:385,5,280
256,192,204350,12,0,207487
256,192,207879,12,0,210625
394,80,212144,1,0
394,80,212536,1,0
394,80,212928,1,0
394,80,213321,1,0
256,192,213762,12,0,226311
