osu file format v9

[General]
AudioFilename: After.mp3
AudioLeadIn: 2000
PreviewTime: 48176
Countdown: 0
SampleSet: Normal
StackLeniency: 0.7
Mode: 0
LetterboxInBreaks: 1

[Editor]
DistanceSpacing: 0.88
BeatDivisor: 4
GridSize: 8

[Metadata]
Title:After Dark (TV Size)
Artist:ASIAN KUNG-FU GENERATION
Creator:arien666
Version:Oni
Source:BLEACH
Tags:taiko taikosu op7 arken1015

[Difficulty]
HPDrainRate:7
CircleSize:5
OverallDifficulty:7
ApproachRate:8
SliderMultiplier:1.44
SliderTickRate:2

[Events]
//Background and Video events
0,0,"Grey album.jpg"
Video,-150,"after what.avi"
//Break Periods
//Storyboard Layer 0 (Background)
//Storyboard Layer 1 (Fail)
//Storyboard Layer 2 (Pass)
//Storyboard Layer 3 (Foreground)
//Storyboard Sound Samples
//Background Colour Transformations
3,100,163,162,255

[TimingPoints]
565,314.13612565445,4,1,1,70,1,0
48313,-100,4,1,1,70,0,1
75879,-100,4,2,1,70,0,1
78470,-100,4,1,1,70,0,0
85931,-100,4,2,1,70,0,0

[Colours]
Combo1 : 112,196,193
Combo2 : 243,89,34

[HitObjects]
112,64,565,21,0
8,136,879,1,8
120,192,1193,2,0,B|176:248,1,72
256,328,1664,1,8
341,242,1978,2,0,B|405:178,1,72,0|8
256,72,2606,2,0,B|256:32,2,36,0|0|2
312,184,3078,5,0
192,184,3392,1,8
256,288,3706,2,0,B|176:336,1,72
73,325,4177,2,0,B|33:325|17:269,3,72,8|0|0|8
16,160,4962,1,0
16,96,5119,2,0,B|16:24|136:24,1,144,0|2
184,24,5591,5,0
256,120,5905,1,8
352,192,6219,2,0,B|400:192|432:240,1,72
496,312,6690,2,0,B|496:352|432:352,3,72,8|0|0|8
352,228,7554,2,0,B|352:180,3,36,0|0|0|2
512,192,8104,5,0
512,192,8418,1,8
392,192,8732,2,0,B|336:248,1,72
256,328,9203,1,8
171,242,9517,2,0,B|107:178,1,72,0|8
32,104,9989,2,0,B|96:40,1,72
125,10,10303,1,2
167,52,10460,6,0,B|223:108,1,72
304,192,10931,1,8
424,192,11245,1,0
424,192,11402,1,0
360,296,11716,1,8
256,240,12030,1,0
256,240,12188,1,8
256,144,12423,2,0,B|256:104,5,36,0|0|0|0|0|2
168,192,13130,5,0
40,192,13444,1,8
104,80,13758,1,0
104,80,13915,2,0,B|264:80,1,144,0|2
376,80,14544,2,0,B|448:152,1,72,0|8
424,256,15015,2,0,B|352:328,1,72
320,344,15329,1,8
256,360,15486,6,0,B|176:360,1,72
56,360,15957,1,8
56,232,16271,1,0
56,232,16428,2,0,B|128:232|201:188,1,144,0|2
304,136,17057,1,0
304,136,17214,1,8
432,136,17528,1,0
432,136,17685,2,0,B|480:136|480:200,1,72,0|8
480,304,18156,5,0
432,344,18313,1,0
400,344,18392,1,0
368,344,18470,1,0
304,344,18627,1,8
256,304,18784,2,0,B|208:304|168:352,2,72
306,265,19256,1,8
368,264,19413,5,0
416,224,19570,2,0,B|464:224,2,36
368,184,19884,1,8
320,144,20041,2,0,B|272:104|224:104,1,72
194,108,20355,1,0
32,80,20669,5,0
80,40,20826,1,0
112,40,20905,1,0
144,40,20983,1,0
207,40,21140,1,8
256,80,21297,2,0,B|304:80|344:32,2,72
208,122,21769,1,8
144,120,21926,5,0
96,160,22083,2,0,B|48:160,2,36
144,200,22397,1,8
192,240,22554,2,0,B|240:280|288:280,1,72,0|8
317,275,22868,1,2
440,272,23182,6,0,B|496:216|496:64|435:-2,2,288,2|0|2
368,192,24753,5,0
368,192,24832,1,0
368,192,24910,1,0
256,192,25067,1,0
256,192,25146,1,0
256,192,25224,1,0
144,192,25381,1,0
144,192,25460,1,0
144,192,25538,1,0
72,272,25695,2,0,B|16:216|16:64|77:-2,2,288,2|0|2
32,32,28208,5,0
96,32,28366,1,0
128,32,28444,1,0
163,32,28523,1,0
224,32,28680,1,8
288,32,28837,2,0,B|344:88,1,72
288,120,29151,2,8,B|344:176,1,72
384,216,29465,5,0
320,232,29622,1,0
288,232,29701,1,0
256,232,29779,1,0
192,232,29936,1,8
128,232,30093,2,0,B|64:232|56:112,1,144,0|8
56,56,30564,1,0
104,16,30722,5,0
168,16,30879,1,0
200,16,30957,1,0
235,16,31036,1,0
280,64,31193,1,8
280,128,31350,2,0,B|336:184,1,72
375,223,31664,2,8,B|311:287,1,72
256,275,31978,5,0
224,216,32135,1,0
224,216,32214,1,0
224,216,32292,1,0
288,216,32449,1,8
288,216,32528,1,8
288,216,32606,1,8
346,192,32763,1,8
410,192,32921,1,8
448,24,33235,6,0,B|456:144|376:192|256:111|256:111|136:192|56:144|64:24,1,576,0|2
256,160,35119,5,8
224,160,35198,1,8
192,160,35277,1,8
192,224,35434,1,8
224,224,35512,1,8
256,224,35591,1,8
312,192,35748,2,0,B|472:192|512:376,2,288,2|0|2
32,192,38261,6,0,B|0:152,2,36
96,192,38575,1,8
160,192,38732,2,0,B|192:224,2,36
208,152,39046,1,8
256,112,39203,2,0,B|256:64,2,36
304,152,39517,5,8
352,192,39674,2,0,B|320:224,2,36
416,192,39989,1,8
480,192,40146,2,0,B|480:280,2,72,4|8|4
480,192,40774,6,0,B|512:152,2,36
416,192,41088,1,8
352,192,41245,2,0,B|320:160,2,36
304,232,41559,1,8
256,272,41716,2,0,B|256:320,2,36
160,192,42188,6,0,B|224:128,1,72
256,96,42502,1,8
320,96,42659,2,0,B|384:160,1,72
416,192,42973,1,2
416,192,43287,5,0
392,216,43366,1,0
368,240,43444,1,0
368,240,43601,1,8
320,192,43758,1,0
296,168,43837,1,0
272,144,43915,1,0
272,144,44072,1,8
224,192,44229,1,0
200,216,44308,1,0
176,240,44386,1,0
176,240,44544,5,8
128,192,44701,1,0
104,168,44779,1,0
80,144,44858,1,0
80,144,45015,1,8
40,96,45172,1,4
80,48,45329,1,8
120,96,45486,1,4
256,96,45800,5,0
256,96,45957,1,0
288,40,46114,2,0,B|320:48|344:96|320:144|288:152,1,144,0|8
258,208,46585,2,0,B|226:216|202:264|226:312|258:320,1,144,0|8
288,264,47057,5,0
323,264,47135,1,0
355,264,47214,1,0
418,264,47371,1,8
418,264,47528,1,8
482,264,47685,2,0,B|514:296,4,36
352,192,48313,5,4
256,288,48627,1,4
160,192,48941,1,4
256,96,49256,1,4
352,192,49570,6,0,B|416:256,1,72
400,304,49884,2,8,B|432:336,2,36
352,256,50198,2,0,B|280:328,1,72
256,264,50512,2,8,B|184:192,1,72
160,168,50826,5,4
280,96,51140,1,4
352,216,51455,1,4
232,288,51769,1,4
160,168,52083,6,0,B|104:112,1,72
64,72,52397,2,8,B|16:72|16:136,1,72
17,180,52711,2,0,B|18:228,4,36
160,192,53339,5,4
256,288,53654,1,4
352,192,53968,1,4
256,96,54282,1,4
160,192,54596,6,0,B|96:256,1,72
112,304,54910,2,8,B|72:328,2,36
168,272,55224,2,0,B|248:272,1,72
304,272,55538,1,2
408,192,55852,5,0
408,192,55931,1,0
408,192,56010,1,0
344,192,56167,1,8
285,168,56324,1,0
285,168,56402,1,0
285,168,56481,1,0
256,112,56638,1,8
256,48,56795,1,0
256,48,56952,1,2
192,48,57109,5,0
192,48,57188,1,0
192,48,57266,1,0
256,48,57423,1,8
314,73,57580,1,0
314,73,57659,1,0
314,73,57737,1,0
344,128,57894,1,8
344,192,58051,2,0,B|344:272,1,72,0|2
344,328,58366,5,4
120,280,58680,1,4
168,56,58994,1,4
392,104,59308,1,4
344,328,59622,5,0
344,328,59779,1,0
288,296,59936,1,8
288,296,60015,1,8
288,296,60093,1,8
231,267,60250,1,0
176,232,60407,1,0
176,296,60564,1,8
120,264,60722,1,2
120,200,60879,5,4
248,56,61193,1,4
392,184,61507,1,4
264,328,61821,1,4
120,200,62135,6,0,B|32:200,1,72
16,144,62449,2,8,B|96:144,1,72
152,144,62763,2,0,B|200:120,4,36
96,32,63392,5,4
416,32,63706,1,4
416,352,64020,1,4
96,352,64334,1,4
96,192,64648,5,0
159,192,64805,1,0
222,192,64962,1,8
256,184,65041,1,8
288,176,65119,1,8
344,136,65277,1,0
376,192,65434,1,0
408,136,65591,1,2
376,312,65905,5,0
344,312,65983,1,0
312,312,66062,1,0
256,280,66219,1,8
200,312,66376,1,0
168,312,66455,1,0
136,312,66533,1,0
80,280,66690,1,8
24,248,66847,1,0
80,216,67004,1,8
136,192,67161,5,0
376,192,67475,1,0
256,312,67790,5,8
256,72,68104,1,2
256,192,68418,6,0,B|176:192,1,72
256,192,68732,2,0,B|256:288,1,72,8|8
256,192,69046,2,0,B|344:192,1,72
256,192,69360,2,0,B|256:88,1,72,8|8
328,192,69674,6,0,B|328:120,1,72
256,120,69989,2,8,B|328:120,1,72
328,48,70303,2,0,B|328:120,1,72
400,120,70617,2,8,B|328:120,1,72
400,120,70931,6,0,B|448:120,2,36
400,56,71245,2,8,B|400:16,2,36
344,88,71559,1,0
344,88,71638,1,0
344,88,71716,1,0
400,120,71873,1,8
400,120,71952,1,8
400,120,72030,1,8
400,192,72188,5,0
368,192,72266,1,0
336,192,72345,1,0
368,248,72502,1,8
336,248,72580,1,8
304,248,72659,1,8
336,304,72816,1,0
304,304,72894,1,0
272,304,72973,1,0
304,360,73130,1,8
272,360,73208,1,8
240,360,73287,1,8
176,360,73444,5,0
176,328,73523,1,0
176,296,73601,1,0
176,264,73680,1,0
176,232,73758,1,8
176,232,73915,1,2
176,152,74072,5,0
208,152,74151,1,0
240,152,74229,1,0
272,152,74308,1,0
304,152,74386,1,8
304,152,74544,1,2
320,88,74701,5,0
288,88,74779,1,0
256,88,74858,1,0
224,88,74936,1,0
192,88,75015,1,8
192,88,75172,1,2
96,88,75329,5,0
96,120,75407,1,0
96,152,75486,1,0
96,184,75564,1,0
96,216,75643,1,8
96,216,75800,1,2
160,224,75957,5,4
224,224,76114,1,6
352,224,76271,5,4
288,224,76428,1,6
160,160,76585,5,4
224,160,76743,1,6
352,160,76900,5,4
288,160,77057,1,6
256,104,77214,5,4
256,280,77528,1,4
256,104,77842,1,4
256,280,78156,1,4
144,192,78470,5,0
16,192,78784,1,8
80,80,79099,1,0
80,80,79177,1,0
80,80,79256,1,0
208,80,79570,1,8
304,160,79884,1,0
304,160,80041,1,8
256,280,80355,1,0
256,280,80512,1,0
256,280,80669,1,2
368,192,80983,5,0
496,192,81297,1,8
432,304,81612,1,0
432,304,81690,1,0
432,304,81769,1,0
304,304,82083,1,8
208,224,82397,1,0
208,224,82554,1,8
256,104,82868,1,0
256,40,83025,1,0
256,40,83104,1,0
256,40,83182,1,2
256,168,83496,5,0
128,192,83811,1,8
256,216,84125,1,0
256,247,84203,1,0
256,278,84282,1,0
352,192,84596,1,8
480,192,84910,2,0,B|416:144,1,72,0|8
312,80,85381,2,0,B|248:32,2,72,0|0|2
416,192,86010,5,4
416,192,86167,1,4
256,352,86481,1,4
256,352,86638,1,4
96,192,86952,1,4
96,192,87109,1,4
256,32,87423,1,4
256,32,87580,1,4
