osu file format v9

[General]
AudioFilename: After.mp3
AudioLeadIn: 0
PreviewTime: 48176
Countdown: 0
SampleSet: Normal
StackLeniency: 0.7
Mode: 0
LetterboxInBreaks: 1

[Editor]
DistanceSpacing: 0.68
BeatDivisor: 2
GridSize: 8

[Metadata]
Title:After Dark (TV Size)
Artist:ASIAN KUNG-FU GENERATION
Creator:arien666
Version:Muzukashii
Source:BLEACH
Tags:taiko taikosu op7 arken1015

[Difficulty]
HPDrainRate:5
CircleSize:4
OverallDifficulty:5
ApproachRate:6
SliderMultiplier:1.44
SliderTickRate:2

[Events]
//Background and Video events
0,0,"Grey album.jpg"
Video,-150,"after what.avi"
//Break Periods
//Storyboard Layer 0 (Background)
//Storyboard Layer 1 (Fail)
//Storyboard Layer 2 (Pass)
//Storyboard Layer 3 (Foreground)
//Storyboard Sound Samples
//Background Colour Transformations
3,100,163,162,255

[TimingPoints]
565,314.13612565445,4,1,1,70,1,0
48313,-100,4,1,1,70,0,1
78470,-100,4,1,1,70,0,0

[Colours]
Combo1 : 112,196,193
Combo2 : 243,89,34

[HitObjects]
256,128,3078,6,0,B|256:56,1,72
256,56,3706,1,0
256,56,3863,1,0
320,192,4334,6,0,B|392:192,1,72
392,192,4962,1,0
392,192,5119,1,0
256,256,5591,6,0,B|256:328,1,72
256,328,6219,1,0
256,328,6376,1,0
192,192,6847,6,0,B|120:192,1,72
120,192,7475,1,0
120,192,7632,1,0
256,56,8104,6,0,B|256:128,1,72,0|0
256,128,8732,1,0
256,128,8889,1,0
392,192,9360,6,0,B|320:192,1,72,0|0
320,192,9988,1,0
320,192,10145,1,0
256,328,10617,6,0,B|256:256,1,72,0|0
256,256,11245,1,0
256,256,11402,1,0
120,192,11873,6,0,B|192:192,1,72,0|0
192,192,12501,1,0
192,192,12658,1,0
472,192,13130,5,0
392,136,13444,2,0,B|352:136|252:85,1,144
120,32,14229,1,0
120,176,14701,1,8
192,240,15015,1,8
256,320,15329,1,8
320,240,15643,5,0
408,192,15957,2,0,B|448:176|456:136|448:96|408:80,1,144
256,80,16743,1,0
0,192,18156,5,0
96,160,18470,2,8,B|160:160|216:80,1,144
256,8,19099,1,8
448,8,19727,2,2,B|528:8,1,72,8|2
512,256,20669,5,0
424,216,20983,2,8,B|360:216|304:296,1,144
256,376,21612,1,8
64,376,22240,2,2,B|-24:376,1,72,8|2
0,192,23182,6,0,B|144:192|272:64,2,288
112,288,24753,1,0
256,288,25067,1,0
400,288,25381,1,0
512,192,25695,2,0,B|368:192|240:64,2,288
120,192,28208,5,0
216,192,28523,2,8,B|256:192|256:264,2,72
120,192,29151,1,8
48,8,29779,2,2,B|136:8,1,72,8|2
392,192,30722,5,0
296,192,31036,2,8,B|256:192|256:120,2,72
392,192,31664,1,8
464,376,32292,2,2,B|376:376,1,72,8|2
146,376,33235,6,0,B|0:376|0:152,2,288
256,192,35119,1,8
336,264,35434,1,2
368,368,35748,2,0,B|232:368|160:184,2,288
27,192,38261,6,0,B|91:128,1,72
163,192,38732,2,0,B|227:256,1,72,0|0
299,192,39203,2,0,B|363:128,1,72
435,192,39674,2,0,B|499:256,1,72,0|0
485,242,40146,1,0
436,53,40774,6,0,B|372:-11,1,72
300,53,41245,2,0,B|240:128,1,72,0|0
200,192,41716,2,0,B|112:192,1,72
0,192,43287,6,0,B|0:272,1,72
0,360,43758,2,0,B|80:360,1,72
168,360,44229,2,0,B|168:272,1,72
168,192,44701,2,0,B|216:184|232:144,1,72
256,64,45172,1,0
344,24,45486,1,0
440,24,45800,5,0
344,192,46428,2,0,B|288:192|253:303,1,144
255,294,47057,1,4
256,96,47685,2,8,B|256:40,2,36
256,144,47999,1,2
256,240,48313,5,4
168,192,48627,1,4
256,144,48941,1,4
344,192,49256,1,4
256,240,49570,2,0,B|168:240|32:184,1,216,0|8
8,168,50198,1,0
256,240,50826,5,4
344,192,51140,1,4
256,144,51455,1,4
168,192,51769,1,4
256,240,52083,2,0,B|344:240|480:184,1,216,0|8
504,168,52711,1,0
352,40,53339,5,4
256,40,53654,1,4
176,96,53968,1,4
256,144,54282,1,4
344,96,54596,2,0,B|392:96|416:48,3,72,0|8|0|8
432,24,55224,1,0
496,96,55538,1,8
496,192,55852,2,0,B|408:320|256:391|104:320|16:192,1,576,0|4
400,192,58366,5,12
256,192,58680,1,12
112,192,58994,1,12
184,304,59308,1,12
328,304,59622,2,0,B|392:304|480:224|480:136,1,216,8|0
476,117,60250,1,2
112,192,60879,5,12
256,192,61193,1,12
400,192,61507,1,12
328,304,61821,1,12
184,304,62135,2,0,B|120:304|32:224|32:136,1,216,8|0
36,117,62763,1,2
216,192,63392,5,12
256,280,63706,1,12
296,192,64020,1,12
256,104,64334,1,12
216,192,64648,2,0,B|176:192|152:240,3,72,8|0|8|0
144,272,65277,1,2
336,272,65905,2,0,B|456:272|456:40,2,288,2|0|4
16,192,68418,5,0
112,192,68732,2,0,B|272:192,1,144
352,192,69360,1,0
448,192,69674,1,0
400,104,69989,2,8,B|400:48|320:64,2,72,8|8|2
400,280,70931,5,0
400,192,71245,2,0,B|240:192,1,144
160,192,71873,1,0
64,192,72188,1,0
112,280,72502,2,8,B|112:336|192:320,2,72,8|8|2
256,144,73444,5,0
160,192,73758,2,0,B|160:256|256:301,1,144
352,296,74386,1,0
304,208,74701,2,0,B|384:208,2,72
208,208,75329,2,0,B|120:208,2,72
256,120,75957,5,4
160,120,76271,1,4
208,32,76585,1,4
112,32,76900,1,4
64,120,77214,5,4
160,120,77528,1,4
112,208,77842,1,4
208,208,78156,1,4
256,120,78470,1,4
78,256,80983,5,0
78,256,81140,1,0
222,256,81612,1,0
222,256,81769,1,0
150,128,82240,1,0
150,128,82397,1,0
294,128,82868,1,0
294,128,83025,1,0
438,128,83496,5,0
438,128,83654,1,0
294,128,84125,1,0
294,128,84282,1,0
366,256,84753,1,0
366,256,84910,1,0
222,256,85381,1,0
222,256,85538,1,0
256,112,86010,5,4
256,112,86167,1,4
176,192,86481,1,4
176,192,86638,1,4
256,272,86952,1,4
256,272,87109,1,4
336,192,87423,1,4
336,192,87580,1,4
