osu file format v9

[General]
AudioFilename: After.mp3
AudioLeadIn: 0
PreviewTime: 48176
Countdown: 0
SampleSet: Normal
StackLeniency: 0.7
Mode: 0
LetterboxInBreaks: 1

[Editor]
DistanceSpacing: 0.76
BeatDivisor: 1
GridSize: 8

[Metadata]
Title:After Dark (TV Size)
Artist:ASIAN KUNG-FU GENERATION
Creator:arien666
Version:Kantan
Source:BLEACH
Tags:taiko taikosu op7 arken1015

[Difficulty]
HPDrainRate:1
CircleSize:3
OverallDifficulty:1
ApproachRate:2
SliderMultiplier:0.72
SliderTickRate:1

[Events]
//Background and Video events
0,0,"Grey album.jpg"
Video,-150,"after what.avi"
//Break Periods
//Storyboard Layer 0 (Background)
//Storyboard Layer 1 (Fail)
//Storyboard Layer 2 (Pass)
//Storyboard Layer 3 (Foreground)
//Storyboard Sound Samples
//Background Colour Transformations
3,100,163,162,255

[TimingPoints]
565,314.13612565445,4,1,1,70,1,0
48313,-100,4,1,1,70,0,1
78470,-100,4,1,1,70,0,0

[Colours]
Combo1 : 112,196,193
Combo2 : 243,89,34

[HitObjects]
0,192,3078,1,0
112,192,3706,1,0
224,192,4334,1,0
368,352,5591,5,0
256,352,6219,1,0
144,352,6847,1,0
312,208,8104,5,8
200,192,8732,1,8
144,99,9360,1,8
312,208,10617,5,8
416,168,11245,1,8
472,72,11873,1,2
256,64,13130,5,0
200,160,13758,1,0
136,248,14386,1,0
376,248,15643,5,0
312,160,16271,1,0
256,64,16900,1,0
64,192,18156,6,0,B|128:192|168:152,1,72
184,152,18784,1,0
256,64,19413,1,0
448,192,20669,6,0,B|384:192|344:232,1,72
328,232,21297,1,0
256,320,21926,1,0
80,192,23182,6,0,B|255:191|352:28,1,288
432,192,25695,6,0,B|257:191|160:28,1,288
0,192,28208,6,0,B|64:192|104:232,1,72
120,224,28837,1,0
216,272,29465,1,0
416,192,30722,6,0,B|352:192|312:152,1,72
296,160,31350,1,0
216,80,31978,1,0
24,192,33235,6,0,B|199:193|272:368,1,288
424,192,35748,6,0,B|336:232|255:113|110:211,1,288
144,192,38261,5,0
176,88,38889,1,0
256,16,39517,1,0
336,88,40146,1,0
368,192,40774,5,0
312,288,41402,1,0
200,288,42030,1,0
400,88,43287,5,8
312,24,43915,1,8
200,24,44544,1,8
112,88,45172,1,8
72,192,45800,5,0
112,296,46428,1,0
200,360,47057,1,0
256,152,48313,6,0,B|256:104|304:80,1,72
336,72,48941,1,0
448,72,49570,2,0,B|480:96|480:144,1,72
480,192,50198,1,0
480,304,50826,6,0,B|480:336|416:336,1,72
368,336,51455,1,0
256,336,52083,2,0,B|216:336|176:304,1,72
144,280,52711,1,0
80,192,53339,6,0,B|56:160|56:112,1,72
56,72,53968,1,0
160,40,54596,2,0,B|200:24|248:24,1,72
288,24,55224,1,0
400,24,55852,2,0,B|472:24|472:136,2,144,0|0|4
256,192,58366,5,8
200,192,58680,1,8
144,192,58994,1,8
64,120,59622,1,8
64,64,59936,1,8
64,8,60250,1,8
157,64,60879,6,8,B|237:64,1,72
283,64,61507,1,8
392,64,62135,2,8,B|392:144,1,72
392,190,62763,1,8
448,288,63392,5,8
392,288,63706,1,8
336,288,64020,1,8
232,248,64648,1,8
232,192,64962,1,8
232,136,65277,1,8
136,192,65905,2,0,B|48:192|16:288,2,144,0|0|4
354,192,68418,6,0,B|258:192,1,72
226,192,69046,1,0
120,192,69674,1,0
120,192,70303,1,0
120,80,70931,6,0,B|168:80|216:40,1,72
232,24,71559,1,0
232,24,72188,1,0
344,24,72816,1,0
456,24,73444,6,0,B|456:64|416:104,1,72
400,136,74072,1,0
304,192,74701,1,0
304,192,75329,1,0
256,96,75957,5,4
208,192,76585,1,4
256,288,77214,1,4
312,288,77528,1,4
368,288,77842,1,4
424,288,78156,1,4
48,192,80983,5,0
160,192,81612,1,0
104,96,82240,1,0
216,96,82868,1,0
304,32,83496,5,0
352,128,84125,1,0
440,192,84753,1,0
352,256,85381,1,0
304,352,86010,1,0
