osu file format v14

[General]
AudioFilename: actually i am OP.mp3
AudioLeadIn: 0
PreviewTime: 55618
Countdown: 0
SampleSet: Soft
StackLeniency: 0.7
Mode: 2
LetterboxInBreaks: 0
WidescreenStoryboard: 0

[Editor]
DistanceSpacing: 0.5
BeatDivisor: 2
GridSize: 16
TimelineZoom: 1

[Metadata]
Title:Himitsu o Choudai
TitleUnicode:ひみつをちょーだい
Artist:ARSMAGNA
ArtistUnicode:アルスマグナ
Creator:Tyrell
Version:Salad
Source:実は私は
Tags:Actually I Am Shiragami Youko Vampire aliens Opening Jitsu wa Watashi wa
BeatmapID:762400
BeatmapSetID:345200

[Difficulty]
HPDrainRate:4
CircleSize:3.5
OverallDifficulty:7
ApproachRate:7
SliderMultiplier:1.4
SliderTickRate:1

[Events]
//Background and Video events
0,0,"bg.jpg",0,0
//Break Periods
//Storyboard Layer 0 (Background)
//Storyboard Layer 1 (Fail)
//Storyboard Layer 2 (Pass)
//Storyboard Layer 3 (Foreground)
//Storyboard Sound Samples

[TimingPoints]
868,375,4,2,1,55,1,0
868,-133.333333333333,4,2,1,55,0,0
12868,-100,4,2,1,65,0,0
18868,-121.212121212121,4,2,1,55,0,0
42868,-133.333333333333,4,2,1,60,0,0
45305,-133.333333333333,4,2,1,55,0,0
56368,-88.4955752212389,4,2,1,80,0,1
66493,-88.4955752212389,4,2,1,75,0,0
68368,-88.4955752212389,4,2,1,80,0,1
74368,-133.333333333333,4,2,1,55,0,0
80368,-120.481927710843,4,2,1,55,0,0

[Colours]
Combo1 : 255,128,0
Combo2 : 128,255,128
Combo3 : 15,60,255
Combo4 : 128,0,64

[HitObjects]
224,192,868,6,0,L|112:192,1,105.000004005432,4|0,0:0|0:0,0:0:0:0:
288,112,1618,2,0,L|416:112,1,105.000004005432,4|0,2:0|0:0,0:0:0:0:
144,256,2368,2,0,L|48:256,2,52.5000020027161,4|0|0,2:2|0:0|0:0,0:0:0:0:
240,256,2930,2,0,L|416:256,1,157.500006008148,4|0,0:0|0:0,0:0:0:0:
208,160,3868,6,0,L|288:80,1,105.000004005432,4|0,0:0|0:0,0:0:0:0:
64,144,4618,2,0,L|144:64,1,105.000004005432,4|0,0:0|0:0,0:0:0:0:
368,208,5368,2,0,L|432:208,2,52.5000020027161,4|0|0,0:0|0:0|0:0,0:0:0:0:
272,144,5930,2,0,L|96:144,1,157.500006008148,4|0,0:0|0:0,0:0:0:0:
304,256,6868,6,0,L|176:256,1,105.000004005432,4|0,0:0|0:0,0:0:0:0:
416,80,7618,2,0,L|304:80,1,105.000004005432,4|0,0:0|0:0,0:0:0:0:
96,240,8368,2,0,B|32:240|32:240|32:160,1,105.000004005432,4|0,0:0|0:0,0:0:0:0:
144,144,8930,2,0,L|320:144,1,157.500006008148,4|0,0:0|0:0,0:0:0:0:
464,304,9868,6,0,L|272:304,1,157.500006008148,4|0,0:0|0:0,0:0:0:0:
208,208,10618,2,0,L|144:144,1,52.5000020027161,4|0,0:0|0:0,0:0:0:0:
240,80,10993,1,0,0:0:0:0:
464,128,11368,2,4,L|528:128,2,52.5000020027161,4|4|4,0:0|0:0|0:0,0:0:0:0:
368,64,11930,1,2,0:0:0:0:
112,176,12868,6,0,L|272:176,1,140,4|0,0:0|0:0,0:0:0:0:
352,112,13430,2,0,L|432:112,2,70,0|4|0,0:0|0:0|0:0,0:0:0:0:
208,192,13993,2,0,L|128:192,2,70,4|0|0,0:0|0:0|0:0,0:0:0:0:
448,288,14743,1,2,0:0:0:0:
304,176,15118,1,2,0:0:0:0:
480,80,15493,1,2,0:0:0:0:
304,80,15868,5,4,0:0:0:0:
144,80,16243,2,0,L|-16:80,1,140,2|4,0:0|0:0,0:0:0:0:
160,160,16993,1,2,0:0:0:0:
272,256,17368,2,0,L|176:256,1,70,0|0,0:0|0:0,0:0:0:0:
128,160,17743,1,2,0:0:0:0:
208,112,17930,2,0,L|272:64,2,70,0|4|0,0:0|0:0|0:0,0:0:0:0:
48,64,18493,1,8,0:0:0:0:
128,240,18868,5,4,0:0:0:0:
384,176,19243,1,8,0:0:0:0:
256,80,19618,1,4,0:0:0:0:
208,144,19805,1,0,0:0:0:0:
256,208,19993,1,8,0:0:0:0:
400,304,20368,2,0,L|272:304,1,115.500001101494,4|8,0:0|0:0,0:0:0:0:
112,176,21118,2,0,L|32:176,2,57.7500005507469,4|0|8,0:0|0:0|0:0,0:0:0:0:
304,160,21868,6,0,L|438:160,1,115.500001101494,4|0,0:0|0:0,0:0:0:0:
208,304,22618,1,4,0:0:0:0:
160,256,22805,1,0,0:0:0:0:
208,176,22993,1,8,0:0:0:0:
336,80,23368,2,0,L|208:80,1,115.500001101494,4|2,0:0|0:0,0:0:0:0:
352,256,24118,1,2,0:0:0:0:
464,256,24493,1,2,0:0:0:0:
192,128,24868,5,4,0:0:0:0:
320,128,25243,1,8,0:0:0:0:
48,256,25618,1,4,0:0:0:0:
0,176,25805,1,0,0:0:0:0:
48,112,25993,1,8,0:0:0:0:
208,48,26368,2,0,L|336:48,1,115.500001101494,4|8,0:0|0:0,0:0:0:0:
80,240,27118,1,4,0:0:0:0:
128,176,27305,1,0,0:0:0:0:
176,96,27493,1,8,0:0:0:0:
336,288,27868,6,0,L|256:160,1,115.500001101494,4|0,0:0|0:0,0:0:0:0:
96,160,28618,2,0,L|16:160,2,57.7500005507469,4|0|8,0:0|0:0|0:0,0:0:0:0:
224,80,29368,1,4,0:0:0:0:
96,256,29743,1,2,0:0:0:0:
352,256,30118,2,2,L|432:256,2,57.7500005507469,2|0|2,0:0|0:0|0:0,0:0:0:0:
208,160,30868,5,4,0:0:0:0:
464,96,31243,1,2,0:0:0:0:
320,32,31618,1,2,0:0:0:0:
480,240,31993,1,8,0:0:0:0:
336,272,32368,2,0,L|208:272,1,115.500001101494,4|8,0:0|0:0,0:0:0:0:
448,144,33118,2,0,L|512:144,2,57.7500005507469,4|0|8,0:0|0:0|0:0,0:0:0:0:
304,64,33868,6,0,L|176:64,1,115.500001101494,4|0,0:0|0:0,0:0:0:0:
32,256,34618,1,4,0:0:0:0:
80,192,34805,1,0,0:0:0:0:
128,144,34993,1,8,0:0:0:0:
272,64,35368,2,0,L|400:64,2,115.500001101494,4|8|4,0:0|0:0|0:0,0:0:0:0:
144,240,36305,1,0,0:0:0:0:
96,160,36493,1,8,0:0:0:0:
144,64,36680,1,0,0:0:0:0:
224,64,36868,6,0,L|352:64,1,115.500001101494,4|8,0:0|0:0,0:0:0:0:
176,192,37618,2,0,L|96:192,2,57.7500005507469,4|0|8,0:0|0:0|0:0,0:0:0:0:
352,96,38368,2,0,L|224:96,1,115.500001101494,4|8,0:0|0:0,0:0:0:0:
96,240,39118,2,0,L|32:240,2,57.7500005507469,4|0|2,0:0|0:0|0:0,0:0:0:0:
176,144,39680,1,0,0:0:0:0:
256,48,39868,6,0,L|384:48,1,115.500001101494,4|8,0:0|0:0,0:0:0:0:
224,304,40618,1,4,0:0:0:0:
272,256,40805,1,0,0:0:0:0:
323,208,40993,1,8,0:0:0:0:
80,112,41368,2,0,L|22:112,2,57.7500005507469,4|0|8,0:0|0:0|0:0,0:0:0:0:
336,112,42118,1,12,0:0:0:0:
384,144,42305,1,0,0:0:0:0:
432,192,42493,1,12,0:0:0:0:
192,256,42868,6,0,L|80:256,1,105.000004005432,4|8,0:0|0:0,0:0:0:0:
256,160,43618,1,4,0:0:0:0:
208,112,43805,1,4,0:0:0:0:
160,64,43993,1,8,0:0:0:0:
320,224,44368,2,0,L|192:224,1,105.000004005432,4|8,0:0|0:0,0:0:0:0:
64,128,45118,2,0,L|0:128,2,52.5000020027161,4|4|8,0:0|0:0|0:0,0:0:0:0:
208,128,45868,6,0,L|313:128,1,105.000004005432,4|8,0:0|0:0,0:0:0:0:
80,304,46618,2,0,L|16:304,2,52.5000020027161,4|0|8,0:0|0:0|0:0,0:0:0:0:
240,96,47368,1,4,0:0:0:0:
384,256,47743,5,8,0:0:0:0:
432,176,47930,1,0,0:0:0:0:
384,96,48118,1,4,0:0:0:0:
240,272,48305,1,0,0:0:0:0:
192,208,48493,1,8,0:0:0:0:
144,128,48680,1,0,0:0:0:0:
64,48,48868,6,0,L|176:48,1,105.000004005432,4|8,0:0|0:0,0:0:0:0:
272,288,49618,1,4,0:0:0:0:
320,240,49805,1,4,0:0:0:0:
368,176,49993,1,8,0:0:0:0:
224,128,50368,6,0,L|112:128,1,105.000004005432,4|8,0:0|0:0,0:0:0:0:
336,304,51118,1,4,0:0:0:0:
288,240,51305,1,0,0:0:0:0:
240,176,51493,1,12,0:0:0:0:
288,112,51680,1,0,0:0:0:0:
400,112,51868,6,0,L|400:240,1,105.000004005432,4|8,0:0|0:0,0:0:0:0:
208,256,52618,2,0,L|144:256,2,52.5000020027161,4|4|8,0:0|0:0|0:0,0:0:0:0:
336,80,53368,2,0,L|448:80,1,105.000004005432,4|8,0:0|0:0,0:0:0:0:
208,224,54118,1,4,0:0:0:0:
160,144,54305,1,4,0:0:0:0:
112,64,54493,1,4,0:0:0:0:
176,32,54680,1,8,0:0:0:0:
304,144,55618,5,2,0:0:0:0:
112,144,55993,1,2,0:0:0:0:
320,144,56368,6,0,L|416:144,1,79.100000241394,6|0,0:0|0:0,0:0:0:0:
464,64,56743,1,0,0:0:0:0:
400,32,56930,1,0,0:0:0:0:
224,272,57118,2,0,L|128:272,1,79.100000241394,4|0,0:0|0:0,0:0:0:0:
80,176,57493,1,4,0:0:0:0:
144,96,57680,1,0,0:0:0:0:
320,208,57868,6,0,L|432:208,1,79.100000241394,4|0,0:0|0:0,0:0:0:0:
464,128,58243,1,0,0:0:0:0:
400,64,58430,1,0,0:0:0:0:
320,304,58618,2,0,L|416:304,1,79.100000241394,4|0,0:0|0:0,0:0:0:0:
464,240,58993,1,4,0:0:0:0:
400,160,59180,1,0,0:0:0:0:
208,112,59368,6,0,L|16:112,1,158.200000482788,2|0,0:0|0:0,0:0:0:0:
112,192,59930,1,0,0:0:0:0:
256,96,60118,2,0,L|448:96,1,158.200000482788,2|0,0:0|0:0,0:0:0:0:
352,224,60680,1,0,0:0:0:0:
208,304,60868,6,0,B|128:304|128:304|48:176|48:176|112:96,1,316.400000965576,2|4,0:0|0:0,0:0:0:0:
176,160,61805,2,8,L|96:160,2,79.100000241394,0|8|0,0:0|0:0|0:0,0:0:0:0:
352,192,62368,6,0,L|512:192,1,158.200000482788,4|4,0:0|0:0,0:0:0:0:
384,80,62930,1,0,0:0:0:0:
272,304,63305,1,0,0:0:0:0:
208,240,63493,1,4,0:0:0:0:
272,176,63680,1,0,0:0:0:0:
176,96,63868,6,0,L|336:96,1,158.200000482788,4|4,0:0|0:0,0:0:0:0:
208,304,64430,1,0,0:0:0:0:
352,304,64805,1,0,0:0:0:0:
288,240,64993,1,4,0:0:0:0:
224,160,65180,1,0,0:0:0:0:
112,64,65368,6,0,L|272:64,1,158.200000482788,2|4,0:0|0:0,0:0:0:0:
192,192,65930,2,0,L|368:192,1,158.200000482788,0|0,0:0|0:0,0:0:0:0:
448,304,66493,2,0,L|256:304,1,158.200000482788,2|4,0:0|0:0,0:0:0:0:
128,160,67243,1,2,0:0:0:0:
288,160,67618,5,4,0:0:0:0:
352,112,67805,1,4,0:0:0:0:
416,48,67993,1,4,0:0:0:0:
352,16,68180,1,4,0:0:0:0:
176,288,68368,6,0,L|64:288,1,79.100000241394,4|0,0:0|0:0,0:0:0:0:
32,176,68743,1,4,0:0:0:0:
96,96,68930,1,0,0:0:0:0:
240,80,69118,2,0,L|320:80,1,79.100000241394,4|0,0:0|0:0,0:0:0:0:
384,160,69493,1,4,0:0:0:0:
320,256,69680,1,0,0:0:0:0:
144,256,69868,6,0,L|64:256,1,79.100000241394,4|0,0:0|0:0,0:0:0:0:
144,160,70243,2,0,L|48:160,1,79.100000241394,4|0,0:0|0:0,0:0:0:0:
144,80,70618,2,2,L|240:80,1,79.100000241394,2|0,0:0|0:0,0:0:0:0:
304,192,70993,2,2,L|192:192,1,79.100000241394,2|0,0:0|0:0,0:0:0:0:
144,288,71368,6,0,L|32:288,1,79.100000241394,4|0,0:0|0:0,0:0:0:0:
0,192,71743,1,4,0:0:0:0:
64,128,71930,1,0,0:0:0:0:
240,128,72118,2,0,L|336:128,1,79.100000241394,4|0,0:0|0:0,0:0:0:0:
400,192,72493,2,0,L|320:192,1,79.100000241394,4|0,0:0|0:0,0:0:0:0:
400,336,72868,6,0,L|256:336,1,79.100000241394,4|0,0:0|0:0,0:0:0:0:
208,64,73243,2,0,L|112:64,1,79.100000241394,4|0,0:0|0:0,0:0:0:0:
208,160,73618,2,0,L|112:160,1,79.100000241394,4|0,0:0|0:0,0:0:0:0:
64,80,73993,1,4,0:0:0:0:
128,48,74180,1,0,0:0:0:0:
224,336,74368,6,4,L|400:336,1,157.500006008148,4|4,0:0|0:0,0:0:0:0:
256,240,75118,1,8,0:0:0:0:
176,112,75493,1,0,0:0:0:0:
304,112,75680,1,0,0:0:0:0:
400,224,76055,6,4,L|288:224,1,105.000004005432,4|4,0:0|0:0,0:0:0:0:
416,144,76618,2,0,L|240:144,1,157.500006008148,8|0,0:0|0:0,0:0:0:0:
304,304,77368,6,0,L|480:304,1,157.500006008148,4|4,0:0|0:0,0:0:0:0:
336,176,78118,1,8,0:0:0:0:
400,176,78493,1,4,0:0:0:0:
240,96,78680,6,0,L|112:96,1,105.000004005432,2|4,0:0|0:0,0:0:0:0:
80,224,79243,1,0,0:0:0:0:
128,304,79430,1,4,0:0:0:0:
192,256,79618,1,0,0:0:0:0:
256,176,79805,1,4,0:0:0:0:
128,128,79993,1,8,0:0:0:0:
80,240,80368,6,0,L|224:240,1,116.200001684418,4|0,0:0|0:0,0:0:0:0:
336,112,81118,2,0,L|192:112,1,116.200001684418,4|0,0:0|0:0,0:0:0:0:
64,240,81868,2,0,L|-16:240,2,58.1000008422089,4|0|4,0:0|0:0|0:0,0:0:0:0:
176,240,82430,2,0,L|352:240,1,174.300002526627,4|0,0:0|0:0,0:0:0:0:
288,64,83368,6,0,L|144:64,1,116.200001684418,4|0,0:0|0:0,0:0:0:0:
32,224,84118,2,0,L|160:224,1,116.200001684418,4|0,0:0|0:0,0:0:0:0:
304,208,84868,2,0,L|368:208,2,58.1000008422089,4|0|4,0:0|0:0|0:0,0:0:0:0:
192,272,85430,2,0,L|0:272,1,174.300002526627,4|0,0:0|0:0,0:0:0:0:
144,144,86368,5,4,0:0:0:0:
224,80,86555,2,0,L|352:80,1,116.200001684418,0|0,0:0|0:0,0:0:0:0:
400,176,87118,1,4,0:0:0:0:
352,256,87305,1,0,0:0:0:0:
240,256,87493,1,4,0:0:0:0:
64,128,87868,6,4,L|0:128,2,58.1000008422089,4|4|4,0:0|0:0|0:0,0:0:0:0:
224,128,88430,1,2,0:0:0:0:
