osu file format v14

[General]
AudioFilename: Otaser Revolution.mp3
AudioLeadIn: 0
PreviewTime: 67871
Countdown: 0
SampleSet: Soft
StackLeniency: 0.7
Mode: 3
LetterboxInBreaks: 0
SpecialStyle: 0
WidescreenStoryboard: 0

[Editor]
Bookmarks: 22506
DistanceSpacing: 1
BeatDivisor: 4
GridSize: 8
TimelineZoom: 1.9

[Metadata]
Title:Otaser*Revolution
TitleUnicode:オタサー☆レボリューション
Artist:ARM(IOSYS) feat. miko & kimu
ArtistUnicode:ARM(IOSYS) feat. miko & キム
Creator:LeMouth
Version:7K SC
Source:REFLEC BEAT groovin'!!
Tags:bemani yoshimi youno -troke- phantom wyvern huwatcoolhensem valentrixe pharos21 jomnhnk
BeatmapID:687899
BeatmapSetID:245678

[Difficulty]
HPDrainRate:8
CircleSize:7
OverallDifficulty:8
ApproachRate:5
SliderMultiplier:1.6
SliderTickRate:2

[Events]
//Background and Video events
0,0,"touhou1023.jpg",0,0
//Break Periods
//Storyboard Layer 0 (Background)
//Storyboard Layer 1 (Fail)
//Storyboard Layer 2 (Pass)
//Storyboard Layer 3 (Foreground)
//Storyboard Sound Samples

[TimingPoints]
1810,324.324324324324,4,2,1,30,1,0
66614,-100,4,2,0,30,0,0
67587,-100,4,1,1,30,0,0
67891,-100,4,2,0,20,0,0
67972,-100,4,1,1,20,0,1
88728,-100,4,1,1,20,0,0

[HitObjects]
256,192,1810,5,0,0:0:0:40:LR3_HiHat Normal.wav
182,192,1810,1,0,0:0:0:40:
36,192,1810,1,0,0:0:0:0:
475,192,1810,128,0,1891:0:0:0:0:
329,192,1891,128,0,1972:0:0:0:40:R_Chm J Whistle.wav
256,192,1972,128,0,2053:0:0:0:40:R_Chm J Whistle.wav
182,192,2053,128,0,2134:0:0:0:40:R_Chm J Whistle.wav
329,192,2134,1,0,0:0:0:0:
109,192,2296,128,0,2377:0:0:0:40:LR3_HiHat Normal.wav
36,192,2296,1,0,0:0:0:0:
475,192,2296,1,0,0:0:0:0:
256,192,2377,128,0,2458:0:0:0:40:R_Chm J Whistle.wav
329,192,2458,128,0,2539:0:0:0:40:R_Chm J Whistle.wav
402,192,2539,128,0,2620:0:0:0:40:R_Chm J Whistle.wav
475,192,2620,1,0,0:0:0:0:
329,192,2782,128,0,2945:0:0:0:0:
256,192,2782,1,0,0:0:0:0:
182,192,2945,128,0,3107:0:0:0:40:R_Chm J Whistle.wav
36,192,2945,1,0,0:0:0:40:
329,192,3107,128,0,3269:0:0:0:0:
402,192,3107,1,0,0:0:0:0:
109,192,3269,128,0,3431:0:0:0:40:R_Chm J Whistle.wav
182,192,3269,1,0,0:0:0:0:
402,192,3431,128,0,3593:0:0:0:40:LR3_HiHat Normal.wav
256,192,3431,1,0,0:0:0:0:
475,192,3593,128,0,3755:0:0:0:40:R_Chm J Whistle.wav
182,192,3593,1,0,0:0:0:0:
329,192,3755,128,0,3918:0:0:0:40:LR3_HiHat Normal.wav
256,192,3755,1,0,0:0:0:0:
182,192,3918,128,0,4080:0:0:0:40:LR3_HiHat Normal.wav
109,192,3918,1,0,0:0:0:40:Taiko 2.wav
329,192,4080,1,0,0:0:0:40:LR3_HiHat Normal.wav
475,192,4080,1,0,0:0:0:40:Taiko 2.wav
36,192,4080,128,0,4404:0:0:0:0:
256,192,4404,1,0,0:0:0:40:LR3_HiHat Normal.wav
475,192,4404,1,0,0:0:0:0:
329,192,4404,128,0,4485:0:0:0:0:
182,192,4485,128,0,4566:0:0:0:40:R_Chm J Whistle.wav
109,192,4566,128,0,4647:0:0:0:40:R_Chm J Whistle.wav
36,192,4647,128,0,4728:0:0:0:40:R_Chm J Whistle.wav
256,192,4728,1,0,0:0:0:0:
182,192,4891,128,0,4972:0:0:0:40:LR3_HiHat Normal.wav
402,192,4891,1,0,0:0:0:40:
475,192,4891,1,0,0:0:0:0:
329,192,4972,128,0,5053:0:0:0:40:R_Chm J Whistle.wav
256,192,5053,128,0,5134:0:0:0:40:R_Chm J Whistle.wav
109,192,5134,128,0,5215:0:0:0:40:R_Chm J Whistle.wav
36,192,5215,1,0,0:0:0:0:
402,192,5377,1,0,0:0:0:40:LR3_HiHat Normal.wav
182,192,5377,128,0,5539:0:0:0:0:
402,192,5539,128,0,5701:0:0:0:40:R_Chm J Whistle.wav
109,192,5539,1,0,0:0:0:0:
36,192,5701,1,0,0:0:0:40:LR3_HiHat Normal.wav
256,192,5701,128,0,5864:0:0:0:0:
109,192,5864,128,0,6026:0:0:0:40:R_Chm J Whistle.wav
402,192,5864,1,0,0:0:0:40:
475,192,6026,1,0,0:0:0:40:LR3_HiHat Normal.wav
329,192,6026,128,0,6188:0:0:0:0:
36,192,6188,128,0,6350:0:0:0:40:R_Chm J Whistle.wav
256,192,6350,1,0,0:0:0:40:LR3_HiHat Normal.wav
402,192,6350,1,0,0:0:0:0:
182,192,6350,128,0,6512:0:0:0:0:
475,192,6512,1,0,0:0:0:40:LR3_HiHat Normal.wav
36,192,6512,1,0,0:0:0:40:Taiko 2.wav
109,192,6512,1,0,0:0:0:0:
329,192,6512,128,0,6674:0:0:0:0:
256,192,6674,128,0,6837:0:0:0:40:LR3_HiHat Normal.wav
36,192,6674,1,0,0:0:0:40:Taiko 2.wav
475,192,6674,1,0,0:0:0:0:
182,192,6837,128,0,6999:0:0:0:40:LR3_HiHat Normal.wav
36,192,6837,1,0,0:0:0:40:Taiko 2.wav
475,192,6837,1,0,0:0:0:0:
402,192,6999,1,0,0:0:0:40:LR3_HiHat Normal.wav
329,192,6999,1,0,0:0:0:0:
36,192,6999,128,0,7080:0:0:0:0:
109,192,7080,128,0,7161:0:0:0:40:R_Chm J Whistle.wav
182,192,7161,128,0,7242:0:0:0:40:R_Chm J Whistle.wav
256,192,7242,128,0,7323:0:0:0:40:R_Chm J Whistle.wav
329,192,7323,1,0,0:0:0:0:
402,192,7485,128,0,7566:0:0:0:40:LR3_HiHat Normal.wav
36,192,7485,1,0,0:0:0:0:
109,192,7485,1,0,0:0:0:0:
329,192,7566,128,0,7647:0:0:0:40:R_Chm J Whistle.wav
256,192,7647,128,0,7728:0:0:0:40:R_Chm J Whistle.wav
182,192,7728,128,0,7809:0:0:0:40:R_Chm J Whistle.wav
109,192,7809,1,0,0:0:0:0:
36,192,7972,1,0,0:0:0:40:LR3_HiHat Normal.wav
329,192,7972,128,0,8134:0:0:0:0:
182,192,7972,1,0,0:0:0:0:
109,192,8134,128,0,8296:0:0:0:40:R_Chm J Whistle.wav
475,192,8134,1,0,0:0:0:0:
402,192,8296,1,0,0:0:0:40:LR3_HiHat Normal.wav
256,192,8296,128,0,8458:0:0:0:0:
36,192,8458,128,0,8620:0:0:0:40:R_Chm J Whistle.wav
329,192,8458,1,0,0:0:0:0:
182,192,8620,128,0,8782:0:0:0:40:LR3_HiHat Normal.wav
402,192,8620,1,0,0:0:0:0:
329,192,8782,128,0,8945:0:0:0:40:R_Chm J Whistle.wav
109,192,8782,1,0,0:0:0:0:
475,192,8945,128,0,9107:0:0:0:40:LR3_HiHat Normal.wav
256,192,8945,1,0,0:0:0:0:
402,192,9107,128,0,9269:0:0:0:40:LR3_HiHat Normal.wav
109,192,9107,1,0,0:0:0:40:Taiko 2.wav
36,192,9107,1,0,0:0:0:0:
36,192,9269,1,0,0:0:0:40:LR3_HiHat Normal.wav
109,192,9269,1,0,0:0:0:40:Taiko 2.wav
329,192,9269,128,0,9593:0:0:0:0:
182,192,9269,1,0,0:0:0:0:
109,192,9431,1,0,0:0:0:40:LR3_HiHat Normal.wav
36,192,9431,1,0,0:0:0:40:Taiko 2.wav
182,192,9431,1,0,0:0:0:0:
182,192,9593,1,0,0:0:0:40:R_Chm J Whistle.wav
36,192,9593,1,0,0:0:0:0:
475,192,9593,1,0,0:0:0:0:
109,192,9674,1,0,0:0:0:40:R_Chm J Whistle.wav
402,192,9755,1,0,0:0:0:40:R_Chm J Whistle.wav
475,192,9755,1,0,0:0:0:0:
109,192,9837,1,0,0:0:0:40:R_Chm J Whistle.wav
402,192,9918,1,0,0:0:0:40:LR3_HiHat Normal.wav
256,192,9918,1,0,0:0:0:0:
36,192,9918,1,0,0:0:0:0:
109,192,9999,1,0,0:0:0:0:
402,192,10080,1,0,0:0:0:40:LR3_HiHat Normal.wav
182,192,10080,1,0,0:0:0:0:
109,192,10161,1,0,0:0:0:40:R_Chm J Whistle.wav
329,192,10161,1,0,0:0:0:0:
402,192,10242,1,0,0:0:0:40:R_Chm J Whistle.wav
256,192,10242,1,0,0:0:0:0:
36,192,10242,1,0,0:0:0:0:
475,192,10323,1,0,0:0:0:40:R_Chm J Whistle.wav
36,192,10404,1,0,0:0:0:40:LR3_HiHat Normal.wav
329,192,10404,1,0,0:0:0:0:
475,192,10485,1,0,0:0:0:0:
256,192,10485,1,0,0:0:0:0:
36,192,10566,1,0,0:0:0:40:LR3_HiHat Normal.wav
329,192,10566,1,0,0:0:0:0:
182,192,10566,1,0,0:0:0:0:
475,192,10647,1,0,0:0:0:40:R_Chm J Whistle.wav
36,192,10728,1,0,0:0:0:40:R_Chm J Whistle.wav
329,192,10728,1,0,0:0:0:0:
256,192,10728,1,0,0:0:0:0:
475,192,10809,1,0,0:0:0:40:R_Chm J Whistle.wav
402,192,10809,1,0,0:0:0:0:
36,192,10891,1,0,0:0:0:40:LR3_HiHat Normal.wav
329,192,10891,1,0,0:0:0:0:
256,192,10891,1,0,0:0:0:0:
182,192,10891,1,0,0:0:0:0:
109,192,11134,1,0,0:0:0:0:
256,192,11134,1,0,0:0:0:0:
402,192,11134,1,0,0:0:0:0:
329,192,11134,1,0,0:0:0:0:
475,192,11377,1,0,0:0:0:0:
256,192,11377,1,0,0:0:0:0:
329,192,11377,1,0,0:0:0:0:
36,192,11539,1,0,0:0:0:40:R3_BassDropPDG.wav
402,192,11539,1,0,0:0:0:0:
329,192,11539,1,0,0:0:0:0:
182,192,11620,1,0,0:0:0:40:R_Chm J Whistle.wav
256,192,11620,1,0,0:0:0:0:
109,192,11701,1,0,0:0:0:40:R_Chm J Whistle.wav
36,192,11701,1,0,0:0:0:0:
256,192,11782,1,0,0:0:0:40:R_Chm J Whistle.wav
329,192,11782,1,0,0:0:0:0:
182,192,11864,1,0,0:0:0:40:R2_KickBeatC.wav
109,192,11864,1,0,0:0:0:0:
329,192,11945,1,0,0:0:0:40:R_Chm J Whistle.wav
402,192,11945,1,0,0:0:0:0:
256,192,12026,1,0,0:0:0:40:R_Chm J Whistle.wav
182,192,12026,1,0,0:0:0:0:
402,192,12107,1,0,0:0:0:40:R_Chm J Whistle.wav
475,192,12107,1,0,0:0:0:0:
329,192,12188,1,0,0:0:0:40:R_Drum J Long Med Finish.wav
36,192,12188,1,0,0:0:0:40:LR3_HiHat Normal.wav
109,192,12188,1,0,0:0:0:0:
182,192,12269,1,0,0:0:0:40:R_Chm J Whistle.wav
256,192,12350,1,0,0:0:0:40:R_Chm J Whistle.wav
36,192,12350,1,0,0:0:0:0:
329,192,12431,1,0,0:0:0:40:R_Chm J Whistle.wav
475,192,12431,1,0,0:0:0:0:
182,192,12512,1,0,0:0:0:40:LR3_HiHat Normal.wav
402,192,12512,1,0,0:0:0:0:
256,192,12593,1,0,0:0:0:0:
329,192,12674,1,0,0:0:0:40:LR3_HiHat Normal.wav
36,192,12674,1,0,0:0:0:0:
256,192,12755,1,0,0:0:0:40:R_Chm J Whistle.wav
182,192,12837,1,0,0:0:0:40:R_Chm J Whistle.wav
402,192,12837,1,0,0:0:0:0:
109,192,12918,1,0,0:0:0:40:R_Chm J Whistle.wav
182,192,12999,1,0,0:0:0:40:LR3_HiHat Normal.wav
475,192,12999,1,0,0:0:0:0:
329,192,12999,1,0,0:0:0:0:
256,192,13080,1,0,0:0:0:0:
182,192,13161,128,0,13323:0:0:0:40:LR3_HiHat Normal.wav
36,192,13161,1,0,0:0:0:0:
402,192,13161,1,0,0:0:0:0:
402,192,13323,128,0,13485:0:0:0:40:R_Chm J Whistle.wav
329,192,13323,1,0,0:0:0:0:
109,192,13485,128,0,13647:0:0:0:40:LR3_HiHat Normal.wav
256,192,13485,1,0,0:0:0:0:
182,192,13485,1,0,0:0:0:0:
36,192,13647,128,0,13809:0:0:0:40:R_Chm J Whistle.wav
475,192,13647,1,0,0:0:0:40:Taiko 2.wav
329,192,13647,1,0,0:0:0:0:
109,192,13809,128,0,13972:0:0:0:40:Taiko 2.wav
475,192,13809,1,0,0:0:0:0:
402,192,13809,1,0,0:0:0:0:
475,192,13972,1,0,0:0:0:40:R_Chm J Whistle.wav
329,192,13972,1,0,0:0:0:40:Taiko 2.wav
256,192,13972,128,0,14134:0:0:0:0:
182,192,14134,128,0,14296:0:0:0:40:LR3_HiHat Normal.wav
475,192,14134,1,0,0:0:0:0:
329,192,14215,1,0,0:0:0:0:
402,192,14215,1,0,0:0:0:0:
109,192,14296,128,0,14458:0:0:0:40:LR3_HiHat Normal.wav
475,192,14296,1,0,0:0:0:0:
256,192,14296,1,0,0:0:0:0:
36,192,14458,128,0,14782:0:0:0:40:LR3_HiHat Normal.wav
402,192,14458,1,0,0:0:0:0:
256,192,14620,1,0,0:0:0:40:LR3_HiHat Normal.wav
329,192,14620,1,0,0:0:0:0:
475,192,14782,1,0,0:0:0:40:LR3_HiHat Normal.wav
182,192,14782,1,0,0:0:0:0:
329,192,14782,128,0,14864:0:0:0:0:
256,192,14864,128,0,14945:0:0:0:40:R_Chm J Whistle.wav
182,192,14945,128,0,15026:0:0:0:40:R_Chm J Whistle.wav
36,192,14945,1,0,0:0:0:0:
109,192,15026,128,0,15107:0:0:0:40:R_Chm J Whistle.wav
475,192,15026,1,0,0:0:0:0:
182,192,15107,128,0,15188:0:0:0:40:LR3_HiHat Normal.wav
329,192,15107,1,0,0:0:0:0:
402,192,15107,1,0,0:0:0:0:
402,192,15269,128,0,15350:0:0:0:40:LR3_HiHat Normal.wav
109,192,15269,1,0,0:0:0:0:
256,192,15350,128,0,15431:0:0:0:40:R_Chm J Whistle.wav
329,192,15431,128,0,15512:0:0:0:40:R_Chm J Whistle.wav
475,192,15431,1,0,0:0:0:0:
36,192,15431,1,0,0:0:0:0:
182,192,15512,128,0,15593:0:0:0:40:R_Chm J Whistle.wav
109,192,15593,128,0,15674:0:0:0:40:LR3_HiHat Normal.wav
475,192,15593,1,0,0:0:0:0:
256,192,15674,1,0,0:0:0:0:
329,192,15755,1,0,0:0:0:40:LR3_HiHat Normal.wav
182,192,15755,1,0,0:0:0:0:
402,192,15755,128,0,15918:0:0:0:0:
109,192,15918,1,0,0:0:0:40:R_Chm J Whistle.wav
256,192,15918,128,0,16080:0:0:0:0:
182,192,16080,128,0,16242:0:0:0:40:LR3_HiHat Normal.wav
475,192,16080,1,0,0:0:0:0:
36,192,16080,1,0,0:0:0:0:
329,192,16242,128,0,16404:0:0:0:40:R_Chm J Whistle.wav
402,192,16242,1,0,0:0:0:0:
109,192,16323,1,0,0:0:0:0:
475,192,16323,1,0,0:0:0:0:
256,192,16404,128,0,16566:0:0:0:0:
182,192,16404,1,0,0:0:0:0:
36,192,16404,1,0,0:0:0:0:
402,192,16566,128,0,16728:0:0:0:40:R_Chm J Whistle.wav
109,192,16566,1,0,0:0:0:0:
475,192,16566,1,0,0:0:0:0:
329,192,16728,1,0,0:0:0:40:LR3_HiHat Normal.wav
256,192,16728,1,0,0:0:0:0:
109,192,16728,1,0,0:0:0:0:
182,192,16891,1,0,0:0:0:40:Taiko 2.wav
36,192,16891,1,0,0:0:0:0:
256,192,16972,1,0,0:0:0:40:Taiko 2.wav
475,192,16972,1,0,0:0:0:0:
329,192,17053,1,0,0:0:0:40:R_Chm J Whistle.wav
402,192,17053,1,0,0:0:0:40:Taiko 2.wav
182,192,17053,1,0,0:0:0:0:
256,192,17215,1,0,0:0:0:40:LR3_HiHat Normal.wav
329,192,17215,1,0,0:0:0:0:
475,192,17377,1,0,0:0:0:40:LR3_HiHat Normal.wav
402,192,17377,1,0,0:0:0:0:
109,192,17377,1,0,0:0:0:0:
329,192,17377,128,0,17458:0:0:0:0:
256,192,17458,128,0,17539:0:0:0:40:R_Chm J Whistle.wav
182,192,17539,128,0,17620:0:0:0:40:R_Chm J Whistle.wav
475,192,17539,1,0,0:0:0:0:
109,192,17620,128,0,17701:0:0:0:40:R_Chm J Whistle.wav
182,192,17701,128,0,17782:0:0:0:40:LR3_HiHat Normal.wav
36,192,17701,1,0,0:0:0:0:
329,192,17701,1,0,0:0:0:0:
475,192,17864,1,0,0:0:0:40:LR3_HiHat Normal.wav
402,192,17864,128,0,17945:0:0:0:0:
182,192,17864,1,0,0:0:0:0:
329,192,17945,128,0,18026:0:0:0:40:R_Chm J Whistle.wav
475,192,18026,1,0,0:0:0:40:R_Chm J Whistle.wav
256,192,18026,128,0,18107:0:0:0:0:
182,192,18107,128,0,18188:0:0:0:0:
109,192,18188,1,0,0:0:0:0:
182,192,18269,1,0,0:0:0:0:
256,192,18350,1,0,0:0:0:40:LR3_HiHat Normal.wav
475,192,18350,128,0,18512:0:0:0:0:
402,192,18350,1,0,0:0:0:0:
402,192,18512,128,0,18674:0:0:0:40:R_Chm J Whistle.wav
329,192,18512,1,0,0:0:0:0:
256,192,18566,1,0,0:0:0:40:R_Chm J Whistle.wav
182,192,18620,1,0,0:0:0:40:R_Chm J Whistle.wav
475,192,18674,1,0,0:0:0:40:R_Chm J Whistle.wav
109,192,18674,128,0,18837:0:0:0:0:
256,192,18837,128,0,18999:0:0:0:40:Taiko 2.wav
36,192,18837,1,0,0:0:0:0:
402,192,18837,1,0,0:0:0:0:
402,192,18999,128,0,19161:0:0:0:40:Taiko 2.wav
36,192,18999,1,0,0:0:0:0:
475,192,18999,1,0,0:0:0:0:
329,192,18999,1,0,0:0:0:0:
36,192,19161,1,0,0:0:0:40:Taiko 2.wav
182,192,19161,128,0,19323:0:0:0:0:
36,192,19323,1,0,0:0:0:40:Taiko 2.wav
329,192,19323,1,0,0:0:0:0:
256,192,19323,1,0,0:0:0:0:
402,192,19404,1,0,0:0:0:40:Taiko 2.wav
475,192,19404,1,0,0:0:0:0:
182,192,19485,1,0,0:0:0:40:Taiko 2.wav
256,192,19566,1,0,0:0:0:40:Taiko 2.wav
402,192,19566,1,0,0:0:0:0:
329,192,19647,1,0,0:0:0:0:
109,192,19647,1,0,0:0:0:40:Taiko 2.wav
182,192,19647,1,0,0:0:0:0:
256,192,19728,1,0,0:0:0:40:Taiko 2.wav
329,192,19728,1,0,0:0:0:0:
36,192,19809,1,0,0:0:0:40:Taiko 2.wav
109,192,19809,1,0,0:0:0:0:
182,192,19891,1,0,0:0:0:40:Taiko 2.wav
256,192,19891,1,0,0:0:0:0:
109,192,19972,1,0,0:0:0:40:LR_Snare Normal.wav
329,192,19972,1,0,0:0:0:40:LR_CymbalQST.wav
475,192,19972,1,0,0:0:0:0:
402,192,19972,1,0,0:0:0:0:
256,192,20620,1,0,0:0:0:40:LR_Snare Normal.wav
109,192,20620,1,0,0:0:0:40:LR_CymbalQST.wav
36,192,20620,1,0,0:0:0:0:
402,192,20620,1,0,0:0:0:0:
256,192,20945,1,0,0:0:0:0:
182,192,21107,1,0,0:0:0:40:LR_Snare Normal.wav
329,192,21107,1,0,0:0:0:40:LR_CymbalQST.wav
402,192,21107,1,0,0:0:0:0:
109,192,21107,1,0,0:0:0:0:
256,192,21269,1,0,0:0:0:0:
329,192,21431,1,0,0:0:0:40:LR_Kick Hard Fast.wav
256,192,21431,1,0,0:0:0:0:
182,192,21431,1,0,0:0:0:0:
475,192,21593,1,0,0:0:0:40:LR_Snare Normal.wav
402,192,21593,1,0,0:0:0:40:LR_CymbalQST.wav
109,192,21593,1,0,0:0:0:0:
36,192,21593,1,0,0:0:0:0:
256,192,21593,1,0,0:0:0:0:
256,192,21918,128,0,22566:0:0:0:40:LR_Snare Normal.wav
402,192,21918,1,0,0:0:0:40:LR_CymbalQST.wav
109,192,21918,1,0,0:0:0:0:
475,192,22404,1,0,0:0:0:0:
36,192,22566,1,0,0:0:0:40:R3_BassDropPDGs.wav
182,192,22566,1,0,0:0:0:40:LR_HiHat Click.wav
256,192,22728,1,0,0:0:0:40:R_Chm J Whistle.wav
109,192,22728,1,0,0:0:0:0:
36,192,22891,1,0,0:0:0:40:R3_BassDropPDGs.wav
402,192,22891,1,0,0:0:0:40:LR_HiHat Click.wav
329,192,22891,1,0,0:0:0:0:
475,192,22972,1,0,0:0:0:0:
256,192,23053,1,0,0:0:0:40:R_Chm J Whistle.wav
182,192,23053,1,0,0:0:0:0:
402,192,23134,1,0,0:0:0:0:
36,192,23215,1,0,0:0:0:40:R3_BassDropPDGs.wav
182,192,23215,1,0,0:0:0:40:LR_HiHat Click.wav
256,192,23215,1,0,0:0:0:0:
402,192,23377,1,0,0:0:0:40:R_Chm J Whistle.wav
329,192,23377,1,0,0:0:0:0:
182,192,23539,1,0,0:0:0:40:R3_BassDropPDGs.wav
475,192,23539,1,0,0:0:0:40:LR_HiHat Click.wav
109,192,23539,1,0,0:0:0:0:
329,192,23701,1,0,0:0:0:40:R_Chm J Whistle.wav
402,192,23701,1,0,0:0:0:0:
256,192,23782,1,0,0:0:0:0:
182,192,23864,1,0,0:0:0:40:R3_BassDropPDGs.wav
475,192,23864,1,0,0:0:0:40:LR_HiHat Click.wav
36,192,23864,1,0,0:0:0:0:
256,192,24026,1,0,0:0:0:40:R_Chm J Whistle.wav
329,192,24026,1,0,0:0:0:0:
402,192,24188,1,0,0:0:0:40:R3_BassDropPDGs.wav
182,192,24188,1,0,0:0:0:40:LR_HiHat Click.wav
109,192,24188,1,0,0:0:0:0:
256,192,24350,1,0,0:0:0:40:R_Chm J Whistle.wav
329,192,24431,1,0,0:0:0:0:
109,192,24431,1,0,0:0:0:0:
402,192,24512,1,0,0:0:0:40:R3_BassDropPDGs.wav
182,192,24512,1,0,0:0:0:40:LR_HiHat Click.wav
36,192,24512,1,0,0:0:0:0:
109,192,24674,128,0,24837:0:0:0:40:R_Chm J Whistle.wav
475,192,24674,1,0,0:0:0:0:
402,192,24755,1,0,0:0:0:40:R_Chm J Whistle.wav
329,192,24837,1,0,0:0:0:40:R3_BassDropPDG.wav
182,192,24837,1,0,0:0:0:0:
36,192,24837,1,0,0:0:0:0:
256,192,24999,1,0,0:0:0:40:R2_KickBassFast.wav
329,192,24999,1,0,0:0:0:0:
475,192,25161,1,0,0:0:0:40:LR3_HiHat Normal.wav
329,192,25161,1,0,0:0:0:0:
256,192,25161,1,0,0:0:0:0:
109,192,25161,1,0,0:0:0:0:
182,192,25323,1,0,0:0:0:40:LR3_HiHat Normal.wav
329,192,25323,1,0,0:0:0:0:
109,192,25485,1,0,0:0:0:40:LR3_HiHat Normal.wav
402,192,25485,1,0,0:0:0:40:R_Chm J Whistle.wav
36,192,25485,1,0,0:0:0:0:
329,192,25566,1,0,0:0:0:0:
256,192,25647,1,0,0:0:0:40:R2_KickBassFast.wav
475,192,25647,1,0,0:0:0:0:
182,192,25728,1,0,0:0:0:0:
329,192,25728,1,0,0:0:0:0:
109,192,25809,1,0,0:0:0:40:LR3_HiHat Normal.wav
402,192,25809,1,0,0:0:0:0:
256,192,25972,1,0,0:0:0:40:LR3_HiHat Normal.wav
475,192,25972,1,0,0:0:0:0:
329,192,26134,1,0,0:0:0:40:LR3_HiHat Normal.wav
182,192,26134,1,0,0:0:0:40:R_Chm J Whistle.wav
36,192,26134,1,0,0:0:0:0:
256,192,26215,1,0,0:0:0:0:
402,192,26296,1,0,0:0:0:40:R2_KickBassFast.wav
109,192,26296,1,0,0:0:0:0:
475,192,26458,1,0,0:0:0:40:LR3_HiHat Normal.wav
182,192,26458,1,0,0:0:0:0:
402,192,26458,1,0,0:0:0:0:
329,192,26539,1,0,0:0:0:0:
256,192,26620,1,0,0:0:0:40:LR3_HiHat Normal.wav
182,192,26701,1,0,0:0:0:0:
329,192,26701,1,0,0:0:0:0:
36,192,26782,1,0,0:0:0:40:LR3_HiHat Normal.wav
402,192,26782,1,0,0:0:0:40:R_Chm J Whistle.wav
475,192,26782,1,0,0:0:0:0:
256,192,26945,1,0,0:0:0:40:R2_KickBassFast.wav
182,192,26945,1,0,0:0:0:0:
36,192,27107,1,0,0:0:0:40:LR3_HiHat Normal.wav
402,192,27107,128,0,27269:0:0:0:0:
256,192,27107,1,0,0:0:0:0:
329,192,27269,128,0,27431:0:0:0:40:LR3_HiHat Normal.wav
182,192,27269,1,0,0:0:0:0:
256,192,27431,128,0,27593:0:0:0:40:R_Chm J Whistle.wav
109,192,27431,1,0,0:0:0:0:
402,192,27431,1,0,0:0:0:0:
182,192,27593,128,0,27755:0:0:0:40:LR3_HiHat Normal.wav
475,192,27593,1,0,0:0:0:0:
36,192,27593,1,0,0:0:0:0:
475,192,27755,1,0,0:0:0:40:R3_BassDropPDGs.wav
109,192,27755,1,0,0:0:0:40:LR_HiHat Click.wav
329,192,27755,1,0,0:0:0:0:
256,192,27918,1,0,0:0:0:40:R_Chm J Whistle.wav
36,192,27918,1,0,0:0:0:0:
329,192,28080,1,0,0:0:0:40:R3_BassDropPDGs.wav
109,192,28080,1,0,0:0:0:40:LR_HiHat Click.wav
402,192,28080,128,0,28161:0:0:0:0:
182,192,28242,1,0,0:0:0:40:R_Chm J Whistle.wav
402,192,28242,128,0,28323:0:0:0:0:
36,192,28404,1,0,0:0:0:40:R3_BassDropPDGs.wav
402,192,28404,128,0,28485:0:0:0:40:LR_HiHat Click.wav
182,192,28485,1,0,0:0:0:0:
256,192,28566,1,0,0:0:0:40:R_Chm J Whistle.wav
109,192,28566,1,0,0:0:0:0:
329,192,28647,1,0,0:0:0:0:
475,192,28647,1,0,0:0:0:0:
402,192,28728,1,0,0:0:0:40:R3_BassDropPDGs.wav
256,192,28728,1,0,0:0:0:40:LR_HiHat Click.wav
182,192,28728,1,0,0:0:0:0:
329,192,28891,1,0,0:0:0:40:R_Chm J Whistle.wav
109,192,28891,128,0,28972:0:0:0:0:
256,192,29053,1,0,0:0:0:40:R3_BassDropPDGs.wav
475,192,29053,1,0,0:0:0:40:LR_HiHat Click.wav
329,192,29053,128,0,29134:0:0:0:0:
402,192,29215,1,0,0:0:0:40:R_Chm J Whistle.wav
109,192,29215,1,0,0:0:0:0:
329,192,29377,1,0,0:0:0:40:R3_BassDropPDGs.wav
182,192,29377,1,0,0:0:0:40:LR_HiHat Click.wav
36,192,29377,1,0,0:0:0:0:
256,192,29539,1,0,0:0:0:40:R_Chm J Whistle.wav
402,192,29539,1,0,0:0:0:0:
109,192,29701,1,0,0:0:0:40:R3_BassDropPDGs.wav
475,192,29701,1,0,0:0:0:40:LR_HiHat Click.wav
36,192,29701,1,0,0:0:0:0:
256,192,29864,128,0,30026:0:0:0:40:R_Chm J Whistle.wav
329,192,29864,1,0,0:0:0:0:
402,192,30026,1,0,0:0:0:40:R3_BassDropPDGs.wav
109,192,30026,1,0,0:0:0:40:LR_HiHat Click.wav
475,192,30026,1,0,0:0:0:0:
256,192,30188,1,0,0:0:0:40:R2_KickBassFast.wav
36,192,30188,1,0,0:0:0:0:
256,192,30350,1,0,0:0:0:40:LR3_HiHat Normal.wav
402,192,30350,1,0,0:0:0:0:
109,192,30350,1,0,0:0:0:0:
329,192,30512,1,0,0:0:0:40:LR3_HiHat Normal.wav
182,192,30674,1,0,0:0:0:40:LR3_HiHat Normal.wav
475,192,30674,1,0,0:0:0:40:R_Chm J Whistle.wav
256,192,30674,1,0,0:0:0:0:
329,192,30837,1,0,0:0:0:40:R2_KickBassFast.wav
402,192,30837,1,0,0:0:0:0:
36,192,30837,1,0,0:0:0:0:
182,192,30999,1,0,0:0:0:40:LR3_HiHat Normal.wav
256,192,30999,1,0,0:0:0:0:
402,192,31080,1,0,0:0:0:0:
109,192,31080,1,0,0:0:0:0:
329,192,31161,1,0,0:0:0:40:LR3_HiHat Normal.wav
475,192,31161,1,0,0:0:0:0:
256,192,31242,1,0,0:0:0:0:
182,192,31323,1,0,0:0:0:40:LR3_HiHat Normal.wav
109,192,31323,1,0,0:0:0:40:R_Chm J Whistle.wav
256,192,31404,1,0,0:0:0:0:
329,192,31485,1,0,0:0:0:40:R2_KickBassFast.wav
402,192,31485,1,0,0:0:0:0:
182,192,31647,1,0,0:0:0:40:Taiko 3.wav
36,192,31647,1,0,0:0:0:40:tom.wav
109,192,31728,1,0,0:0:0:0:
256,192,31728,1,0,0:0:0:0:
475,192,31809,1,0,0:0:0:40:Taiko 3.wav
329,192,31809,1,0,0:0:0:40:tom.wav
402,192,31891,1,0,0:0:0:0:
256,192,31891,1,0,0:0:0:0:
36,192,31972,1,0,0:0:0:40:Taiko 3.wav
182,192,31972,1,0,0:0:0:40:tom.wav
109,192,32053,1,0,0:0:0:0:
256,192,32053,1,0,0:0:0:0:
475,192,32134,1,0,0:0:0:40:Taiko 3.wav
329,192,32134,1,0,0:0:0:40:tom.wav
402,192,32215,1,0,0:0:0:0:
256,192,32215,1,0,0:0:0:0:
36,192,32296,128,0,32458:0:0:0:40:Taiko 3.wav
182,192,32296,1,0,0:0:0:40:Taiko.wav
109,192,32377,128,0,32539:0:0:0:40:Taiko.wav
256,192,32377,1,0,0:0:0:0:
182,192,32458,128,0,32620:0:0:0:40:Taiko.wav
329,192,32458,1,0,0:0:0:0:
256,192,32539,128,0,32620:0:0:0:40:Taiko.wav
402,192,32539,1,0,0:0:0:0:
36,192,32620,128,0,32945:0:0:0:40:Taiko 3.wav
475,192,32620,128,0,32945:0:0:0:40:tom.wav
182,192,32945,1,0,0:0:0:40:R_Chm J Whistle.wav
109,192,32945,1,0,0:0:0:40:R3_BassDropPDGs.wav
329,192,32945,1,0,0:0:0:0:
402,192,32945,1,0,0:0:0:0:
256,192,33107,1,0,0:0:0:40:LR_Hat Synth.wav
329,192,33107,1,0,0:0:0:0:
109,192,33269,1,0,0:0:0:40:R_Chm J Whistle.wav
329,192,33269,1,0,0:0:0:40:R3_BassDropPDGs.wav
402,192,33269,1,0,0:0:0:0:
256,192,33431,1,0,0:0:0:40:LR_Hat Synth.wav
329,192,33431,1,0,0:0:0:0:
109,192,33512,1,0,0:0:0:0:
329,192,33593,1,0,0:0:0:40:R3_BassDropPDGs.wav
402,192,33593,1,0,0:0:0:40:R_Chm J Whistle.wav
36,192,33593,1,0,0:0:0:0:
109,192,33674,1,0,0:0:0:0:
256,192,33755,1,0,0:0:0:40:LR_Hat Synth.wav
182,192,33837,1,0,0:0:0:0:
402,192,33837,1,0,0:0:0:0:
475,192,33918,1,0,0:0:0:40:R3_BassDropPDGs.wav
256,192,33918,1,0,0:0:0:40:R_Chm J Whistle.wav
109,192,33918,1,0,0:0:0:0:
402,192,33999,1,0,0:0:0:0:
329,192,34080,1,0,0:0:0:40:LR_Hat Synth.wav
182,192,34080,1,0,0:0:0:0:
256,192,34242,1,0,0:0:0:40:R_Chm J Whistle.wav
402,192,34242,1,0,0:0:0:40:R3_BassDropPDGs.wav
109,192,34242,1,0,0:0:0:0:
256,192,34404,1,0,0:0:0:40:LR_Hat Synth.wav
182,192,34404,1,0,0:0:0:0:
475,192,34566,1,0,0:0:0:40:R3_BassDropPDGs.wav
109,192,34566,1,0,0:0:0:40:R_Chm J Whistle.wav
329,192,34566,1,0,0:0:0:0:
182,192,34728,1,0,0:0:0:40:LR_Hat Synth.wav
402,192,34728,1,0,0:0:0:0:
36,192,34809,1,0,0:0:0:0:
182,192,34891,1,0,0:0:0:40:R3_BassDropPDGs.wav
329,192,34891,1,0,0:0:0:40:R_Chm J Whistle.wav
402,192,34891,1,0,0:0:0:0:
36,192,34972,1,0,0:0:0:0:
182,192,35053,1,0,0:0:0:40:LR_Hat Synth.wav
402,192,35053,1,0,0:0:0:0:
329,192,35134,1,0,0:0:0:0:
109,192,35134,1,0,0:0:0:0:
475,192,35215,1,0,0:0:0:40:R_Chm J Whistle.wav
256,192,35215,1,0,0:0:0:40:R3_BassDropPDGs.wav
36,192,35215,1,0,0:0:0:0:
256,192,35377,1,0,0:0:0:40:LR_Hat Synth.wav
329,192,35377,1,0,0:0:0:0:
402,192,35539,1,0,0:0:0:40:R_Chm J Whistle.wav
182,192,35539,1,0,0:0:0:40:R3_BassDropPDGs.wav
36,192,35539,1,0,0:0:0:0:
475,192,35539,1,0,0:0:0:0:
329,192,35701,1,0,0:0:0:40:LR_Hat Synth.wav
182,192,35782,1,0,0:0:0:0:
256,192,35782,1,0,0:0:0:0:
402,192,35864,1,0,0:0:0:40:R_Chm J Whistle.wav
475,192,35864,1,0,0:0:0:40:R3_BassDropPDGs.wav
109,192,35864,1,0,0:0:0:0:
329,192,35945,1,0,0:0:0:0:
256,192,36026,1,0,0:0:0:40:LR_Hat Synth.wav
36,192,36026,1,0,0:0:0:0:
182,192,36107,1,0,0:0:0:0:
402,192,36107,1,0,0:0:0:0:
109,192,36188,1,0,0:0:0:40:R3_BassDropPDGs.wav
329,192,36188,1,0,0:0:0:40:R_Chm J Whistle.wav
475,192,36188,1,0,0:0:0:0:
256,192,36350,1,0,0:0:0:40:LR_Hat Synth.wav
182,192,36431,1,0,0:0:0:0:
36,192,36512,1,0,0:0:0:40:R_Chm J Whistle.wav
256,192,36512,1,0,0:0:0:40:R3_BassDropPDGs.wav
402,192,36512,1,0,0:0:0:0:
475,192,36512,1,0,0:0:0:0:
109,192,36593,1,0,0:0:0:0:
182,192,36674,1,0,0:0:0:40:LR_Hat Synth.wav
329,192,36674,1,0,0:0:0:0:
256,192,36755,1,0,0:0:0:0:
402,192,36837,1,0,0:0:0:40:R_Chm J Whistle.wav
329,192,36837,1,0,0:0:0:0:
475,192,36837,1,0,0:0:0:0:
109,192,36918,1,0,0:0:0:40:R_Chm J Whistle.wav
182,192,36918,1,0,0:0:0:0:
475,192,36999,1,0,0:0:0:40:LR_Hat Synth.wav
36,192,36999,1,0,0:0:0:0:
329,192,37080,1,0,0:0:0:40:R_Chm J Whistle.wav
256,192,37080,1,0,0:0:0:0:
109,192,37161,1,0,0:0:0:40:R_Chm J Whistle.wav
182,192,37161,1,0,0:0:0:0:
402,192,37161,1,0,0:0:0:0:
329,192,37242,1,0,0:0:0:40:LR_Hat Synth.wav
475,192,37242,1,0,0:0:0:0:
36,192,37323,1,0,0:0:0:40:R_Chm J Whistle.wav
402,192,37323,1,0,0:0:0:0:
109,192,37404,1,0,0:0:0:40:R_Chm J Whistle.wav
329,192,37404,1,0,0:0:0:0:
182,192,37485,1,0,0:0:0:40:R_Chm J Whistle.wav
475,192,37485,1,0,0:0:0:0:
256,192,37485,128,0,37647:0:0:0:0:
402,192,37647,1,0,0:0:0:40:Taiko.wav
182,192,37647,1,0,0:0:0:0:
36,192,37809,1,0,0:0:0:40:Taiko.wav
109,192,37809,1,0,0:0:0:0:
256,192,37809,128,0,38134:0:0:0:0:
329,192,37972,1,0,0:0:0:40:Taiko.wav
182,192,37972,1,0,0:0:0:0:
475,192,38134,1,0,0:0:0:40:R3_BassDropPDGs.wav
36,192,38134,1,0,0:0:0:0:
109,192,38134,1,0,0:0:0:0:
402,192,38134,1,0,0:0:0:0:
402,192,38296,1,0,0:0:0:40:LR_Hat Synth.wav
182,192,38296,1,0,0:0:0:0:
256,192,38458,1,0,0:0:0:40:R3_BassDropPDGs.wav
475,192,38458,1,0,0:0:0:0:
36,192,38458,1,0,0:0:0:0:
329,192,38620,1,0,0:0:0:40:LR_Hat Synth.wav
182,192,38620,1,0,0:0:0:0:
256,192,38782,1,0,0:0:0:40:R3_BassDropPDGs.wav
402,192,38782,1,0,0:0:0:0:
36,192,38782,1,0,0:0:0:0:
475,192,38864,1,0,0:0:0:0:
109,192,38864,1,0,0:0:0:0:
402,192,38945,1,0,0:0:0:40:LR_Hat Synth.wav
182,192,38945,1,0,0:0:0:0:
329,192,39026,1,0,0:0:0:0:
109,192,39026,1,0,0:0:0:0:
402,192,39107,1,0,0:0:0:40:R3_BassDropPDGs.wav
256,192,39107,1,0,0:0:0:0:
36,192,39107,1,0,0:0:0:0:
329,192,39269,1,0,0:0:0:40:LR_Hat Synth.wav
256,192,39269,1,0,0:0:0:0:
256,192,39350,1,0,0:0:0:0:
109,192,39350,1,0,0:0:0:0:
182,192,39431,1,0,0:0:0:40:R_Chm J Whistle.wav
329,192,39431,1,0,0:0:0:40:R3_BassDropPDGs.wav
402,192,39431,1,0,0:0:0:0:
109,192,39593,1,0,0:0:0:40:LR_Hat Synth.wav
182,192,39593,1,0,0:0:0:0:
256,192,39674,1,0,0:0:0:0:
36,192,39755,1,0,0:0:0:40:R_Chm J Whistle.wav
402,192,39755,1,0,0:0:0:40:R3_BassDropPDGs.wav
109,192,39755,1,0,0:0:0:0:
256,192,39918,1,0,0:0:0:40:LR_Hat Synth.wav
475,192,39918,1,0,0:0:0:0:
329,192,39999,1,0,0:0:0:0:
109,192,39999,1,0,0:0:0:0:
402,192,40080,1,0,0:0:0:40:R3_BassDropPDGs.wav
182,192,40080,1,0,0:0:0:0:
36,192,40080,1,0,0:0:0:0:
475,192,40161,1,0,0:0:0:0:
256,192,40161,1,0,0:0:0:0:
402,192,40242,1,0,0:0:0:40:LR_Hat Synth.wav
36,192,40242,128,0,40404:0:0:0:0:
329,192,40323,1,0,0:0:0:0:
109,192,40323,1,0,0:0:0:0:
256,192,40404,1,0,0:0:0:40:R3_BassDropPDGs.wav
475,192,40404,1,0,0:0:0:0:
182,192,40404,1,0,0:0:0:0:
256,192,40566,1,0,0:0:0:40:LR_Hat Synth.wav
256,192,40728,128,0,40891:0:0:0:0:
329,192,40891,1,0,0:0:0:0:
475,192,40891,1,0,0:0:0:0:
256,192,41053,128,0,41215:0:0:0:0:
182,192,41215,1,0,0:0:0:0:
36,192,41215,1,0,0:0:0:0:
256,192,41377,128,0,41539:0:0:0:0:
329,192,41539,1,0,0:0:0:0:
475,192,41539,1,0,0:0:0:0:
256,192,41701,128,0,41864:0:0:0:0:
402,192,41864,1,0,0:0:0:40:R3_BassDropPDGs.wav
109,192,41864,1,0,0:0:0:40:LR_Hat Synth.wav
329,192,41864,1,0,0:0:0:0:
182,192,41945,1,0,0:0:0:0:
36,192,41945,1,0,0:0:0:0:
109,192,42026,1,0,0:0:0:40:R3_BassDropPDG.wav
329,192,42026,1,0,0:0:0:0:
475,192,42026,1,0,0:0:0:0:
256,192,42026,128,0,43323:0:0:0:0:
475,192,42999,1,0,0:0:0:40:R3_BassDropPDG.wav
329,192,43080,1,0,0:0:0:0:
182,192,43161,1,0,0:0:0:0:
36,192,43242,1,0,0:0:0:0:
109,192,43323,1,0,0:0:0:40:LR_Kick Hard Fast.wav
329,192,43323,1,0,0:0:0:40:R3_BassDropPDGs.wav
402,192,43323,1,0,0:0:0:0:
182,192,43323,1,0,0:0:0:0:
256,192,43485,1,0,0:0:0:0:
182,192,43485,1,0,0:0:0:0:
329,192,43566,1,0,0:0:0:0:
475,192,43566,1,0,0:0:0:0:
402,192,43647,1,0,0:0:0:40:LR_Snare Normal.wav
109,192,43647,1,0,0:0:0:40:R_Chm J Whistle.wav
36,192,43647,1,0,0:0:0:0:
256,192,43809,1,0,0:0:0:40:LR_Kick Hard Fast.wav
329,192,43809,1,0,0:0:0:0:
109,192,43972,1,0,0:0:0:40:LR_Kick Hard Fast.wav
329,192,43972,1,0,0:0:0:0:
475,192,43972,1,0,0:0:0:0:
256,192,44053,1,0,0:0:0:0:
402,192,44134,1,0,0:0:0:40:LR3_HiHat Normal.wav
329,192,44134,1,0,0:0:0:0:
182,192,44215,1,0,0:0:0:0:
109,192,44215,1,0,0:0:0:0:
329,192,44296,1,0,0:0:0:40:LR_Snare Normal.wav
475,192,44296,1,0,0:0:0:40:R_Chm J Whistle.wav
36,192,44296,1,0,0:0:0:0:
182,192,44458,1,0,0:0:0:40:LR3_HiHat Normal.wav
256,192,44458,1,0,0:0:0:0:
36,192,44620,1,0,0:0:0:40:LR_Kick Hard Fast.wav
329,192,44620,1,0,0:0:0:0:
402,192,44620,1,0,0:0:0:0:
182,192,44701,1,0,0:0:0:40:LR_Kick Hard Fast.wav
36,192,44782,1,0,0:0:0:0:
475,192,44782,1,0,0:0:0:0:
402,192,44782,1,0,0:0:0:0:
182,192,44864,1,0,0:0:0:0:
36,192,44945,1,0,0:0:0:40:LR_Snare Normal.wav
329,192,44945,1,0,0:0:0:0:
109,192,45026,1,0,0:0:0:0:
182,192,45107,1,0,0:0:0:40:LR_Kick Hard Fast.wav
402,192,45107,1,0,0:0:0:0:
256,192,45188,1,0,0:0:0:0:
36,192,45269,1,0,0:0:0:40:LR_Kick Hard Fast.wav
329,192,45269,1,0,0:0:0:0:
475,192,45269,1,0,0:0:0:0:
182,192,45431,1,0,0:0:0:40:LR3_HiHat Normal.wav
402,192,45431,1,0,0:0:0:0:
329,192,45593,1,0,0:0:0:40:LR_Snare Normal.wav
256,192,45593,1,0,0:0:0:0:
36,192,45593,1,0,0:0:0:0:
256,192,45755,1,0,0:0:0:40:LR3_HiHat Normal.wav
402,192,45837,1,0,0:0:0:0:
475,192,45837,1,0,0:0:0:0:
109,192,45918,1,0,0:0:0:40:LR_Kick Hard Fast.wav
329,192,45918,1,0,0:0:0:0:
36,192,45918,1,0,0:0:0:0:
475,192,45999,1,0,0:0:0:40:LR_Kick Hard Fast.wav
329,192,46080,1,0,0:0:0:40:LR_Kick Hard Fast.wav
36,192,46080,1,0,0:0:0:0:
475,192,46161,1,0,0:0:0:0:
329,192,46242,1,0,0:0:0:40:LR_Snare Normal.wav
109,192,46242,1,0,0:0:0:0:
182,192,46242,1,0,0:0:0:0:
36,192,46404,1,0,0:0:0:40:LR_Kick Hard Fast.wav
256,192,46404,1,0,0:0:0:0:
109,192,46566,1,0,0:0:0:40:LR_Snare Normal.wav
329,192,46566,1,0,0:0:0:0:
475,192,46566,1,0,0:0:0:0:
256,192,46647,1,0,0:0:0:0:
182,192,46728,1,0,0:0:0:40:LR_Kick Hard Fast.wav
329,192,46728,1,0,0:0:0:40:LR3_HiHat Normal.wav
109,192,46809,1,0,0:0:0:0:
402,192,46809,1,0,0:0:0:0:
36,192,46891,1,0,0:0:0:40:LR_Snare Normal.wav
256,192,46891,1,0,0:0:0:0:
329,192,46891,1,0,0:0:0:0:
256,192,47053,1,0,0:0:0:40:LR3_HiHat Normal.wav
402,192,47053,1,0,0:0:0:0:
36,192,47215,128,0,47377:0:0:0:40:LR_Kick Hard Fast.wav
329,192,47215,1,0,0:0:0:0:
475,192,47215,1,0,0:0:0:0:
182,192,47215,1,0,0:0:0:0:
109,192,47377,128,0,47539:0:0:0:40:LR_Kick Hard Fast.wav
256,192,47377,1,0,0:0:0:0:
182,192,47539,128,0,47701:0:0:0:40:LR_Snare Normal.wav
36,192,47539,1,0,0:0:0:0:
475,192,47539,1,0,0:0:0:0:
329,192,47620,1,0,0:0:0:0:
256,192,47701,128,0,47864:0:0:0:40:LR_Kick Hard Fast.wav
402,192,47701,1,0,0:0:0:0:
329,192,47864,128,0,48026:0:0:0:40:LR_Snare Normal.wav
36,192,47864,1,0,0:0:0:0:
109,192,47945,1,0,0:0:0:0:
402,192,48026,128,0,48188:0:0:0:40:LR_Kick Hard Fast.wav
182,192,48026,1,0,0:0:0:40:LR3_HiHat Normal.wav
256,192,48107,1,0,0:0:0:0:
475,192,48188,128,0,48350:0:0:0:40:LR_Snare Normal.wav
329,192,48188,1,0,0:0:0:0:
109,192,48188,1,0,0:0:0:0:
36,192,48188,1,0,0:0:0:0:
402,192,48269,1,0,0:0:0:0:
182,192,48269,1,0,0:0:0:0:
256,192,48350,128,0,48512:0:0:0:40:LR_Kick Hard Fast.wav
109,192,48350,1,0,0:0:0:40:LR3_HiHat Normal.wav
329,192,48350,1,0,0:0:0:0:
402,192,48512,1,0,0:0:0:40:LR_Snare Normal.wav
36,192,48512,1,0,0:0:0:0:
475,192,48512,1,0,0:0:0:0:
109,192,48593,1,0,0:0:0:40:LR_Kick Hard Fast.wav
402,192,48674,1,0,0:0:0:40:LR_Kick Hard Fast.wav
329,192,48674,1,0,0:0:0:0:
109,192,48755,1,0,0:0:0:40:LR_Kick Hard Fast.wav
402,192,48837,1,0,0:0:0:40:LR_Kick Hard Fast.wav
475,192,48837,1,0,0:0:0:0:
256,192,48837,1,0,0:0:0:0:
109,192,48918,1,0,0:0:0:0:
402,192,48999,1,0,0:0:0:40:LR3_HiHat Normal.wav
109,192,49080,1,0,0:0:0:0:
36,192,49080,1,0,0:0:0:0:
402,192,49161,1,0,0:0:0:40:LR_Snare Normal.wav
256,192,49161,1,0,0:0:0:0:
475,192,49161,1,0,0:0:0:0:
182,192,49323,1,0,0:0:0:0:
329,192,49323,1,0,0:0:0:0:
256,192,49485,1,0,0:0:0:40:LR_Snare Normal.wav
402,192,49485,1,0,0:0:0:0:
109,192,49485,1,0,0:0:0:0:
36,192,49647,1,0,0:0:0:40:LR_Kick Hard Fast.wav
182,192,49647,1,0,0:0:0:0:
329,192,49809,1,0,0:0:0:40:LR_Snare Normal.wav
109,192,49809,1,0,0:0:0:0:
475,192,49809,1,0,0:0:0:0:
182,192,49891,1,0,0:0:0:40:LR_Kick Hard Fast.wav
402,192,49972,1,0,0:0:0:40:LR_Kick Hard Fast.wav
329,192,49972,1,0,0:0:0:0:
182,192,50053,1,0,0:0:0:40:LR_Kick Hard Fast.wav
329,192,50134,1,0,0:0:0:40:LR_Kick Hard Fast.wav
36,192,50134,1,0,0:0:0:0:
109,192,50134,1,0,0:0:0:0:
182,192,50215,1,0,0:0:0:0:
329,192,50296,1,0,0:0:0:40:LR3_HiHat Normal.wav
182,192,50377,1,0,0:0:0:0:
475,192,50458,128,0,50620:0:0:0:40:LR_Snare Normal.wav
36,192,50458,1,0,0:0:0:0:
256,192,50458,1,0,0:0:0:0:
402,192,50539,128,0,50701:0:0:0:40:LR_Kick Hard Fast.wav
329,192,50620,128,0,50782:0:0:0:40:LR_Kick Hard Fast.wav
256,192,50701,128,0,50864:0:0:0:40:LR_Kick Hard Fast.wav
182,192,50782,128,0,50945:0:0:0:40:LR_Snare Normal.wav
475,192,50782,1,0,0:0:0:0:
36,192,50782,1,0,0:0:0:0:
109,192,50864,128,0,51026:0:0:0:40:LR_Kick Hard Fast.wav
402,192,50864,1,0,0:0:0:0:
36,192,50945,128,0,51107:0:0:0:40:LR_Kick Hard Fast.wav
329,192,50945,1,0,0:0:0:0:
256,192,51026,1,0,0:0:0:0:
182,192,51107,1,0,0:0:0:40:LR_Snare Normal.wav
402,192,51107,1,0,0:0:0:0:
475,192,51107,1,0,0:0:0:0:
256,192,51188,1,0,0:0:0:40:LR_Snare Normal.wav
36,192,51269,1,0,0:0:0:40:LR_Snare Normal.wav
402,192,51269,1,0,0:0:0:0:
329,192,51350,1,0,0:0:0:40:LR_Snare Normal.wav
109,192,51431,1,0,0:0:0:40:LR_Snare Normal.wav
182,192,51431,1,0,0:0:0:0:
329,192,51512,1,0,0:0:0:40:LR_Snare Normal.wav
182,192,51593,1,0,0:0:0:40:LR_Snare Normal.wav
256,192,51593,1,0,0:0:0:0:
475,192,51674,1,0,0:0:0:40:LR_Snare Normal.wav
402,192,51674,1,0,0:0:0:0:
182,192,51755,1,0,0:0:0:40:LR_Snare Normal.wav
36,192,51755,1,0,0:0:0:0:
256,192,51837,1,0,0:0:0:0:
329,192,51918,1,0,0:0:0:0:
475,192,51918,1,0,0:0:0:0:
256,192,51999,1,0,0:0:0:0:
182,192,52080,1,0,0:0:0:40:LR_Snare Normal.wav
36,192,52080,1,0,0:0:0:0:
256,192,52161,1,0,0:0:0:0:
329,192,52242,1,0,0:0:0:0:
475,192,52242,1,0,0:0:0:0:
256,192,52323,1,0,0:0:0:0:
256,192,52404,128,0,52485:0:0:0:40:LR_Snare Normal.wav
182,192,52485,128,0,52566:0:0:0:0:
329,192,52566,128,0,52647:0:0:0:0:
109,192,52647,128,0,52728:0:0:0:0:
402,192,52728,128,0,52809:0:0:0:0:
36,192,52809,128,0,52891:0:0:0:0:
475,192,52891,128,0,52972:0:0:0:0:
109,192,52972,128,0,53053:0:0:0:0:
256,192,53053,128,0,53701:0:0:0:40:LR_Snare Normal.wav
182,192,53296,128,0,53701:0:0:0:0:
36,192,53701,1,0,0:0:0:0:
329,192,53701,1,0,0:0:0:0:
109,192,53782,1,0,0:0:0:0:
182,192,53864,1,0,0:0:0:0:
256,192,53945,1,0,0:0:0:0:
36,192,54026,1,0,0:0:0:40:LR3_HiHat Normal.wav
329,192,54026,1,0,0:0:0:0:
109,192,54107,1,0,0:0:0:0:
36,192,54188,1,0,0:0:0:0:
182,192,54188,1,0,0:0:0:0:
256,192,54269,1,0,0:0:0:0:
329,192,54350,1,0,0:0:0:0:
402,192,54431,1,0,0:0:0:0:
475,192,54512,1,0,0:0:0:0:
329,192,54674,128,0,54837:0:0:0:40:LR3_HiHat Normal.wav
256,192,54674,1,0,0:0:0:0:
182,192,54837,128,0,54999:0:0:0:40:LR3_HiHat Normal.wav
109,192,54837,1,0,0:0:0:0:
475,192,54999,1,0,0:0:0:40:LR3_HiHat Normal.wav
329,192,54999,1,0,0:0:0:0:
36,192,54999,1,0,0:0:0:0:
109,192,55080,1,0,0:0:0:0:
182,192,55161,1,0,0:0:0:0:
402,192,55242,1,0,0:0:0:40:R_Chm J Whistle.wav
475,192,55242,1,0,0:0:0:0:
256,192,55242,1,0,0:0:0:0:
329,192,55323,1,0,0:0:0:40:LR3_HiHat Normal.wav
256,192,55404,1,0,0:0:0:0:
475,192,55485,1,0,0:0:0:40:LR3_HiHat Normal.wav
182,192,55485,1,0,0:0:0:0:
402,192,55485,1,0,0:0:0:0:
109,192,55566,1,0,0:0:0:0:
36,192,55647,1,0,0:0:0:0:
109,192,55728,1,0,0:0:0:40:R_Chm J Whistle.wav
182,192,55809,1,0,0:0:0:40:LR3_HiHat Normal.wav
109,192,55891,1,0,0:0:0:0:
329,192,55972,128,0,56134:0:0:0:40:LR3_HiHat Normal.wav
475,192,55972,1,0,0:0:0:0:
182,192,55972,1,0,0:0:0:0:
256,192,56134,1,0,0:0:0:40:LR3_HiHat Normal.wav
109,192,56134,128,0,56296:0:0:0:0:
182,192,56296,1,0,0:0:0:40:LR3_HiHat Normal.wav
36,192,56296,1,0,0:0:0:0:
402,192,56296,1,0,0:0:0:0:
329,192,56377,1,0,0:0:0:40:R_Chm J Whistle.wav
256,192,56458,1,0,0:0:0:40:R_Chm J Whistle.wav
182,192,56539,1,0,0:0:0:40:R_Chm J Whistle.wav
256,192,56620,1,0,0:0:0:40:LR3_HiHat Normal.wav
402,192,56620,1,0,0:0:0:0:
475,192,56782,1,0,0:0:0:0:
329,192,56782,1,0,0:0:0:0:
402,192,56864,1,0,0:0:0:0:
329,192,56945,1,0,0:0:0:0:
256,192,57026,1,0,0:0:0:0:
182,192,57107,1,0,0:0:0:0:
36,192,57269,128,0,57431:0:0:0:40:LR3_HiHat Normal.wav
109,192,57269,1,0,0:0:0:0:
475,192,57431,128,0,57593:0:0:0:40:LR3_HiHat Normal.wav
256,192,57431,1,0,0:0:0:0:
402,192,57593,1,0,0:0:0:40:LR3_HiHat Normal.wav
329,192,57634,1,0,0:0:0:0:
256,192,57674,1,0,0:0:0:0:
182,192,57755,1,0,0:0:0:0:
109,192,57837,1,0,0:0:0:0:
36,192,57918,1,0,0:0:0:0:
475,192,58080,1,0,0:0:0:0:
329,192,58080,1,0,0:0:0:0:
402,192,58161,1,0,0:0:0:0:
329,192,58242,1,0,0:0:0:0:
256,192,58323,1,0,0:0:0:0:
182,192,58404,1,0,0:0:0:0:
109,192,58566,128,0,58891:0:0:0:0:
329,192,58891,1,0,0:0:0:40:LR3_HiHat Normal.wav
182,192,58891,1,0,0:0:0:0:
256,192,58972,1,0,0:0:0:40:R_Chm J Whistle.wav
182,192,59053,1,0,0:0:0:40:R_Chm J Whistle.wav
329,192,59053,1,0,0:0:0:0:
256,192,59134,1,0,0:0:0:40:R_Chm J Whistle.wav
402,192,59215,1,0,0:0:0:40:LR3_HiHat Normal.wav
109,192,59215,1,0,0:0:0:0:
475,192,59377,1,0,0:0:0:40:LR3_HiHat Normal.wav
36,192,59377,1,0,0:0:0:40:R3_BassDropPDGs.wav
402,192,59377,1,0,0:0:0:0:
182,192,59539,1,0,0:0:0:40:R_Chm J Whistle.wav
256,192,59539,1,0,0:0:0:0:
329,192,59620,1,0,0:0:0:0:
256,192,59701,1,0,0:0:0:40:LR3_HiHat Normal.wav
182,192,59701,1,0,0:0:0:40:R3_BassDropPDGs.wav
329,192,59782,1,0,0:0:0:0:
475,192,59864,1,0,0:0:0:40:R_Chm J Whistle.wav
36,192,59864,1,0,0:0:0:0:
256,192,59864,1,0,0:0:0:0:
402,192,60026,1,0,0:0:0:40:LR3_HiHat Normal.wav
109,192,60026,1,0,0:0:0:40:R3_BassDropPDGs.wav
182,192,60026,1,0,0:0:0:0:
475,192,60188,1,0,0:0:0:40:R_Chm J Whistle.wav
256,192,60188,1,0,0:0:0:0:
402,192,60269,1,0,0:0:0:0:
329,192,60269,1,0,0:0:0:0:
256,192,60350,1,0,0:0:0:40:LR3_HiHat Normal.wav
475,192,60350,1,0,0:0:0:40:R3_BassDropPDGs.wav
402,192,60431,1,0,0:0:0:0:
329,192,60512,1,0,0:0:0:40:R_Chm J Whistle.wav
109,192,60512,1,0,0:0:0:0:
182,192,60512,1,0,0:0:0:0:
36,192,60674,1,0,0:0:0:40:LR3_HiHat Normal.wav
256,192,60674,1,0,0:0:0:40:R3_BassDropPDGs.wav
475,192,60674,1,0,0:0:0:0:
402,192,60837,1,0,0:0:0:40:R_Chm J Whistle.wav
182,192,60837,1,0,0:0:0:0:
109,192,60918,1,0,0:0:0:0:
475,192,60918,1,0,0:0:0:0:
182,192,60999,1,0,0:0:0:40:LR3_HiHat Normal.wav
402,192,60999,1,0,0:0:0:40:R3_BassDropPDGs.wav
256,192,61080,1,0,0:0:0:0:
109,192,61161,1,0,0:0:0:40:R_Chm J Whistle.wav
475,192,61161,1,0,0:0:0:0:
36,192,61161,1,0,0:0:0:0:
329,192,61323,1,0,0:0:0:40:LR3_HiHat Normal.wav
109,192,61323,1,0,0:0:0:40:R3_BassDropPDGs.wav
402,192,61323,1,0,0:0:0:0:
182,192,61485,1,0,0:0:0:40:R_Chm J Whistle.wav
402,192,61485,1,0,0:0:0:0:
36,192,61485,1,0,0:0:0:0:
329,192,61566,1,0,0:0:0:0:
475,192,61647,1,0,0:0:0:40:LR3_HiHat Normal.wav
109,192,61647,1,0,0:0:0:40:R3_BassDropPDGs.wav
256,192,61728,1,0,0:0:0:0:
182,192,61728,1,0,0:0:0:0:
402,192,61809,1,0,0:0:0:40:R_Chm J Whistle.wav
109,192,61809,1,0,0:0:0:0:
475,192,61809,1,0,0:0:0:0:
329,192,61972,1,0,0:0:0:40:LR3_HiHat Normal.wav
36,192,61972,1,0,0:0:0:40:R3_BassDropPDGs.wav
182,192,61972,1,0,0:0:0:0:
109,192,62134,1,0,0:0:0:40:R_Chm J Whistle.wav
402,192,62134,1,0,0:0:0:0:
329,192,62215,1,0,0:0:0:0:
182,192,62215,1,0,0:0:0:0:
109,192,62296,1,0,0:0:0:40:LR3_HiHat Normal.wav
402,192,62296,1,0,0:0:0:40:R3_BassDropPDGs.wav
182,192,62377,1,0,0:0:0:0:
329,192,62377,1,0,0:0:0:0:
109,192,62458,1,0,0:0:0:40:R_Chm J Whistle.wav
402,192,62458,1,0,0:0:0:0:
256,192,62458,1,0,0:0:0:0:
36,192,62620,1,0,0:0:0:40:LR3_HiHat Normal.wav
475,192,62620,1,0,0:0:0:40:R3_BassDropPDGs.wav
256,192,62620,1,0,0:0:0:0:
402,192,62782,1,0,0:0:0:0:
329,192,62782,1,0,0:0:0:0:
182,192,62891,1,0,0:0:0:40:R_Chm J Whistle.wav
109,192,62891,1,0,0:0:0:0:
109,192,62999,1,0,0:0:0:40:R_Chm J Whistle.wav
182,192,62999,1,0,0:0:0:0:
402,192,63107,1,0,0:0:0:0:
475,192,63107,1,0,0:0:0:0:
256,192,63215,1,0,0:0:0:40:R_Chm J Whistle.wav
329,192,63215,1,0,0:0:0:0:
256,192,63323,1,0,0:0:0:40:R_Chm J Whistle.wav
329,192,63323,1,0,0:0:0:0:
36,192,63431,1,0,0:0:0:0:
109,192,63431,1,0,0:0:0:0:
182,192,63539,1,0,0:0:0:40:R_Chm J Whistle.wav
256,192,63539,1,0,0:0:0:0:
182,192,63647,1,0,0:0:0:40:R_Chm J Whistle.wav
256,192,63647,1,0,0:0:0:0:
402,192,63755,1,0,0:0:0:0:
475,192,63755,1,0,0:0:0:0:
109,192,63864,1,0,0:0:0:40:R_Chm J Whistle.wav
36,192,63864,1,0,0:0:0:0:
36,192,63972,1,0,0:0:0:40:R_Chm J Whistle.wav
109,192,63972,1,0,0:0:0:0:
182,192,64080,1,0,0:0:0:40:LR_CymbalQST.wav
329,192,64080,1,0,0:0:0:0:
475,192,64080,1,0,0:0:0:0:
402,192,64080,128,0,64404:0:0:0:0:
329,192,64404,128,0,64728:0:0:0:40:R_Chm J Whistle.wav
256,192,64728,128,0,65053:0:0:0:40:R_Chm J Whistle.wav
109,192,65053,128,0,65377:0:0:0:40:R_Chm J Whistle.wav
402,192,65377,128,0,65701:0:0:0:40:R_Chm J Whistle.wav
256,192,65701,1,0,0:0:0:40:R_Chm J Whistle.wav
329,192,65782,1,0,0:0:0:0:
256,192,65864,1,0,0:0:0:40:R_Chm J Whistle.wav
182,192,65945,1,0,0:0:0:0:
109,192,66026,128,0,66674:0:0:0:40:R_Chm J Whistle.wav
256,192,66674,1,0,0:0:0:40:Taiko 2.wav
256,192,66837,1,0,0:0:0:40:Taiko 2.wav
256,192,66918,1,0,0:0:0:40:Taiko 2.wav
256,192,66999,1,0,0:0:0:40:Taiko 2.wav
256,192,67161,1,0,0:0:0:40:Taiko 2.wav
256,192,67323,1,0,0:0:0:40:Taiko 2.wav
329,192,67647,1,0,0:0:0:40:Taiko 3.wav
182,192,67647,1,0,0:0:0:40:Taiko.wav
475,192,67972,1,0,0:0:0:40:LR_Kick Hard Fast.wav
109,192,67972,1,0,0:0:0:0:
329,192,67972,1,0,0:0:0:0:
256,192,68053,1,0,0:0:0:0:
182,192,68134,1,0,0:0:0:40:LR3_HiHat Normal.wav
109,192,68215,1,0,0:0:0:0:
256,192,68215,1,0,0:0:0:0:
36,192,68296,1,0,0:0:0:40:LR_Snare Normal.wav
402,192,68296,1,0,0:0:0:0:
475,192,68296,1,0,0:0:0:0:
329,192,68377,1,0,0:0:0:0:
256,192,68458,1,0,0:0:0:40:LR3_HiHat Normal.wav
36,192,68458,1,0,0:0:0:0:
182,192,68539,1,0,0:0:0:0:
109,192,68620,1,0,0:0:0:40:LR_Kick Hard Fast.wav
329,192,68620,1,0,0:0:0:0:
475,192,68620,1,0,0:0:0:0:
256,192,68701,1,0,0:0:0:0:
329,192,68782,1,0,0:0:0:40:LR3_HiHat Normal.wav
402,192,68782,1,0,0:0:0:0:
109,192,68864,1,0,0:0:0:0:
402,192,68945,1,0,0:0:0:40:LR_Snare Normal.wav
182,192,68945,1,0,0:0:0:0:
256,192,68945,1,0,0:0:0:0:
36,192,69026,1,0,0:0:0:0:
182,192,69107,1,0,0:0:0:40:LR3_HiHat Normal.wav
256,192,69188,1,0,0:0:0:0:
329,192,69188,1,0,0:0:0:0:
402,192,69269,1,0,0:0:0:40:LR_Kick Hard Fast.wav
475,192,69269,1,0,0:0:0:0:
36,192,69269,128,0,69431:0:0:0:0:
475,192,69431,128,0,69593:0:0:0:40:LR3_HiHat Normal.wav
256,192,69431,1,0,0:0:0:0:
109,192,69593,128,0,69755:0:0:0:40:LR_Snare Normal.wav
256,192,69593,1,0,0:0:0:0:
36,192,69593,1,0,0:0:0:0:
402,192,69755,128,0,69918:0:0:0:40:LR3_HiHat Normal.wav
256,192,69755,1,0,0:0:0:0:
256,192,69918,128,0,70080:0:0:0:40:LR_Kick Hard Fast.wav
475,192,69918,1,0,0:0:0:0:
36,192,69918,1,0,0:0:0:0:
329,192,70080,1,0,0:0:0:40:LR3_HiHat Normal.wav
182,192,70080,1,0,0:0:0:0:
109,192,70080,1,0,0:0:0:0:
256,192,70161,1,0,0:0:0:0:
475,192,70161,1,0,0:0:0:0:
182,192,70242,1,0,0:0:0:40:LR_Snare Normal.wav
329,192,70242,1,0,0:0:0:0:
329,192,70404,1,0,0:0:0:40:LR3_HiHat Normal.wav
182,192,70404,1,0,0:0:0:0:
402,192,70566,1,0,0:0:0:40:LR_Kick Hard Fast.wav
36,192,70566,1,0,0:0:0:0:
182,192,70566,1,0,0:0:0:0:
256,192,70647,1,0,0:0:0:0:
329,192,70728,1,0,0:0:0:40:LR3_HiHat Normal.wav
256,192,70809,1,0,0:0:0:0:
402,192,70809,1,0,0:0:0:0:
475,192,70891,1,0,0:0:0:40:LR_Snare Normal.wav
109,192,70891,1,0,0:0:0:0:
36,192,70891,1,0,0:0:0:0:
182,192,70972,1,0,0:0:0:0:
256,192,71053,1,0,0:0:0:40:LR3_HiHat Normal.wav
329,192,71134,1,0,0:0:0:0:
109,192,71134,1,0,0:0:0:0:
36,192,71215,1,0,0:0:0:40:LR_Kick Hard Fast.wav
182,192,71215,1,0,0:0:0:0:
402,192,71215,1,0,0:0:0:0:
329,192,71296,1,0,0:0:0:0:
182,192,71377,1,0,0:0:0:40:LR3_HiHat Normal.wav
475,192,71377,1,0,0:0:0:0:
402,192,71458,1,0,0:0:0:0:
109,192,71539,1,0,0:0:0:40:LR_Snare Normal.wav
329,192,71539,1,0,0:0:0:0:
256,192,71539,1,0,0:0:0:0:
475,192,71620,1,0,0:0:0:0:
329,192,71701,1,0,0:0:0:40:LR3_HiHat Normal.wav
182,192,71782,1,0,0:0:0:0:
256,192,71782,1,0,0:0:0:0:
475,192,71864,128,0,72026:0:0:0:40:LR_Kick Hard Fast.wav
109,192,71864,1,0,0:0:0:0:
36,192,71864,1,0,0:0:0:0:
402,192,71864,1,0,0:0:0:0:
36,192,72026,128,0,72188:0:0:0:40:LR3_HiHat Normal.wav
109,192,72026,1,0,0:0:0:0:
256,192,72026,1,0,0:0:0:0:
475,192,72188,128,0,72350:0:0:0:40:LR_Snare Normal.wav
402,192,72188,1,0,0:0:0:0:
36,192,72350,128,0,72512:0:0:0:40:LR3_HiHat Normal.wav
109,192,72350,1,0,0:0:0:0:
329,192,72350,1,0,0:0:0:0:
475,192,72512,128,0,72674:0:0:0:40:LR_Kick Hard Fast.wav
256,192,72512,1,0,0:0:0:0:
329,192,72512,1,0,0:0:0:0:
182,192,72674,1,0,0:0:0:40:R_Chm J Whistle.wav
256,192,72674,1,0,0:0:0:0:
109,192,72674,1,0,0:0:0:0:
329,192,72755,1,0,0:0:0:40:R_Chm J Whistle.wav
402,192,72755,1,0,0:0:0:0:
256,192,72837,1,0,0:0:0:40:LR_Snare Normal.wav
182,192,72837,1,0,0:0:0:0:
182,192,72999,1,0,0:0:0:40:LR3_HiHat Normal.wav
256,192,72999,1,0,0:0:0:0:
475,192,73161,1,0,0:0:0:40:LR_Kick Hard Fast.wav
36,192,73161,1,0,0:0:0:0:
329,192,73161,1,0,0:0:0:0:
256,192,73323,1,0,0:0:0:40:LR3_HiHat Normal.wav
109,192,73485,1,0,0:0:0:40:LR_Snare Normal.wav
329,192,73485,1,0,0:0:0:0:
475,192,73485,1,0,0:0:0:0:
256,192,73647,1,0,0:0:0:40:LR_Kick Hard Fast.wav
256,192,73809,1,0,0:0:0:40:LR_Kick Hard Fast.wav
329,192,73972,1,0,0:0:0:40:LR3_HiHat Normal.wav
475,192,73972,1,0,0:0:0:0:
256,192,74134,1,0,0:0:0:40:LR_Snare Normal.wav
109,192,74134,1,0,0:0:0:0:
402,192,74134,1,0,0:0:0:0:
329,192,74296,1,0,0:0:0:40:LR_Kick Hard Fast.wav
182,192,74296,1,0,0:0:0:0:
256,192,74458,1,0,0:0:0:40:LR_Kick Hard Fast.wav
109,192,74620,1,0,0:0:0:40:LR_Snare Normal.wav
329,192,74620,1,0,0:0:0:0:
475,192,74620,1,0,0:0:0:0:
402,192,74782,1,0,0:0:0:40:LR_Snare Normal.wav
256,192,74782,1,0,0:0:0:0:
36,192,74782,1,0,0:0:0:0:
182,192,74782,1,0,0:0:0:0:
329,192,74945,1,0,0:0:0:40:LR_Kick Hard Fast.wav
182,192,75107,1,0,0:0:0:40:LR_Snare Normal.wav
109,192,75107,1,0,0:0:0:0:
475,192,75269,1,0,0:0:0:40:R_Chm J Whistle.wav
402,192,75269,1,0,0:0:0:0:
329,192,75350,1,0,0:0:0:40:R_Chm J Whistle.wav
256,192,75350,1,0,0:0:0:0:
182,192,75431,1,0,0:0:0:40:LR_Snare Normal.wav
109,192,75431,1,0,0:0:0:0:
475,192,75431,1,0,0:0:0:0:
256,192,75593,1,0,0:0:0:40:LR3_HiHat Normal.wav
329,192,75593,1,0,0:0:0:0:
475,192,75755,1,0,0:0:0:40:LR_Kick Hard Fast.wav
109,192,75755,1,0,0:0:0:0:
256,192,75755,1,0,0:0:0:0:
109,192,75918,1,0,0:0:0:40:LR3_HiHat Normal.wav
256,192,75918,1,0,0:0:0:0:
402,192,76080,1,0,0:0:0:40:LR_Kick Hard Fast.wav
329,192,76080,1,0,0:0:0:0:
36,192,76080,1,0,0:0:0:0:
256,192,76242,1,0,0:0:0:40:LR3_HiHat Normal.wav
329,192,76323,1,0,0:0:0:0:
475,192,76323,1,0,0:0:0:0:
402,192,76404,1,0,0:0:0:40:LR_Kick Hard Fast.wav
182,192,76404,1,0,0:0:0:0:
36,192,76404,1,0,0:0:0:0:
256,192,76566,1,0,0:0:0:40:LR3_HiHat Normal.wav
475,192,76728,1,0,0:0:0:40:LR_Kick Hard Fast.wav
182,192,76728,1,0,0:0:0:0:
402,192,76728,1,0,0:0:0:0:
256,192,76891,1,0,0:0:0:40:LR3_HiHat Normal.wav
329,192,76891,1,0,0:0:0:0:
36,192,77053,128,0,77215:0:0:0:40:LR_Kick Hard Fast.wav
475,192,77053,128,0,77215:0:0:0:40:LR_CymbalQST.wav
256,192,77053,1,0,0:0:0:0:
402,192,77215,1,0,0:0:0:0:
36,192,77377,128,0,77539:0:0:0:40:LR_Kick Hard Fast.wav
475,192,77377,128,0,77539:0:0:0:40:LR_CymbalQST.wav
256,192,77377,1,0,0:0:0:0:
109,192,77539,1,0,0:0:0:0:
475,192,77701,128,0,78350:0:0:0:40:LR_Kick Hard Fast.wav
256,192,77701,1,0,0:0:0:40:LR_CymbalQST.wav
182,192,77701,1,0,0:0:0:0:
36,192,77701,128,0,78350:0:0:0:0:
329,192,77945,1,0,0:0:0:40:LR_Snare Normal.wav
402,192,77945,1,0,0:0:0:0:
256,192,78026,1,0,0:0:0:40:LR_Snare Normal.wav
182,192,78026,1,0,0:0:0:0:
402,192,78026,1,0,0:0:0:0:
182,192,78188,1,0,0:0:0:40:LR_Snare Normal.wav
109,192,78188,1,0,0:0:0:0:
402,192,78350,1,0,0:0:0:40:LR_Kick Hard Fast.wav
329,192,78350,1,0,0:0:0:0:
109,192,78350,1,0,0:0:0:0:
256,192,78431,1,0,0:0:0:0:
329,192,78512,1,0,0:0:0:40:LR3_HiHat Normal.wav
402,192,78593,1,0,0:0:0:0:
256,192,78593,1,0,0:0:0:0:
475,192,78674,1,0,0:0:0:40:LR_Snare Normal.wav
109,192,78674,1,0,0:0:0:0:
36,192,78674,1,0,0:0:0:0:
182,192,78755,1,0,0:0:0:0:
256,192,78837,1,0,0:0:0:40:LR3_HiHat Normal.wav
475,192,78837,1,0,0:0:0:0:
329,192,78918,1,0,0:0:0:0:
109,192,78918,1,0,0:0:0:0:
36,192,78999,1,0,0:0:0:40:LR_Kick Hard Fast.wav
402,192,78999,1,0,0:0:0:0:
182,192,78999,1,0,0:0:0:0:
256,192,79080,1,0,0:0:0:0:
182,192,79161,1,0,0:0:0:40:LR3_HiHat Normal.wav
475,192,79161,1,0,0:0:0:0:
402,192,79242,1,0,0:0:0:0:
36,192,79242,1,0,0:0:0:0:
109,192,79323,1,0,0:0:0:40:LR_Snare Normal.wav
329,192,79323,1,0,0:0:0:0:
475,192,79404,1,0,0:0:0:0:
256,192,79404,1,0,0:0:0:0:
329,192,79485,1,0,0:0:0:40:LR3_HiHat Normal.wav
256,192,79566,1,0,0:0:0:0:
182,192,79566,1,0,0:0:0:0:
402,192,79647,1,0,0:0:0:40:LR_Kick Hard Fast.wav
329,192,79647,1,0,0:0:0:0:
109,192,79647,128,0,79809:0:0:0:0:
36,192,79647,1,0,0:0:0:0:
402,192,79809,128,0,79972:0:0:0:40:LR3_HiHat Normal.wav
475,192,79809,1,0,0:0:0:0:
109,192,79972,128,0,80134:0:0:0:40:LR_Snare Normal.wav
182,192,79972,1,0,0:0:0:0:
256,192,80053,1,0,0:0:0:0:
402,192,80134,128,0,80296:0:0:0:40:LR3_HiHat Normal.wav
329,192,80134,1,0,0:0:0:0:
109,192,80296,128,0,80458:0:0:0:40:LR_Kick Hard Fast.wav
182,192,80296,1,0,0:0:0:0:
256,192,80296,1,0,0:0:0:0:
475,192,80458,1,0,0:0:0:40:LR_Snare Normal.wav
36,192,80458,1,0,0:0:0:0:
402,192,80499,1,0,0:0:0:40:ride.wav
329,192,80539,1,0,0:0:0:40:LR_Snare Normal.wav
256,192,80580,1,0,0:0:0:0:
182,192,80620,1,0,0:0:0:40:LR_Snare Normal.wav
475,192,80620,1,0,0:0:0:0:
36,192,80620,1,0,0:0:0:0:
182,192,80782,1,0,0:0:0:40:LR3_HiHat Normal.wav
36,192,80782,1,0,0:0:0:0:
36,192,80945,1,0,0:0:0:40:LR_Kick Hard Fast.wav
182,192,80945,1,0,0:0:0:0:
402,192,80945,1,0,0:0:0:0:
109,192,81026,1,0,0:0:0:0:
256,192,81107,1,0,0:0:0:40:LR3_HiHat Normal.wav
329,192,81107,1,0,0:0:0:0:
402,192,81188,1,0,0:0:0:0:
36,192,81269,1,0,0:0:0:40:LR_Snare Normal.wav
256,192,81269,1,0,0:0:0:0:
475,192,81269,1,0,0:0:0:0:
182,192,81350,1,0,0:0:0:0:
329,192,81431,1,0,0:0:0:40:LR3_HiHat Normal.wav
475,192,81512,1,0,0:0:0:0:
109,192,81512,1,0,0:0:0:0:
329,192,81593,1,0,0:0:0:40:LR_Kick Hard Fast.wav
36,192,81593,1,0,0:0:0:0:
402,192,81593,1,0,0:0:0:0:
256,192,81674,1,0,0:0:0:0:
182,192,81755,1,0,0:0:0:40:LR3_HiHat Normal.wav
402,192,81837,1,0,0:0:0:0:
256,192,81837,1,0,0:0:0:0:
109,192,81918,1,0,0:0:0:40:LR_Snare Normal.wav
475,192,81918,1,0,0:0:0:0:
182,192,81999,1,0,0:0:0:0:
402,192,82080,1,0,0:0:0:40:LR3_HiHat Normal.wav
329,192,82080,1,0,0:0:0:0:
256,192,82161,1,0,0:0:0:0:
182,192,82161,1,0,0:0:0:0:
109,192,82242,1,0,0:0:0:40:LR_Kick Hard Fast.wav
475,192,82242,128,0,82404:0:0:0:0:
402,192,82242,1,0,0:0:0:0:
256,192,82323,1,0,0:0:0:0:
402,192,82404,128,0,82566:0:0:0:40:LR3_HiHat Normal.wav
329,192,82404,1,0,0:0:0:0:
182,192,82485,1,0,0:0:0:0:
329,192,82566,128,0,82728:0:0:0:40:LR_Snare Normal.wav
256,192,82566,1,0,0:0:0:0:
109,192,82647,1,0,0:0:0:0:
256,192,82728,128,0,82891:0:0:0:40:LR_Kick Hard Fast.wav
475,192,82728,1,0,0:0:0:0:
36,192,82728,1,0,0:0:0:0:
109,192,82809,1,0,0:0:0:40:LR_Kick Hard Fast.wav
402,192,82809,1,0,0:0:0:0:
475,192,82891,1,0,0:0:0:40:LR_Snare Normal.wav
36,192,82891,1,0,0:0:0:0:
329,192,82891,1,0,0:0:0:0:
182,192,82891,1,0,0:0:0:0:
402,192,83053,1,0,0:0:0:40:LR3_HiHat Normal.wav
109,192,83053,1,0,0:0:0:0:
329,192,83215,1,0,0:0:0:40:LR_Snare Normal.wav
182,192,83215,1,0,0:0:0:0:
256,192,83377,1,0,0:0:0:40:LR3_HiHat Normal.wav
256,192,83539,1,0,0:0:0:40:LR_Kick Hard Fast.wav
402,192,83539,1,0,0:0:0:0:
109,192,83539,1,0,0:0:0:0:
475,192,83539,1,0,0:0:0:0:
329,192,83701,1,0,0:0:0:40:LR_Kick Hard Fast.wav
182,192,83701,1,0,0:0:0:0:
402,192,83864,1,0,0:0:0:40:LR_Snare Normal.wav
256,192,83864,1,0,0:0:0:0:
36,192,83864,1,0,0:0:0:0:
475,192,84026,1,0,0:0:0:0:
402,192,84026,1,0,0:0:0:0:
36,192,84188,1,0,0:0:0:40:LR_Kick Hard Fast.wav
109,192,84188,1,0,0:0:0:0:
402,192,84350,1,0,0:0:0:40:LR3_HiHat Normal.wav
256,192,84350,1,0,0:0:0:0:
329,192,84512,1,0,0:0:0:40:LR_Kick Hard Fast.wav
182,192,84512,1,0,0:0:0:0:
36,192,84512,1,0,0:0:0:0:
109,192,84512,1,0,0:0:0:0:
402,192,84674,1,0,0:0:0:40:LR_Snare Normal.wav
475,192,84674,1,0,0:0:0:0:
329,192,84837,1,0,0:0:0:0:
256,192,84999,1,0,0:0:0:40:LR3_HiHat Normal.wav
109,192,84999,1,0,0:0:0:0:
329,192,85161,1,0,0:0:0:40:LR_Kick Hard Fast.wav
475,192,85161,1,0,0:0:0:0:
36,192,85161,1,0,0:0:0:0:
182,192,85161,1,0,0:0:0:0:
402,192,85323,1,0,0:0:0:40:LR3_HiHat Normal.wav
475,192,85323,1,0,0:0:0:0:
109,192,85485,1,0,0:0:0:40:LR_Snare Normal.wav
36,192,85485,1,0,0:0:0:0:
256,192,85647,1,0,0:0:0:40:LR_Snare Normal.wav
402,192,85647,1,0,0:0:0:0:
182,192,85728,1,0,0:0:0:40:LR_Snare Normal.wav
329,192,85728,1,0,0:0:0:0:
475,192,85809,1,0,0:0:0:40:LR_Snare Normal.wav
402,192,85809,1,0,0:0:0:0:
109,192,85809,1,0,0:0:0:0:
475,192,85972,1,0,0:0:0:40:LR3_HiHat Normal.wav
402,192,85972,1,0,0:0:0:0:
475,192,86134,1,0,0:0:0:40:LR_Kick Hard Fast.wav
402,192,86134,1,0,0:0:0:0:
256,192,86134,1,0,0:0:0:0:
182,192,86296,1,0,0:0:0:40:LR3_HiHat Normal.wav
109,192,86296,1,0,0:0:0:0:
256,192,86377,1,0,0:0:0:0:
182,192,86458,1,0,0:0:0:40:LR_Snare Normal.wav
329,192,86458,1,0,0:0:0:0:
475,192,86458,1,0,0:0:0:0:
36,192,86458,1,0,0:0:0:0:
109,192,86620,1,0,0:0:0:40:LR3_HiHat Normal.wav
256,192,86620,1,0,0:0:0:0:
329,192,86701,1,0,0:0:0:0:
182,192,86701,1,0,0:0:0:0:
256,192,86782,1,0,0:0:0:40:LR_Kick Hard Fast.wav
36,192,86782,1,0,0:0:0:0:
402,192,86782,1,0,0:0:0:0:
475,192,86864,1,0,0:0:0:0:
402,192,86945,1,0,0:0:0:40:LR3_HiHat Normal.wav
256,192,86945,1,0,0:0:0:0:
329,192,87107,1,0,0:0:0:40:LR_Snare Normal.wav
182,192,87107,1,0,0:0:0:0:
36,192,87107,1,0,0:0:0:0:
475,192,87107,1,0,0:0:0:0:
256,192,87431,1,0,0:0:0:40:LR_Kick Hard Fast.wav
402,192,87431,128,0,87674:0:0:0:40:LR_CymbalQST.wav
109,192,87431,1,0,0:0:0:0:
36,192,87674,1,0,0:0:0:0:
402,192,87755,128,0,87999:0:0:0:40:LR_Kick Hard Fast.wav
256,192,87755,1,0,0:0:0:40:LR_CymbalQST.wav
109,192,87755,1,0,0:0:0:0:
36,192,87755,1,0,0:0:0:0:
475,192,88080,128,0,88728:0:0:0:40:LR_Kick Hard Fast.wav
256,192,88080,1,0,0:0:0:40:LR_CymbalQST.wav
329,192,88080,1,0,0:0:0:0:
402,192,88080,1,0,0:0:0:0:
109,192,88242,1,0,0:0:0:40:LR_Snare Normal.wav
36,192,88242,1,0,0:0:0:0:
182,192,88323,1,0,0:0:0:40:LR_Snare Normal.wav
256,192,88323,1,0,0:0:0:0:
329,192,88404,1,0,0:0:0:40:LR_Snare Normal.wav
402,192,88404,1,0,0:0:0:0:
256,192,88566,1,0,0:0:0:40:LR_Snare Normal.wav
182,192,88566,1,0,0:0:0:0:
36,192,88728,1,0,0:0:0:40:LR_Snare Normal.wav
329,192,88728,1,0,0:0:0:40:LR_CymbalQST.wav
182,192,88728,1,0,0:0:0:0:
402,192,88728,1,0,0:0:0:0:
256,192,89053,1,0,0:0:0:0:
256,192,89377,1,0,0:0:0:40:Taiko 2.wav
256,192,89701,1,0,0:0:0:40:Taiko 2.wav
329,192,90026,1,0,0:0:0:40:LR_Snare Normal.wav
256,192,90026,1,0,0:0:0:40:LR_CymbalQST.wav
109,192,90026,1,0,0:0:0:0:
36,192,90026,1,0,0:0:0:0:
475,192,90026,1,0,0:0:0:0:
256,192,90350,1,0,0:0:0:40:Taiko 2.wav
256,192,90674,1,0,0:0:0:40:Taiko 2.wav
256,192,90999,1,0,0:0:0:40:Taiko 2.wav
36,192,91323,1,0,0:0:0:40:Taiko 3.wav
182,192,91323,1,0,0:0:0:0:
256,192,91323,1,0,0:0:0:0:
402,192,91323,1,0,0:0:0:0:
256,192,91485,1,0,0:0:0:40:LR_Snare Normal.wav
329,192,91485,1,0,0:0:0:40:Taiko 3.wav
36,192,91485,1,0,0:0:0:0:
475,192,91485,1,0,0:0:0:0:
36,192,91972,1,0,0:0:0:40:LR_Snare Normal.wav
256,192,91972,1,0,0:0:0:40:Taiko 3.wav
402,192,91972,1,0,0:0:0:0:
329,192,91972,1,0,0:0:0:0:
36,192,92134,1,0,0:0:0:40:LR_Snare Normal.wav
182,192,92134,1,0,0:0:0:40:Taiko 3.wav
256,192,92134,1,0,0:0:0:0:
475,192,92134,1,0,0:0:0:0:
475,192,92620,1,0,0:0:0:40:LR_Snare Normal.wav
256,192,92620,1,0,0:0:0:40:Taiko 3.wav
36,192,92620,1,0,0:0:0:0:
402,192,92620,1,0,0:0:0:0:
109,192,92701,1,0,0:0:0:0:
182,192,92782,1,0,0:0:0:0:
329,192,92782,1,0,0:0:0:0:
256,192,92864,1,0,0:0:0:0:
475,192,92864,1,0,0:0:0:0:
402,192,92945,1,0,0:0:0:40:LR_Snare Normal.wav
182,192,92945,1,0,0:0:0:40:Taiko 3.wav
256,192,93026,1,0,0:0:0:0:
36,192,93026,1,0,0:0:0:0:
329,192,93107,1,0,0:0:0:0:
182,192,93107,1,0,0:0:0:0:
475,192,93188,1,0,0:0:0:0:
36,192,93188,1,0,0:0:0:0:
402,192,93269,1,0,0:0:0:40:LR_Snare Normal.wav
256,192,93269,1,0,0:0:0:40:Taiko 3.wav
109,192,93269,1,0,0:0:0:0:
402,192,93431,1,0,0:0:0:40:Taiko 2.wav
256,192,93431,1,0,0:0:0:0:
109,192,93431,1,0,0:0:0:0:
402,192,93593,1,0,0:0:0:40:LR_Snare Normal.wav
256,192,93593,1,0,0:0:0:40:Taiko 3.wav
109,192,93593,1,0,0:0:0:0:
402,192,93755,1,0,0:0:0:40:R_Chm J Whistle.wav
256,192,93755,1,0,0:0:0:0:
109,192,93755,1,0,0:0:0:0:
402,192,93918,1,0,0:0:0:40:LR_Snare Normal.wav
256,192,93918,1,0,0:0:0:40:Taiko 3.wav
109,192,93918,1,0,0:0:0:0:
475,192,93918,128,0,95215:0:0:0:0:
36,192,93918,128,0,95215:0:0:0:0:
256,192,94566,1,0,0:0:0:40:Taiko 3.wav
256,192,94728,128,0,95053:0:0:0:40:Taiko 2.wav
402,192,95053,1,0,0:0:0:40:LR3_HiHat Normal.wav
109,192,95053,1,0,0:0:0:0:
182,192,95215,1,0,0:0:0:0:
329,192,95215,1,0,0:0:0:0:
256,192,95377,1,0,0:0:0:40:LR3_HiHat Normal.wav
329,192,95377,1,0,0:0:0:0:
475,192,95539,1,0,0:0:0:40:LR_Snare Normal.wav
256,192,95539,1,0,0:0:0:0:
36,192,95539,1,0,0:0:0:0:
329,192,95701,1,0,0:0:0:40:LR3_HiHat Normal.wav
402,192,95864,1,0,0:0:0:40:LR_Snare Normal.wav
256,192,95864,1,0,0:0:0:40:Taiko 3.wav
109,192,95864,1,0,0:0:0:0:
36,192,95945,1,0,0:0:0:0:
182,192,95945,1,0,0:0:0:0:
329,192,96026,1,0,0:0:0:40:LR3_HiHat Normal.wav
475,192,96026,1,0,0:0:0:0:
182,192,96107,1,0,0:0:0:0:
36,192,96107,1,0,0:0:0:0:
256,192,96188,1,0,0:0:0:40:LR_Snare Normal.wav
402,192,96188,1,0,0:0:0:40:Taiko 3.wav
109,192,96188,1,0,0:0:0:0:
256,192,96350,1,0,0:0:0:40:LR3_HiHat Normal.wav
475,192,96512,1,0,0:0:0:40:LR3_HiHat Normal.wav
329,192,96512,1,0,0:0:0:40:R_Chm J Whistle.wav
36,192,96512,1,0,0:0:0:0:
109,192,96512,1,0,0:0:0:0:
182,192,96593,1,0,0:0:0:40:R_Chm J Whistle.wav
256,192,96674,1,0,0:0:0:40:R_Chm J Whistle.wav
475,192,96674,1,0,0:0:0:0:
329,192,96755,1,0,0:0:0:40:R_Chm J Whistle.wav
402,192,96837,1,0,0:0:0:40:LR3_HiHat Normal.wav
36,192,96837,1,0,0:0:0:40:R_Chm J Whistle.wav
256,192,96837,1,0,0:0:0:0:
109,192,96918,1,0,0:0:0:0:
182,192,96999,1,0,0:0:0:40:LR3_HiHat Normal.wav
402,192,96999,1,0,0:0:0:40:R_Chm J Whistle.wav
256,192,97080,1,0,0:0:0:40:R_Chm J Whistle.wav
475,192,97080,1,0,0:0:0:0:
329,192,97161,1,0,0:0:0:40:R_Chm J Whistle.wav
182,192,97161,1,0,0:0:0:0:
402,192,97161,1,0,0:0:0:0:
256,192,97242,1,0,0:0:0:40:R_Chm J Whistle.wav
36,192,97242,1,0,0:0:0:0:
329,192,97323,1,0,0:0:0:40:LR3_HiHat Normal.wav
182,192,97323,1,0,0:0:0:40:R_Chm J Whistle.wav
402,192,97404,1,0,0:0:0:0:
109,192,97404,1,0,0:0:0:0:
36,192,97485,1,0,0:0:0:40:R_Chm J Whistle.wav
256,192,97485,1,0,0:0:0:40:Taiko 2.wav
182,192,97485,128,0,97647:0:0:0:0:
475,192,97485,1,0,0:0:0:0:
329,192,97566,1,0,0:0:0:0:
402,192,97647,1,0,0:0:0:40:Taiko 2.wav
109,192,97647,1,0,0:0:0:0:
182,192,97809,1,0,0:0:0:40:R_Chm J Whistle.wav
109,192,97809,1,0,0:0:0:40:Taiko 2.wav
329,192,97809,128,0,97972:0:0:0:0:
475,192,97809,1,0,0:0:0:0:
256,192,97891,1,0,0:0:0:0:
36,192,97972,128,0,98053:0:0:0:40:LR3_HiHat Normal.wav
402,192,97972,128,0,98134:0:0:0:0:
182,192,97972,1,0,0:0:0:0:
36,192,98134,128,0,98215:0:0:0:40:LR3_HiHat Normal.wav
256,192,98134,128,0,98296:0:0:0:0:
475,192,98134,1,0,0:0:0:0:
36,192,98296,128,0,98377:0:0:0:0:
329,192,98296,128,0,98458:0:0:0:0:
402,192,98296,1,0,0:0:0:0:
475,192,98377,1,0,0:0:0:0:
36,192,98458,128,0,98539:0:0:0:40:R_Chm J Whistle.wav
182,192,98458,128,0,98620:0:0:0:0:
256,192,98458,1,0,0:0:0:0:
475,192,98539,1,0,0:0:0:40:R_Chm J Whistle.wav
329,192,98620,128,0,98782:0:0:0:40:R_Chm J Whistle.wav
402,192,98620,1,0,0:0:0:0:
475,192,98782,128,0,99107:0:0:0:40:LR3_HiHat Normal.wav
256,192,98782,1,0,0:0:0:0:
109,192,98782,1,0,0:0:0:0:
182,192,98945,1,0,0:0:0:40:LR3_HiHat Normal.wav
329,192,98945,1,0,0:0:0:0:
256,192,99107,1,0,0:0:0:40:LR3_HiHat Normal.wav
36,192,99107,1,0,0:0:0:40:R_Chm J Whistle.wav
402,192,99107,1,0,0:0:0:0:
109,192,99188,1,0,0:0:0:40:R_Chm J Whistle.wav
329,192,99188,1,0,0:0:0:0:
182,192,99269,1,0,0:0:0:40:R_Chm J Whistle.wav
402,192,99269,1,0,0:0:0:0:
329,192,99350,1,0,0:0:0:40:R_Chm J Whistle.wav
475,192,99431,1,0,0:0:0:40:LR3_HiHat Normal.wav
182,192,99431,1,0,0:0:0:40:R_Chm J Whistle.wav
36,192,99431,1,0,0:0:0:0:
402,192,99512,1,0,0:0:0:0:
256,192,99593,1,0,0:0:0:40:LR3_HiHat Normal.wav
475,192,99593,1,0,0:0:0:40:R_Chm J Whistle.wav
109,192,99674,1,0,0:0:0:40:R_Chm J Whistle.wav
329,192,99674,1,0,0:0:0:0:
36,192,99755,1,0,0:0:0:40:R_Chm J Whistle.wav
475,192,99755,1,0,0:0:0:0:
256,192,99755,1,0,0:0:0:0:
182,192,99837,1,0,0:0:0:40:R_Chm J Whistle.wav
402,192,99837,1,0,0:0:0:0:
256,192,99918,1,0,0:0:0:40:LR3_HiHat Normal.wav
109,192,99918,1,0,0:0:0:40:R_Chm J Whistle.wav
329,192,99999,1,0,0:0:0:0:
182,192,100080,1,0,0:0:0:40:LR3_HiHat Normal.wav
475,192,100080,1,0,0:0:0:0:
36,192,100080,128,0,100242:0:0:0:0:
182,192,100242,128,0,100404:0:0:0:40:R_Chm J Whistle.wav
329,192,100242,1,0,0:0:0:0:
475,192,100404,128,0,100566:0:0:0:40:LR3_HiHat Normal.wav
109,192,100404,1,0,0:0:0:0:
402,192,100404,1,0,0:0:0:0:
36,192,100566,128,0,100728:0:0:0:40:R_Chm J Whistle.wav
182,192,100566,1,0,0:0:0:0:
329,192,100566,1,0,0:0:0:0:
256,192,100647,1,0,0:0:0:0:
475,192,100728,128,0,100891:0:0:0:40:LR3_HiHat Normal.wav
182,192,100728,1,0,0:0:0:0:
329,192,100728,1,0,0:0:0:0:
402,192,100728,1,0,0:0:0:0:
256,192,100891,1,0,0:0:0:40:R_Chm J Whistle.wav
36,192,100891,128,0,101053:0:0:0:0:
256,192,101053,1,0,0:0:0:40:LR3_HiHat Normal.wav
402,192,101053,1,0,0:0:0:0:
109,192,101053,1,0,0:0:0:0:
182,192,101215,1,0,0:0:0:40:Taiko 2.wav
475,192,101215,1,0,0:0:0:0:
402,192,101296,1,0,0:0:0:40:Taiko 2.wav
256,192,101377,1,0,0:0:0:40:Taiko 2.wav
109,192,101377,1,0,0:0:0:0:
475,192,101377,1,0,0:0:0:0:
256,192,101539,1,0,0:0:0:40:LR3_HiHat Normal.wav
329,192,101539,1,0,0:0:0:0:
109,192,101701,1,0,0:0:0:40:LR3_HiHat Normal.wav
402,192,101701,1,0,0:0:0:40:R_Chm J Whistle.wav
475,192,101701,1,0,0:0:0:0:
329,192,101782,1,0,0:0:0:40:R_Chm J Whistle.wav
182,192,101782,1,0,0:0:0:0:
475,192,101864,1,0,0:0:0:40:R_Chm J Whistle.wav
256,192,101864,1,0,0:0:0:0:
36,192,101864,1,0,0:0:0:0:
329,192,101945,1,0,0:0:0:40:R_Chm J Whistle.wav
182,192,102026,1,0,0:0:0:40:LR3_HiHat Normal.wav
36,192,102026,1,0,0:0:0:0:
402,192,102026,1,0,0:0:0:0:
256,192,102107,1,0,0:0:0:0:
475,192,102188,1,0,0:0:0:40:LR3_HiHat Normal.wav
329,192,102188,1,0,0:0:0:40:R_Chm J Whistle.wav
109,192,102188,1,0,0:0:0:0:
182,192,102269,1,0,0:0:0:40:R_Chm J Whistle.wav
402,192,102350,1,0,0:0:0:40:R_Chm J Whistle.wav
256,192,102350,1,0,0:0:0:0:
36,192,102350,1,0,0:0:0:0:
182,192,102431,1,0,0:0:0:40:R_Chm J Whistle.wav
475,192,102512,1,0,0:0:0:40:LR3_HiHat Normal.wav
329,192,102512,1,0,0:0:0:40:R_Chm J Whistle.wav
36,192,102512,1,0,0:0:0:0:
182,192,102593,1,0,0:0:0:0:
475,192,102674,1,0,0:0:0:40:LR3_HiHat Normal.wav
256,192,102674,1,0,0:0:0:0:
36,192,102674,1,0,0:0:0:0:
329,192,102755,1,0,0:0:0:0:
109,192,102755,1,0,0:0:0:0:
475,192,102837,1,0,0:0:0:40:R_Chm J Whistle.wav
182,192,102837,1,0,0:0:0:0:
329,192,102918,1,0,0:0:0:0:
109,192,102918,1,0,0:0:0:0:
475,192,102999,1,0,0:0:0:40:LR3_HiHat Normal.wav
256,192,102999,1,0,0:0:0:0:
36,192,102999,1,0,0:0:0:0:
329,192,103080,1,0,0:0:0:0:
36,192,103161,1,0,0:0:0:40:R_Chm J Whistle.wav
475,192,103161,1,0,0:0:0:40:Taiko 2.wav
402,192,103161,1,0,0:0:0:0:
109,192,103201,1,0,0:0:0:0:
182,192,103242,1,0,0:0:0:0:
256,192,103282,1,0,0:0:0:0:
36,192,103323,1,0,0:0:0:40:LR3_HiHat Normal.wav
475,192,103323,1,0,0:0:0:0:
329,192,103323,1,0,0:0:0:0:
182,192,103404,1,0,0:0:0:0:
36,192,103485,1,0,0:0:0:40:R_Chm J Whistle.wav
475,192,103485,1,0,0:0:0:40:Taiko 2.wav
109,192,103526,1,0,0:0:0:0:
182,192,103566,1,0,0:0:0:0:
256,192,103607,1,0,0:0:0:0:
475,192,103647,1,0,0:0:0:40:LR3_HiHat Normal.wav
36,192,103647,1,0,0:0:0:0:
329,192,103647,1,0,0:0:0:0:
182,192,103728,1,0,0:0:0:0:
475,192,103809,1,0,0:0:0:40:LR3_HiHat Normal.wav
329,192,103809,1,0,0:0:0:40:R_Chm J Whistle.wav
256,192,103891,1,0,0:0:0:0:
109,192,103891,1,0,0:0:0:0:
475,192,103972,1,0,0:0:0:0:
36,192,103972,1,0,0:0:0:0:
402,192,104012,1,0,0:0:0:0:
329,192,104053,1,0,0:0:0:0:
256,192,104080,1,0,0:0:0:0:
109,192,104134,1,0,0:0:0:40:LR3_HiHat Normal.wav
182,192,104134,1,0,0:0:0:40:R_Chm J Whistle.wav
329,192,104215,1,0,0:0:0:0:
402,192,104215,1,0,0:0:0:0:
36,192,104296,1,0,0:0:0:40:LR_CymbalQST.wav
182,192,104296,1,0,0:0:0:0:
109,192,104296,1,0,0:0:0:0:
256,192,104296,1,0,0:0:0:0:
109,192,104945,1,0,0:0:0:40:LR_CymbalQST.wav
182,192,104945,1,0,0:0:0:0:
329,192,104945,1,0,0:0:0:0:
475,192,104945,1,0,0:0:0:0:
256,192,105431,1,0,0:0:0:40:LR_CymbalQST.wav
182,192,105431,1,0,0:0:0:0:
36,192,105431,1,0,0:0:0:0:
475,192,105431,1,0,0:0:0:0:
402,192,105431,1,0,0:0:0:0:
402,192,105755,1,0,0:0:0:40:LR_CymbalQST.wav
256,192,105755,1,0,0:0:0:0:
109,192,105755,1,0,0:0:0:0:
36,192,105755,1,0,0:0:0:0:
109,192,105918,1,0,0:0:0:40:LR_CymbalQST.wav
182,192,105918,1,0,0:0:0:0:
329,192,105918,1,0,0:0:0:0:
475,192,105918,1,0,0:0:0:0:
256,192,106242,1,0,0:0:0:40:R_Chm J Whistle.wav
256,192,106566,1,0,0:0:0:40:R_Chm J Whistle.wav
256,192,106891,1,0,0:0:0:40:R_Chm J Whistle.wav
256,192,107215,1,0,0:0:0:40:R_Chm J Whistle.wav
256,192,107539,1,0,0:0:0:40:R_Chm J Whistle.wav
475,192,107701,1,0,0:0:0:40:R_Chm J Whistle.wav
402,192,107701,1,0,0:0:0:0:
329,192,107742,1,0,0:0:0:0:
256,192,107782,1,0,0:0:0:40:R_Chm J Whistle.wav
182,192,107823,1,0,0:0:0:0:
475,192,107864,1,0,0:0:0:40:R_Chm J Whistle.wav
109,192,107864,1,0,0:0:0:0:
36,192,107864,1,0,0:0:0:0:
329,192,107864,1,0,0:0:0:0:
109,192,108026,1,0,0:0:0:40:LR_CymbalQST.wav
475,192,108026,1,0,0:0:0:0:
256,192,108026,128,0,113377:0:0:0:0:
402,192,108026,1,0,0:0:0:0:
182,192,108026,1,0,0:0:0:0:
475,192,113377,128,0,113864:0:0:0:40:LR_CymbalQST.wav
329,192,113377,1,0,0:0:0:0:
182,192,113377,1,0,0:0:0:0:
36,192,113377,128,0,113864:0:0:0:0:
