osu file format v14

[General]
AudioFilename: Otaser Revolution.mp3
AudioLeadIn: 0
PreviewTime: 67871
Countdown: 0
SampleSet: Normal
StackLeniency: 0.7
Mode: 3
LetterboxInBreaks: 0
SpecialStyle: 0
WidescreenStoryboard: 0

[Editor]
Bookmarks: 22506
DistanceSpacing: 1
BeatDivisor: 4
GridSize: 8
TimelineZoom: 1.5

[Metadata]
Title:Otaser*Revolution
TitleUnicode:オタサー☆レボリューション
Artist:ARM(IOSYS) feat. miko & kimu
ArtistUnicode:ARM(IOSYS) feat. miko & キム
Creator:LeMouth
Version:7K HD
Source:REFLEC BEAT groovin'!!
Tags:bemani yoshimi youno -troke- phantom wyvern huwatcoolhensem valentrixe pharos21 jomnhnk
BeatmapID:632827
BeatmapSetID:245678

[Difficulty]
HPDrainRate:7
CircleSize:7
OverallDifficulty:8
ApproachRate:5
SliderMultiplier:1.6
SliderTickRate:2

[Events]
//Background and Video events
0,0,"touhou1023.jpg",0,0
//Break Periods
//Storyboard Layer 0 (Background)
//Storyboard Layer 1 (Fail)
//Storyboard Layer 2 (Pass)
//Storyboard Layer 3 (Foreground)
//Storyboard Sound Samples

[TimingPoints]
1810,324.324324324324,4,1,1,30,1,0
66614,-100,4,2,0,30,0,0
67587,-100,4,1,1,30,0,0
67891,-100,4,2,0,20,0,0
67972,-100,4,1,1,20,0,1
88728,-100,4,1,1,20,0,0

[HitObjects]
329,192,1810,5,0,0:0:0:40:LR3_HiHat Normal.wav
475,192,1810,1,0,0:0:0:40:
182,192,1891,1,0,0:0:0:40:R_Chm J Whistle.wav
109,192,1972,1,0,0:0:0:40:R_Chm J Whistle.wav
182,192,2053,1,0,0:0:0:40:R_Chm J Whistle.wav
256,192,2134,1,0,0:0:0:40:LR3_HiHat Normal.wav
182,192,2296,1,0,0:0:0:40:LR3_HiHat Normal.wav
329,192,2377,1,0,0:0:0:40:R_Chm J Whistle.wav
402,192,2458,1,0,0:0:0:40:R_Chm J Whistle.wav
329,192,2539,1,0,0:0:0:40:R_Chm J Whistle.wav
256,192,2620,1,0,0:0:0:40:LR3_HiHat Normal.wav
36,192,2782,128,0,2945:0:0:0:40:LR3_HiHat Normal.wav
182,192,2945,1,0,0:0:0:40:R_Chm J Whistle.wav
109,192,3107,128,0,3269:0:0:0:40:LR3_HiHat Normal.wav
256,192,3269,1,0,0:0:0:40:R_Chm J Whistle.wav
256,192,3431,128,0,3593:0:0:0:40:LR3_HiHat Normal.wav
402,192,3593,1,0,0:0:0:40:R_Chm J Whistle.wav
329,192,3755,1,0,0:0:0:40:LR3_HiHat Normal.wav
475,192,3837,1,0,0:0:0:0:
329,192,3918,1,0,0:0:0:40:LR3_HiHat Normal.wav
256,192,4080,1,0,0:0:0:40:LR3_HiHat Normal.wav
109,192,4404,1,0,0:0:0:40:LR3_HiHat Normal.wav
329,192,4485,1,0,0:0:0:40:R_Chm J Whistle.wav
256,192,4566,1,0,0:0:0:40:R_Chm J Whistle.wav
182,192,4647,1,0,0:0:0:40:R_Chm J Whistle.wav
109,192,4728,1,0,0:0:0:40:LR3_HiHat Normal.wav
256,192,4891,1,0,0:0:0:40:LR3_HiHat Normal.wav
402,192,4972,1,0,0:0:0:40:R_Chm J Whistle.wav
329,192,5053,1,0,0:0:0:40:R_Chm J Whistle.wav
256,192,5134,1,0,0:0:0:40:R_Chm J Whistle.wav
182,192,5215,1,0,0:0:0:40:LR3_HiHat Normal.wav
36,192,5377,128,0,5539:0:0:0:40:LR3_HiHat Normal.wav
182,192,5539,1,0,0:0:0:40:R_Chm J Whistle.wav
36,192,5701,128,0,5864:0:0:0:40:LR3_HiHat Normal.wav
256,192,5864,1,0,0:0:0:40:R_Chm J Whistle.wav
109,192,6026,128,0,6188:0:0:0:40:LR3_HiHat Normal.wav
320,192,6188,1,0,0:0:0:40:R_Chm J Whistle.wav
192,192,6350,1,0,0:0:0:40:LR3_HiHat Normal.wav
475,192,6512,1,0,0:0:0:40:LR3_HiHat Normal.wav
36,192,6512,1,0,0:0:0:40:Taiko 2.wav
256,192,6512,1,0,0:0:0:0:
64,192,6674,1,0,0:0:0:40:LR3_HiHat Normal.wav
448,192,6674,1,0,0:0:0:40:Taiko 2.wav
256,192,6674,1,0,0:0:0:0:
109,192,6837,1,0,0:0:0:40:LR3_HiHat Normal.wav
402,192,6837,1,0,0:0:0:40:Taiko 2.wav
256,192,6837,1,0,0:0:0:0:
36,192,6999,1,0,0:0:0:40:LR3_HiHat Normal.wav
256,192,6999,1,0,0:0:0:0:
475,192,6999,1,0,0:0:0:0:
402,192,7080,1,0,0:0:0:40:R_Chm J Whistle.wav
329,192,7161,1,0,0:0:0:40:R_Chm J Whistle.wav
256,192,7242,1,0,0:0:0:40:R_Chm J Whistle.wav
182,192,7323,1,0,0:0:0:40:LR3_HiHat Normal.wav
329,192,7485,1,0,0:0:0:40:LR3_HiHat Normal.wav
475,192,7566,1,0,0:0:0:40:R_Chm J Whistle.wav
402,192,7647,1,0,0:0:0:40:R_Chm J Whistle.wav
329,192,7728,1,0,0:0:0:40:R_Chm J Whistle.wav
256,192,7809,1,0,0:0:0:40:LR3_HiHat Normal.wav
182,192,7972,128,0,8134:0:0:0:40:LR3_HiHat Normal.wav
320,192,8134,1,0,0:0:0:40:R_Chm J Whistle.wav
182,192,8296,128,0,8458:0:0:0:40:LR3_HiHat Normal.wav
402,192,8458,1,0,0:0:0:40:R_Chm J Whistle.wav
256,192,8620,128,0,8782:0:0:0:40:LR3_HiHat Normal.wav
475,192,8782,1,0,0:0:0:40:R_Chm J Whistle.wav
329,192,8945,1,0,0:0:0:40:LR3_HiHat Normal.wav
109,192,9107,1,0,0:0:0:40:LR3_HiHat Normal.wav
402,192,9107,1,0,0:0:0:40:Taiko 2.wav
256,192,9107,1,0,0:0:0:0:
402,192,9269,1,0,0:0:0:40:LR3_HiHat Normal.wav
256,192,9269,1,0,0:0:0:40:Taiko 2.wav
109,192,9269,1,0,0:0:0:0:
64,192,9431,1,0,0:0:0:40:LR3_HiHat Normal.wav
182,192,9431,1,0,0:0:0:40:Taiko 2.wav
329,192,9431,1,0,0:0:0:0:
475,192,9431,1,0,0:0:0:0:
109,192,9593,1,0,0:0:0:40:R_Chm J Whistle.wav
256,192,9593,1,0,0:0:0:0:
475,192,9674,1,0,0:0:0:40:R_Chm J Whistle.wav
402,192,9755,1,0,0:0:0:40:R_Chm J Whistle.wav
329,192,9837,1,0,0:0:0:40:R_Chm J Whistle.wav
256,192,9918,1,0,0:0:0:40:LR3_HiHat Normal.wav
329,192,10080,1,0,0:0:0:40:LR3_HiHat Normal.wav
402,192,10161,1,0,0:0:0:40:R_Chm J Whistle.wav
475,192,10161,128,0,11458:0:0:0:0:
329,192,10242,1,0,0:0:0:40:R_Chm J Whistle.wav
256,192,10323,1,0,0:0:0:40:R_Chm J Whistle.wav
182,192,10404,1,0,0:0:0:40:LR3_HiHat Normal.wav
36,192,10566,128,0,10728:0:0:0:40:LR3_HiHat Normal.wav
109,192,10728,1,0,0:0:0:40:R_Chm J Whistle.wav
36,192,10891,1,0,0:0:0:40:LR3_HiHat Normal.wav
182,192,10891,1,0,0:0:0:0:
109,192,11134,1,0,0:0:0:0:
182,192,11215,1,0,0:0:0:0:
329,192,11215,1,0,0:0:0:0:
256,192,11377,1,0,0:0:0:0:
402,192,11377,1,0,0:0:0:0:
329,192,11539,1,0,0:0:0:0:
256,192,11620,1,0,0:0:0:0:
402,192,11701,1,0,0:0:0:40:R_Chm J Whistle.wav
329,192,11782,1,0,0:0:0:0:
182,192,11864,1,0,0:0:0:0:
109,192,11945,1,0,0:0:0:0:
402,192,12026,1,0,0:0:0:0:
329,192,12107,1,0,0:0:0:0:
64,192,12188,1,0,0:0:0:40:R_Drum J Long Med Finish.wav
182,192,12188,1,0,0:0:0:40:LR3_HiHat Normal.wav
109,192,12269,1,0,0:0:0:40:R_Chm J Whistle.wav
256,192,12350,1,0,0:0:0:40:R_Chm J Whistle.wav
182,192,12431,1,0,0:0:0:40:R_Chm J Whistle.wav
109,192,12512,1,0,0:0:0:40:LR3_HiHat Normal.wav
256,192,12674,1,0,0:0:0:40:LR3_HiHat Normal.wav
329,192,12755,1,0,0:0:0:40:R_Chm J Whistle.wav
475,192,12837,1,0,0:0:0:40:R_Chm J Whistle.wav
402,192,12918,1,0,0:0:0:40:R_Chm J Whistle.wav
329,192,12999,1,0,0:0:0:40:LR3_HiHat Normal.wav
36,192,13161,128,0,13323:0:0:0:40:LR3_HiHat Normal.wav
182,192,13323,1,0,0:0:0:40:R_Chm J Whistle.wav
36,192,13485,128,0,13647:0:0:0:40:LR3_HiHat Normal.wav
256,192,13647,1,0,0:0:0:40:R_Chm J Whistle.wav
109,192,13809,128,0,13972:0:0:0:40:Taiko 2.wav
329,192,13972,1,0,0:0:0:40:R_Chm J Whistle.wav
182,192,14134,1,0,0:0:0:40:LR3_HiHat Normal.wav
402,192,14134,1,0,0:0:0:40:Taiko 2.wav
256,192,14215,1,0,0:0:0:0:
475,192,14215,1,0,0:0:0:0:
182,192,14296,1,0,0:0:0:0:
109,192,14458,128,0,14620:0:0:0:40:LR3_HiHat Normal.wav
329,192,14458,128,0,14620:0:0:0:0:
182,192,14782,1,0,0:0:0:40:LR3_HiHat Normal.wav
329,192,14864,1,0,0:0:0:40:R_Chm J Whistle.wav
256,192,14945,1,0,0:0:0:40:R_Chm J Whistle.wav
182,192,15026,1,0,0:0:0:40:R_Chm J Whistle.wav
109,192,15107,1,0,0:0:0:40:LR3_HiHat Normal.wav
329,192,15269,1,0,0:0:0:40:LR3_HiHat Normal.wav
475,192,15350,1,0,0:0:0:40:R_Chm J Whistle.wav
402,192,15431,1,0,0:0:0:40:R_Chm J Whistle.wav
329,192,15512,1,0,0:0:0:40:R_Chm J Whistle.wav
256,192,15593,1,0,0:0:0:40:LR3_HiHat Normal.wav
109,192,15755,128,0,15918:0:0:0:40:LR3_HiHat Normal.wav
182,192,15918,1,0,0:0:0:40:R_Chm J Whistle.wav
109,192,16080,128,0,16242:0:0:0:40:LR3_HiHat Normal.wav
256,192,16242,1,0,0:0:0:40:R_Chm J Whistle.wav
182,192,16404,1,0,0:0:0:40:LR3_HiHat Normal.wav
402,192,16404,1,0,0:0:0:0:
256,192,16566,1,0,0:0:0:40:R_Chm J Whistle.wav
475,192,16566,1,0,0:0:0:0:
182,192,16728,1,0,0:0:0:40:LR3_HiHat Normal.wav
402,192,16728,1,0,0:0:0:0:
109,192,16891,1,0,0:0:0:40:Taiko 2.wav
109,192,16972,1,0,0:0:0:40:Taiko 2.wav
182,192,17053,1,0,0:0:0:40:R_Chm J Whistle.wav
109,192,17215,1,0,0:0:0:40:LR3_HiHat Normal.wav
192,192,17377,1,0,0:0:0:40:LR3_HiHat Normal.wav
256,192,17458,1,0,0:0:0:40:R_Chm J Whistle.wav
182,192,17539,1,0,0:0:0:40:R_Chm J Whistle.wav
109,192,17620,1,0,0:0:0:40:R_Chm J Whistle.wav
36,192,17701,1,0,0:0:0:40:LR3_HiHat Normal.wav
329,192,17864,1,0,0:0:0:40:LR3_HiHat Normal.wav
402,192,17945,1,0,0:0:0:40:R_Chm J Whistle.wav
329,192,18026,1,0,0:0:0:40:R_Chm J Whistle.wav
256,192,18107,1,0,0:0:0:40:R_Chm J Whistle.wav
182,192,18188,1,0,0:0:0:40:LR3_HiHat Normal.wav
256,192,18350,128,0,18512:0:0:0:40:LR3_HiHat Normal.wav
329,192,18512,1,0,0:0:0:40:R_Chm J Whistle.wav
329,192,18674,128,0,18837:0:0:0:40:R_Chm J Whistle.wav
402,192,18837,1,0,0:0:0:40:Taiko 2.wav
402,192,18999,128,0,19161:0:0:0:40:Taiko 2.wav
475,192,19161,1,0,0:0:0:40:Taiko 2.wav
256,192,19323,1,0,0:0:0:40:Taiko 2.wav
402,192,19323,1,0,0:0:0:0:
109,192,19323,1,0,0:0:0:0:
256,192,19485,1,0,0:0:0:40:Taiko 2.wav
109,192,19485,1,0,0:0:0:0:
402,192,19485,1,0,0:0:0:0:
36,192,19647,1,0,0:0:0:40:Taiko 2.wav
475,192,19647,1,0,0:0:0:0:
256,192,19647,1,0,0:0:0:0:
36,192,19809,1,0,0:0:0:40:Taiko 2.wav
256,192,19809,1,0,0:0:0:0:
475,192,19809,1,0,0:0:0:0:
36,192,19972,1,0,0:0:0:40:LR_Snare Normal.wav
182,192,19972,1,0,0:0:0:40:LR_CymbalQST.wav
329,192,19972,1,0,0:0:0:0:
475,192,19972,1,0,0:0:0:0:
109,192,20134,1,0,0:0:0:0:
182,192,20296,1,0,0:0:0:0:
109,192,20458,1,0,0:0:0:0:
256,192,20620,1,0,0:0:0:40:LR_Snare Normal.wav
475,192,20620,1,0,0:0:0:40:LR_CymbalQST.wav
36,192,20620,1,0,0:0:0:0:
182,192,20782,1,0,0:0:0:0:
256,192,21107,1,0,0:0:0:40:LR_Snare Normal.wav
475,192,21107,1,0,0:0:0:40:LR_CymbalQST.wav
36,192,21107,1,0,0:0:0:0:
329,192,21431,1,0,0:0:0:40:LR_Kick Hard Fast.wav
475,192,21431,1,0,0:0:0:0:
36,192,21431,1,0,0:0:0:0:
402,192,21593,1,0,0:0:0:40:LR_Snare Normal.wav
475,192,21593,1,0,0:0:0:40:LR_CymbalQST.wav
36,192,21593,1,0,0:0:0:0:
329,192,21918,1,0,0:0:0:40:LR_Snare Normal.wav
182,192,21918,1,0,0:0:0:40:LR_CymbalQST.wav
475,192,21918,1,0,0:0:0:0:
36,192,21918,1,0,0:0:0:0:
448,192,22242,1,0,0:0:0:0:
192,192,22242,1,0,0:0:0:0:
109,192,22404,1,0,0:0:0:0:
320,192,22566,1,0,0:0:0:40:R3_BassDropPDGs.wav
256,192,22728,1,0,0:0:0:40:R_Chm J Whistle.wav
182,192,22891,1,0,0:0:0:40:R3_BassDropPDGs.wav
36,192,23053,1,0,0:0:0:40:R_Chm J Whistle.wav
109,192,23215,1,0,0:0:0:40:R3_BassDropPDGs.wav
182,192,23377,1,0,0:0:0:40:R_Chm J Whistle.wav
109,192,23539,1,0,0:0:0:40:R3_BassDropPDGs.wav
36,192,23539,1,0,0:0:0:40:LR_HiHat Click.wav
182,192,23701,1,0,0:0:0:40:R_Chm J Whistle.wav
329,192,23864,1,0,0:0:0:40:R3_BassDropPDGs.wav
402,192,23864,1,0,0:0:0:40:LR_HiHat Click.wav
256,192,24026,1,0,0:0:0:40:R_Chm J Whistle.wav
182,192,24188,1,0,0:0:0:40:R3_BassDropPDGs.wav
109,192,24350,1,0,0:0:0:40:R_Chm J Whistle.wav
256,192,24512,1,0,0:0:0:40:R3_BassDropPDGs.wav
402,192,24512,1,0,0:0:0:40:LR_HiHat Click.wav
329,192,24674,1,0,0:0:0:40:R_Chm J Whistle.wav
475,192,24755,1,0,0:0:0:40:R_Chm J Whistle.wav
329,192,24837,1,0,0:0:0:40:R3_BassDropPDG.wav
256,192,24999,1,0,0:0:0:40:R2_KickBassFast.wav
448,192,25161,1,0,0:0:0:40:LR3_HiHat Normal.wav
329,192,25161,1,0,0:0:0:0:
402,192,25323,1,0,0:0:0:40:LR3_HiHat Normal.wav
320,192,25485,1,0,0:0:0:40:LR3_HiHat Normal.wav
182,192,25647,1,0,0:0:0:40:R2_KickBassFast.wav
109,192,25809,1,0,0:0:0:40:LR3_HiHat Normal.wav
402,192,25972,128,0,26134:0:0:0:40:LR3_HiHat Normal.wav
329,192,26134,1,0,0:0:0:40:LR3_HiHat Normal.wav
256,192,26134,1,0,0:0:0:40:R_Chm J Whistle.wav
182,192,26296,1,0,0:0:0:40:R2_KickBassFast.wav
109,192,26458,1,0,0:0:0:40:LR3_HiHat Normal.wav
64,192,26620,1,0,0:0:0:40:LR3_HiHat Normal.wav
256,192,26782,1,0,0:0:0:40:LR3_HiHat Normal.wav
182,192,26945,1,0,0:0:0:40:R2_KickBassFast.wav
402,192,27107,1,0,0:0:0:40:LR3_HiHat Normal.wav
329,192,27269,1,0,0:0:0:40:LR3_HiHat Normal.wav
448,192,27431,1,0,0:0:0:40:R_Chm J Whistle.wav
402,192,27593,1,0,0:0:0:40:LR3_HiHat Normal.wav
256,192,27593,1,0,0:0:0:0:
329,192,27755,1,0,0:0:0:40:R3_BassDropPDGs.wav
402,192,27918,1,0,0:0:0:40:R_Chm J Whistle.wav
256,192,28080,1,0,0:0:0:40:R3_BassDropPDGs.wav
329,192,28242,1,0,0:0:0:40:R_Chm J Whistle.wav
402,192,28404,1,0,0:0:0:40:R3_BassDropPDGs.wav
475,192,28404,1,0,0:0:0:40:LR_HiHat Click.wav
329,192,28566,128,0,28891:0:0:0:40:R_Chm J Whistle.wav
256,192,28891,1,0,0:0:0:40:R_Chm J Whistle.wav
109,192,29053,1,0,0:0:0:40:R3_BassDropPDGs.wav
475,192,29215,128,0,29377:0:0:0:40:R_Chm J Whistle.wav
109,192,29377,1,0,0:0:0:40:R3_BassDropPDGs.wav
329,192,29539,128,0,29864:0:0:0:40:R_Chm J Whistle.wav
256,192,29864,1,0,0:0:0:40:R_Chm J Whistle.wav
402,192,30026,128,0,30269:0:0:0:40:R3_BassDropPDGs.wav
329,192,30350,1,0,0:0:0:40:LR3_HiHat Normal.wav
256,192,30512,128,0,30674:0:0:0:40:LR3_HiHat Normal.wav
182,192,30674,1,0,0:0:0:40:LR3_HiHat Normal.wav
109,192,30837,1,0,0:0:0:40:R2_KickBassFast.wav
329,192,30999,128,0,31323:0:0:0:40:LR3_HiHat Normal.wav
402,192,31323,1,0,0:0:0:40:LR3_HiHat Normal.wav
329,192,31485,1,0,0:0:0:40:R2_KickBassFast.wav
475,192,31647,1,0,0:0:0:40:Taiko 3.wav
402,192,31647,1,0,0:0:0:40:tom.wav
256,192,31809,1,0,0:0:0:40:Taiko 3.wav
402,192,31972,1,0,0:0:0:40:Taiko 3.wav
192,192,32134,1,0,0:0:0:40:Taiko 3.wav
109,192,32296,1,0,0:0:0:40:Taiko 3.wav
475,192,32458,1,0,0:0:0:40:Taiko.wav
109,192,32620,1,0,0:0:0:40:Taiko 3.wav
256,192,32782,1,0,0:0:0:40:R_Chm J Whistle.wav
182,192,32864,1,0,0:0:0:40:R_Chm J Whistle.wav
320,192,32945,1,0,0:0:0:40:R_Chm J Whistle.wav
402,192,33026,1,0,0:0:0:0:
329,192,33107,1,0,0:0:0:40:LR_Hat Synth.wav
475,192,33188,1,0,0:0:0:0:
64,192,33269,1,0,0:0:0:40:R_Chm J Whistle.wav
182,192,33431,1,0,0:0:0:40:LR_Hat Synth.wav
256,192,33512,1,0,0:0:0:0:
192,192,33593,1,0,0:0:0:40:R3_BassDropPDGs.wav
109,192,33674,1,0,0:0:0:0:
36,192,33755,128,0,33918:0:0:0:40:LR_Hat Synth.wav
182,192,33918,1,0,0:0:0:40:R3_BassDropPDGs.wav
256,192,34080,1,0,0:0:0:40:LR_Hat Synth.wav
329,192,34161,1,0,0:0:0:0:
36,192,34242,1,0,0:0:0:40:R_Chm J Whistle.wav
182,192,34323,1,0,0:0:0:0:
109,192,34404,1,0,0:0:0:40:LR_Hat Synth.wav
182,192,34485,1,0,0:0:0:0:
329,192,34566,1,0,0:0:0:0:
256,192,34728,1,0,0:0:0:40:LR_Hat Synth.wav
329,192,34809,1,0,0:0:0:0:
475,192,34891,1,0,0:0:0:40:R3_BassDropPDGs.wav
402,192,34972,1,0,0:0:0:0:
329,192,35053,1,0,0:0:0:40:LR_Hat Synth.wav
256,192,35215,1,0,0:0:0:40:R_Chm J Whistle.wav
182,192,35377,1,0,0:0:0:40:LR_Hat Synth.wav
64,192,35539,1,0,0:0:0:40:R_Chm J Whistle.wav
256,192,35701,1,0,0:0:0:40:LR_Hat Synth.wav
182,192,35945,1,0,0:0:0:0:
109,192,36107,1,0,0:0:0:0:
256,192,36188,1,0,0:0:0:40:R3_BassDropPDGs.wav
329,192,36269,1,0,0:0:0:0:
402,192,36350,1,0,0:0:0:40:LR_Hat Synth.wav
475,192,36431,1,0,0:0:0:0:
256,192,36512,1,0,0:0:0:40:R_Chm J Whistle.wav
182,192,36593,1,0,0:0:0:0:
109,192,36674,1,0,0:0:0:40:LR_Hat Synth.wav
36,192,36755,1,0,0:0:0:0:
192,192,36837,1,0,0:0:0:40:R_Chm J Whistle.wav
329,192,36918,1,0,0:0:0:40:R_Chm J Whistle.wav
475,192,37080,1,0,0:0:0:40:R_Chm J Whistle.wav
402,192,37161,1,0,0:0:0:40:R_Chm J Whistle.wav
256,192,37323,1,0,0:0:0:40:R_Chm J Whistle.wav
329,192,37485,128,0,37809:0:0:0:40:R_Chm J Whistle.wav
109,192,37809,1,0,0:0:0:40:Taiko.wav
256,192,37972,1,0,0:0:0:40:Taiko.wav
475,192,38134,1,0,0:0:0:40:R3_BassDropPDGs.wav
402,192,38296,1,0,0:0:0:40:LR_Hat Synth.wav
329,192,38458,1,0,0:0:0:40:R3_BassDropPDGs.wav
256,192,38620,1,0,0:0:0:40:LR_Hat Synth.wav
182,192,38782,1,0,0:0:0:40:R3_BassDropPDGs.wav
109,192,38864,1,0,0:0:0:0:
329,192,38945,1,0,0:0:0:40:LR_Hat Synth.wav
256,192,39026,1,0,0:0:0:0:
36,192,39269,1,0,0:0:0:40:LR_Hat Synth.wav
109,192,39350,1,0,0:0:0:0:
182,192,39431,1,0,0:0:0:40:R_Chm J Whistle.wav
256,192,39593,1,0,0:0:0:40:LR_Hat Synth.wav
475,192,39755,1,0,0:0:0:40:R_Chm J Whistle.wav
402,192,39837,1,0,0:0:0:0:
182,192,39918,1,0,0:0:0:40:LR_Hat Synth.wav
329,192,39999,1,0,0:0:0:0:
256,192,40080,1,0,0:0:0:40:R3_BassDropPDGs.wav
182,192,40161,1,0,0:0:0:0:
329,192,40242,1,0,0:0:0:40:LR_Hat Synth.wav
402,192,40323,1,0,0:0:0:0:
109,192,40566,1,0,0:0:0:40:LR_Hat Synth.wav
182,192,40728,1,0,0:0:0:40:R3_BassDropPDG.wav
109,192,40891,1,0,0:0:0:40:LR_Hat Synth.wav
256,192,41053,1,0,0:0:0:0:
109,192,41215,1,0,0:0:0:40:LR_Hat Synth.wav
329,192,41377,1,0,0:0:0:40:R3_BassDropPDG.wav
109,192,41539,1,0,0:0:0:40:LR_Hat Synth.wav
402,192,41701,1,0,0:0:0:0:
109,192,41864,1,0,0:0:0:40:R3_BassDropPDGs.wav
475,192,42026,1,0,0:0:0:40:R3_BassDropPDG.wav
182,192,42188,1,0,0:0:0:40:LR_Hat Synth.wav
475,192,42350,1,0,0:0:0:40:R3_BassDropPDG.wav
256,192,42512,1,0,0:0:0:40:LR_Hat Synth.wav
475,192,42674,1,0,0:0:0:0:
329,192,42755,1,0,0:0:0:0:
475,192,42837,1,0,0:0:0:0:
402,192,42918,1,0,0:0:0:0:
256,192,42999,128,0,43323:0:0:0:40:R3_BassDropPDG.wav
182,192,43485,1,0,0:0:0:40:LR_Kick Hard Fast.wav
402,192,43485,1,0,0:0:0:0:
109,192,43647,1,0,0:0:0:40:LR_Snare Normal.wav
256,192,43647,1,0,0:0:0:40:R_Chm J Whistle.wav
182,192,43809,1,0,0:0:0:40:LR_Kick Hard Fast.wav
329,192,43809,1,0,0:0:0:0:
182,192,43972,1,0,0:0:0:40:LR_Kick Hard Fast.wav
402,192,43972,1,0,0:0:0:0:
402,192,44296,1,0,0:0:0:40:LR_Snare Normal.wav
109,192,44296,1,0,0:0:0:40:R_Chm J Whistle.wav
36,192,44296,1,0,0:0:0:0:
256,192,44782,1,0,0:0:0:40:LR_Kick Hard Fast.wav
402,192,44782,1,0,0:0:0:0:
329,192,44945,1,0,0:0:0:40:LR_Snare Normal.wav
182,192,44945,1,0,0:0:0:0:
256,192,45107,1,0,0:0:0:40:LR_Kick Hard Fast.wav
475,192,45107,1,0,0:0:0:0:
182,192,45269,1,0,0:0:0:40:LR_Kick Hard Fast.wav
475,192,45269,1,0,0:0:0:0:
182,192,45593,1,0,0:0:0:40:LR_Snare Normal.wav
475,192,45593,1,0,0:0:0:0:
109,192,45593,1,0,0:0:0:0:
329,192,45755,128,0,45918:0:0:0:40:LR3_HiHat Normal.wav
475,192,45918,128,0,46404:0:0:0:40:LR_Kick Hard Fast.wav
402,192,45918,1,0,0:0:0:0:
256,192,46080,1,0,0:0:0:40:LR_Kick Hard Fast.wav
329,192,46242,1,0,0:0:0:40:LR_Snare Normal.wav
402,192,46404,1,0,0:0:0:40:LR_Kick Hard Fast.wav
256,192,46404,1,0,0:0:0:0:
329,192,46566,1,0,0:0:0:40:LR_Snare Normal.wav
182,192,46566,1,0,0:0:0:40:R_Chm J Whistle.wav
256,192,46566,128,0,47215:0:0:0:0:
109,192,46566,128,0,47215:0:0:0:0:
475,192,47215,1,0,0:0:0:40:LR_Kick Hard Fast.wav
329,192,47215,1,0,0:0:0:0:
182,192,47215,1,0,0:0:0:40:R_Chm J Whistle.wav
36,192,47215,128,0,47539:0:0:0:0:
256,192,47539,1,0,0:0:0:40:LR_Snare Normal.wav
109,192,47539,1,0,0:0:0:0:
475,192,47539,128,0,47864:0:0:0:0:
402,192,47539,128,0,47864:0:0:0:40:R_Chm J Whistle.wav
320,192,47864,1,0,0:0:0:40:LR_Snare Normal.wav
182,192,47864,1,0,0:0:0:0:
36,192,47864,1,0,0:0:0:40:R_Chm J Whistle.wav
256,192,47864,128,0,48188:0:0:0:0:
36,192,48188,1,0,0:0:0:40:LR_Snare Normal.wav
182,192,48188,1,0,0:0:0:40:R_Chm J Whistle.wav
109,192,48188,128,0,48512:0:0:0:0:
64,192,48674,1,0,0:0:0:40:LR_Kick Hard Fast.wav
256,192,48674,1,0,0:0:0:0:
402,192,48837,1,0,0:0:0:40:LR_Kick Hard Fast.wav
109,192,48837,1,0,0:0:0:0:
36,192,48999,1,0,0:0:0:40:LR3_HiHat Normal.wav
256,192,48999,1,0,0:0:0:0:
182,192,49161,1,0,0:0:0:40:LR_Snare Normal.wav
402,192,49161,1,0,0:0:0:0:
402,192,49485,1,0,0:0:0:0:
109,192,49485,1,0,0:0:0:0:
256,192,49485,1,0,0:0:0:0:
109,192,49972,1,0,0:0:0:40:LR_Kick Hard Fast.wav
402,192,49972,1,0,0:0:0:0:
329,192,50134,1,0,0:0:0:40:LR_Kick Hard Fast.wav
36,192,50134,1,0,0:0:0:0:
109,192,50296,1,0,0:0:0:40:LR3_HiHat Normal.wav
402,192,50296,1,0,0:0:0:0:
182,192,50458,1,0,0:0:0:40:LR_Snare Normal.wav
475,192,50458,1,0,0:0:0:0:
475,192,50782,1,0,0:0:0:40:LR_Snare Normal.wav
182,192,50782,1,0,0:0:0:0:
329,192,50782,1,0,0:0:0:0:
402,192,51269,1,0,0:0:0:40:LR_Snare Normal.wav
256,192,51269,1,0,0:0:0:0:
329,192,51431,1,0,0:0:0:40:LR_Snare Normal.wav
182,192,51431,1,0,0:0:0:0:
256,192,51593,1,0,0:0:0:40:LR_Snare Normal.wav
402,192,51593,1,0,0:0:0:0:
36,192,51755,128,0,52080:0:0:0:40:LR_Snare Normal.wav
109,192,52080,1,0,0:0:0:40:LR_Snare Normal.wav
256,192,52080,1,0,0:0:0:0:
182,192,52242,1,0,0:0:0:40:LR_Kick Hard Fast.wav
329,192,52242,1,0,0:0:0:0:
475,192,52404,1,0,0:0:0:40:LR_Snare Normal.wav
256,192,52404,1,0,0:0:0:0:
402,192,52566,1,0,0:0:0:0:
182,192,52566,1,0,0:0:0:0:
329,192,52728,1,0,0:0:0:0:
109,192,52728,1,0,0:0:0:0:
402,192,52891,1,0,0:0:0:0:
182,192,52891,1,0,0:0:0:0:
475,192,53053,1,0,0:0:0:40:LR_Snare Normal.wav
256,192,53053,128,0,53377:0:0:0:0:
475,192,53377,128,0,53701:0:0:0:40:R3_BassDropPDGs.wav
109,192,53701,1,0,0:0:0:0:
182,192,53701,1,0,0:0:0:0:
329,192,53782,1,0,0:0:0:40:R_Chm J Whistle.wav
256,192,53864,1,0,0:0:0:40:R_Chm J Whistle.wav
182,192,53945,1,0,0:0:0:40:R_Chm J Whistle.wav
109,192,54026,1,0,0:0:0:40:LR3_HiHat Normal.wav
329,192,54188,1,0,0:0:0:40:LR3_HiHat Normal.wav
475,192,54269,1,0,0:0:0:40:R_Chm J Whistle.wav
402,192,54350,1,0,0:0:0:40:R_Chm J Whistle.wav
329,192,54431,1,0,0:0:0:40:R_Chm J Whistle.wav
256,192,54512,1,0,0:0:0:40:LR3_HiHat Normal.wav
109,192,54674,128,0,54837:0:0:0:40:LR3_HiHat Normal.wav
182,192,54837,1,0,0:0:0:40:LR3_HiHat Normal.wav
36,192,54999,1,0,0:0:0:40:LR3_HiHat Normal.wav
329,192,54999,1,0,0:0:0:0:
256,192,54999,1,0,0:0:0:0:
402,192,55080,1,0,0:0:0:40:R_Chm J Whistle.wav
329,192,55161,1,0,0:0:0:40:R_Chm J Whistle.wav
256,192,55242,1,0,0:0:0:40:R_Chm J Whistle.wav
182,192,55323,1,0,0:0:0:40:LR3_HiHat Normal.wav
256,192,55485,1,0,0:0:0:40:LR3_HiHat Normal.wav
475,192,55566,1,0,0:0:0:40:R_Chm J Whistle.wav
402,192,55647,1,0,0:0:0:40:R_Chm J Whistle.wav
329,192,55728,1,0,0:0:0:40:R_Chm J Whistle.wav
256,192,55809,1,0,0:0:0:40:LR3_HiHat Normal.wav
109,192,55972,128,0,56134:0:0:0:40:LR3_HiHat Normal.wav
182,192,56134,1,0,0:0:0:40:LR3_HiHat Normal.wav
320,192,56296,1,0,0:0:0:40:LR3_HiHat Normal.wav
36,192,56296,1,0,0:0:0:0:
256,192,56296,1,0,0:0:0:0:
402,192,56377,1,0,0:0:0:40:R_Chm J Whistle.wav
475,192,56458,1,0,0:0:0:40:R_Chm J Whistle.wav
402,192,56539,1,0,0:0:0:40:R_Chm J Whistle.wav
329,192,56620,1,0,0:0:0:40:LR3_HiHat Normal.wav
109,192,56782,1,0,0:0:0:40:LR3_HiHat Normal.wav
182,192,56864,1,0,0:0:0:40:R_Chm J Whistle.wav
256,192,56945,1,0,0:0:0:40:R_Chm J Whistle.wav
182,192,57026,1,0,0:0:0:40:R_Chm J Whistle.wav
109,192,57107,1,0,0:0:0:40:LR3_HiHat Normal.wav
36,192,57269,128,0,57431:0:0:0:40:LR3_HiHat Normal.wav
182,192,57431,1,0,0:0:0:0:
256,192,57593,1,0,0:0:0:0:
109,192,57593,1,0,0:0:0:0:
329,192,57674,1,0,0:0:0:40:R_Chm J Whistle.wav
475,192,57755,1,0,0:0:0:40:R_Chm J Whistle.wav
402,192,57837,1,0,0:0:0:40:R_Chm J Whistle.wav
320,192,57918,1,0,0:0:0:40:LR3_HiHat Normal.wav
182,192,58080,1,0,0:0:0:40:LR3_HiHat Normal.wav
256,192,58161,1,0,0:0:0:40:R_Chm J Whistle.wav
402,192,58242,1,0,0:0:0:40:R_Chm J Whistle.wav
329,192,58323,1,0,0:0:0:40:R_Chm J Whistle.wav
256,192,58404,1,0,0:0:0:40:LR3_HiHat Normal.wav
402,192,58485,128,0,58891:0:0:0:0:
329,192,58566,128,0,58891:0:0:0:40:R_Chm J Whistle.wav
36,192,58891,1,0,0:0:0:40:LR3_HiHat Normal.wav
182,192,58891,1,0,0:0:0:0:
256,192,58972,1,0,0:0:0:40:R_Chm J Whistle.wav
182,192,59053,1,0,0:0:0:40:R_Chm J Whistle.wav
109,192,59134,1,0,0:0:0:40:R_Chm J Whistle.wav
36,192,59215,1,0,0:0:0:40:LR3_HiHat Normal.wav
475,192,59377,1,0,0:0:0:40:LR3_HiHat Normal.wav
256,192,59539,1,0,0:0:0:40:R_Chm J Whistle.wav
329,192,59620,1,0,0:0:0:0:
256,192,59701,1,0,0:0:0:40:LR3_HiHat Normal.wav
182,192,59782,1,0,0:0:0:0:
109,192,59864,1,0,0:0:0:40:R_Chm J Whistle.wav
475,192,60026,1,0,0:0:0:40:LR3_HiHat Normal.wav
329,192,60188,1,0,0:0:0:40:R_Chm J Whistle.wav
402,192,60269,1,0,0:0:0:0:
329,192,60350,1,0,0:0:0:40:LR3_HiHat Normal.wav
256,192,60431,1,0,0:0:0:0:
192,192,60512,1,0,0:0:0:40:R_Chm J Whistle.wav
475,192,60674,1,0,0:0:0:40:LR3_HiHat Normal.wav
402,192,60837,1,0,0:0:0:40:R_Chm J Whistle.wav
475,192,60918,1,0,0:0:0:0:
402,192,60999,1,0,0:0:0:40:LR3_HiHat Normal.wav
329,192,61080,1,0,0:0:0:0:
256,192,61161,1,0,0:0:0:40:R_Chm J Whistle.wav
475,192,61242,1,0,0:0:0:0:
182,192,61323,1,0,0:0:0:40:LR3_HiHat Normal.wav
36,192,61485,1,0,0:0:0:40:R_Chm J Whistle.wav
109,192,61647,1,0,0:0:0:40:LR3_HiHat Normal.wav
256,192,61647,1,0,0:0:0:40:R3_BassDropPDGs.wav
64,192,61809,1,0,0:0:0:40:R_Chm J Whistle.wav
182,192,61972,1,0,0:0:0:40:LR3_HiHat Normal.wav
329,192,61972,1,0,0:0:0:40:R3_BassDropPDGs.wav
36,192,62134,1,0,0:0:0:40:R_Chm J Whistle.wav
256,192,62296,1,0,0:0:0:40:LR3_HiHat Normal.wav
402,192,62296,1,0,0:0:0:40:R3_BassDropPDGs.wav
64,192,62458,1,0,0:0:0:40:R_Chm J Whistle.wav
329,192,62620,1,0,0:0:0:40:LR3_HiHat Normal.wav
475,192,62620,1,0,0:0:0:40:R3_BassDropPDGs.wav
36,192,62782,1,0,0:0:0:0:
109,192,62891,1,0,0:0:0:0:
329,192,62891,1,0,0:0:0:0:
109,192,62999,1,0,0:0:0:0:
329,192,62999,1,0,0:0:0:0:
36,192,63107,1,0,0:0:0:0:
402,192,63215,1,0,0:0:0:0:
182,192,63215,1,0,0:0:0:0:
402,192,63323,1,0,0:0:0:0:
182,192,63323,1,0,0:0:0:0:
36,192,63431,1,0,0:0:0:0:
475,192,63539,1,0,0:0:0:0:
256,192,63539,1,0,0:0:0:0:
475,192,63647,1,0,0:0:0:0:
256,192,63647,1,0,0:0:0:0:
36,192,63755,1,0,0:0:0:0:
475,192,63864,1,0,0:0:0:0:
329,192,63864,1,0,0:0:0:0:
329,192,63972,1,0,0:0:0:0:
475,192,63972,1,0,0:0:0:0:
182,192,64080,1,0,0:0:0:40:LR_CymbalQST.wav
36,192,64080,128,0,64404:0:0:0:0:
256,192,64404,1,0,0:0:0:40:R_Chm J Whistle.wav
109,192,64404,128,0,64728:0:0:0:0:
329,192,64728,1,0,0:0:0:40:R_Chm J Whistle.wav
182,192,64728,128,0,65053:0:0:0:0:
475,192,65053,1,0,0:0:0:40:R_Chm J Whistle.wav
256,192,65053,128,0,65377:0:0:0:0:
36,192,65377,1,0,0:0:0:40:R_Chm J Whistle.wav
329,192,65377,1,0,0:0:0:0:
256,192,65620,1,0,0:0:0:40:R_Chm J Whistle.wav
36,192,65620,1,0,0:0:0:0:
329,192,65701,1,0,0:0:0:40:R_Chm J Whistle.wav
109,192,65701,1,0,0:0:0:0:
109,192,65864,1,0,0:0:0:40:R_Chm J Whistle.wav
329,192,65864,1,0,0:0:0:0:
475,192,66026,1,0,0:0:0:40:R_Chm J Whistle.wav
256,192,66026,1,0,0:0:0:0:
320,192,66350,1,0,0:0:0:0:
36,192,66674,1,0,0:0:0:40:Taiko 2.wav
256,192,66674,1,0,0:0:0:0:
36,192,66837,1,0,0:0:0:40:Taiko 2.wav
256,192,66837,1,0,0:0:0:0:
36,192,66999,1,0,0:0:0:40:Taiko 2.wav
256,192,66999,1,0,0:0:0:0:
109,192,67161,1,0,0:0:0:40:Taiko 2.wav
256,192,67161,1,0,0:0:0:0:
36,192,67323,1,0,0:0:0:40:Taiko 2.wav
256,192,67323,1,0,0:0:0:0:
192,192,67647,1,0,0:0:0:40:Taiko 3.wav
329,192,67647,1,0,0:0:0:40:Taiko.wav
475,192,67647,1,0,0:0:0:0:
256,192,67972,1,0,0:0:0:40:LR_Kick Hard Fast.wav
402,192,67972,1,0,0:0:0:0:
109,192,67972,1,0,0:0:0:0:
475,192,68134,128,0,68458:0:0:0:40:LR3_HiHat Normal.wav
402,192,68458,1,0,0:0:0:40:LR3_HiHat Normal.wav
329,192,68620,1,0,0:0:0:40:LR_Kick Hard Fast.wav
36,192,68620,1,0,0:0:0:0:
256,192,68945,1,0,0:0:0:40:LR_Snare Normal.wav
36,192,68945,1,0,0:0:0:0:
109,192,69269,1,0,0:0:0:40:LR_Kick Hard Fast.wav
329,192,69269,1,0,0:0:0:0:
182,192,69431,1,0,0:0:0:40:LR3_HiHat Normal.wav
402,192,69431,1,0,0:0:0:0:
448,192,69593,1,0,0:0:0:40:LR_Snare Normal.wav
256,192,69593,1,0,0:0:0:0:
402,192,69755,1,0,0:0:0:40:LR3_HiHat Normal.wav
182,192,69755,1,0,0:0:0:0:
329,192,69918,1,0,0:0:0:40:LR_Kick Hard Fast.wav
109,192,69918,1,0,0:0:0:0:
36,192,70242,1,0,0:0:0:40:LR_Snare Normal.wav
256,192,70242,1,0,0:0:0:0:
109,192,70404,1,0,0:0:0:40:LR3_HiHat Normal.wav
329,192,70404,1,0,0:0:0:0:
182,192,70566,1,0,0:0:0:40:LR_Kick Hard Fast.wav
475,192,70566,128,0,71053:0:0:0:0:
36,192,71053,1,0,0:0:0:40:LR3_HiHat Normal.wav
256,192,71053,1,0,0:0:0:0:
182,192,71215,1,0,0:0:0:40:LR_Kick Hard Fast.wav
402,192,71215,1,0,0:0:0:0:
36,192,71377,1,0,0:0:0:40:LR3_HiHat Normal.wav
256,192,71377,1,0,0:0:0:0:
320,192,71539,1,0,0:0:0:40:LR_Snare Normal.wav
109,192,71539,1,0,0:0:0:0:
182,192,71701,1,0,0:0:0:40:LR3_HiHat Normal.wav
402,192,71701,1,0,0:0:0:0:
256,192,71864,1,0,0:0:0:40:LR_Kick Hard Fast.wav
475,192,71864,1,0,0:0:0:0:
329,192,72026,1,0,0:0:0:40:LR3_HiHat Normal.wav
475,192,72026,1,0,0:0:0:0:
475,192,72188,1,0,0:0:0:40:LR_Snare Normal.wav
256,192,72188,1,0,0:0:0:0:
402,192,72350,1,0,0:0:0:40:LR3_HiHat Normal.wav
182,192,72350,1,0,0:0:0:0:
320,192,72512,1,0,0:0:0:40:LR_Kick Hard Fast.wav
109,192,72512,1,0,0:0:0:0:
402,192,72674,1,0,0:0:0:40:R_Chm J Whistle.wav
182,192,72674,1,0,0:0:0:0:
109,192,72837,1,0,0:0:0:40:LR_Snare Normal.wav
329,192,72837,1,0,0:0:0:0:
109,192,73161,1,0,0:0:0:40:LR_Kick Hard Fast.wav
402,192,73161,1,0,0:0:0:0:
256,192,73161,1,0,0:0:0:0:
475,192,73161,1,0,0:0:0:0:
36,192,73161,1,0,0:0:0:0:
109,192,73485,1,0,0:0:0:40:LR_Snare Normal.wav
402,192,73485,1,0,0:0:0:0:
109,192,73647,1,0,0:0:0:40:LR_Kick Hard Fast.wav
329,192,73647,1,0,0:0:0:0:
109,192,73809,1,0,0:0:0:40:LR_Kick Hard Fast.wav
402,192,73809,1,0,0:0:0:0:
36,192,73972,1,0,0:0:0:40:LR3_HiHat Normal.wav
182,192,73972,1,0,0:0:0:0:
329,192,74134,1,0,0:0:0:40:LR_Snare Normal.wav
475,192,74134,1,0,0:0:0:0:
36,192,74296,1,0,0:0:0:40:LR_Kick Hard Fast.wav
256,192,74296,1,0,0:0:0:0:
475,192,74296,1,0,0:0:0:0:
109,192,74296,128,0,74620:0:0:0:0:
402,192,74296,128,0,74620:0:0:0:0:
329,192,74620,1,0,0:0:0:40:LR_Snare Normal.wav
182,192,74620,1,0,0:0:0:0:
36,192,74782,1,0,0:0:0:40:LR_Snare Normal.wav
475,192,74782,1,0,0:0:0:0:
256,192,74782,1,0,0:0:0:0:
182,192,74945,1,0,0:0:0:40:LR_Kick Hard Fast.wav
329,192,74945,1,0,0:0:0:0:
109,192,74945,1,0,0:0:0:0:
402,192,74945,1,0,0:0:0:0:
182,192,75269,1,0,0:0:0:40:R_Chm J Whistle.wav
109,192,75350,1,0,0:0:0:40:R_Chm J Whistle.wav
36,192,75431,1,0,0:0:0:40:LR_Snare Normal.wav
182,192,75431,1,0,0:0:0:0:
109,192,75593,1,0,0:0:0:40:LR3_HiHat Normal.wav
256,192,75593,1,0,0:0:0:0:
182,192,75755,1,0,0:0:0:40:LR_Kick Hard Fast.wav
329,192,75755,1,0,0:0:0:0:
36,192,75918,1,0,0:0:0:40:LR3_HiHat Normal.wav
402,192,75918,1,0,0:0:0:0:
109,192,76080,1,0,0:0:0:40:LR_Kick Hard Fast.wav
256,192,76080,1,0,0:0:0:0:
329,192,76242,1,0,0:0:0:0:
475,192,76404,1,0,0:0:0:40:LR_Kick Hard Fast.wav
402,192,76404,1,0,0:0:0:0:
109,192,76566,1,0,0:0:0:40:LR3_HiHat Normal.wav
256,192,76566,1,0,0:0:0:0:
182,192,76728,1,0,0:0:0:40:LR_Kick Hard Fast.wav
329,192,76728,1,0,0:0:0:0:
402,192,76891,1,0,0:0:0:0:
36,192,77053,1,0,0:0:0:40:LR_Kick Hard Fast.wav
329,192,77053,1,0,0:0:0:40:LR_CymbalQST.wav
402,192,77377,1,0,0:0:0:40:LR_Kick Hard Fast.wav
109,192,77377,1,0,0:0:0:40:LR_CymbalQST.wav
192,192,77701,1,0,0:0:0:40:LR_Kick Hard Fast.wav
475,192,77701,128,0,78350:0:0:0:40:LR_CymbalQST.wav
402,192,77701,1,0,0:0:0:0:
36,192,77945,1,0,0:0:0:40:LR_Snare Normal.wav
109,192,77945,1,0,0:0:0:0:
256,192,78026,1,0,0:0:0:40:LR_Snare Normal.wav
329,192,78026,1,0,0:0:0:0:
256,192,78188,1,0,0:0:0:40:LR_Snare Normal.wav
329,192,78188,1,0,0:0:0:0:
182,192,78350,1,0,0:0:0:40:LR_Kick Hard Fast.wav
402,192,78350,1,0,0:0:0:0:
475,192,78512,1,0,0:0:0:40:LR3_HiHat Normal.wav
256,192,78512,1,0,0:0:0:0:
182,192,78837,1,0,0:0:0:0:
329,192,78999,1,0,0:0:0:40:LR_Kick Hard Fast.wav
109,192,78999,1,0,0:0:0:0:
64,192,79323,1,0,0:0:0:40:LR_Snare Normal.wav
256,192,79323,1,0,0:0:0:0:
109,192,79647,1,0,0:0:0:40:LR_Kick Hard Fast.wav
329,192,79647,1,0,0:0:0:0:
182,192,79809,1,0,0:0:0:40:LR3_HiHat Normal.wav
256,192,79972,1,0,0:0:0:40:LR_Snare Normal.wav
402,192,79972,1,0,0:0:0:0:
182,192,80134,1,0,0:0:0:0:
109,192,80296,1,0,0:0:0:40:LR_Kick Hard Fast.wav
256,192,80296,1,0,0:0:0:0:
320,192,80620,1,0,0:0:0:40:LR_Snare Normal.wav
64,192,80620,1,0,0:0:0:0:
109,192,80782,1,0,0:0:0:40:LR3_HiHat Normal.wav
402,192,80782,1,0,0:0:0:0:
182,192,80945,1,0,0:0:0:40:LR_Kick Hard Fast.wav
475,192,80945,1,0,0:0:0:0:
192,192,81269,1,0,0:0:0:40:LR_Snare Normal.wav
448,192,81269,1,0,0:0:0:0:
329,192,81269,1,0,0:0:0:0:
256,192,81431,1,0,0:0:0:40:LR3_HiHat Normal.wav
475,192,81593,1,0,0:0:0:40:LR_Kick Hard Fast.wav
256,192,81755,1,0,0:0:0:40:LR3_HiHat Normal.wav
182,192,81918,1,0,0:0:0:40:LR_Snare Normal.wav
402,192,81918,1,0,0:0:0:0:
475,192,82080,1,0,0:0:0:0:
182,192,82242,1,0,0:0:0:40:LR_Kick Hard Fast.wav
329,192,82242,1,0,0:0:0:0:
256,192,82404,1,0,0:0:0:40:LR3_HiHat Normal.wav
402,192,82404,1,0,0:0:0:0:
320,192,82566,1,0,0:0:0:40:LR_Snare Normal.wav
182,192,82566,1,0,0:0:0:0:
256,192,82728,1,0,0:0:0:40:LR_Kick Hard Fast.wav
109,192,82728,1,0,0:0:0:0:
182,192,82891,1,0,0:0:0:40:LR_Snare Normal.wav
36,192,82891,1,0,0:0:0:0:
256,192,83053,1,0,0:0:0:40:LR3_HiHat Normal.wav
402,192,83053,1,0,0:0:0:0:
109,192,83053,1,0,0:0:0:0:
448,192,83215,1,0,0:0:0:40:LR_Snare Normal.wav
192,192,83215,1,0,0:0:0:0:
329,192,83215,1,0,0:0:0:0:
109,192,83539,1,0,0:0:0:40:LR_Kick Hard Fast.wav
256,192,83539,1,0,0:0:0:0:
402,192,83539,1,0,0:0:0:0:
329,192,83864,1,0,0:0:0:40:LR_Snare Normal.wav
256,192,83864,1,0,0:0:0:0:
109,192,83864,1,0,0:0:0:0:
109,192,84188,1,0,0:0:0:40:LR_Kick Hard Fast.wav
256,192,84188,1,0,0:0:0:0:
402,192,84188,1,0,0:0:0:0:
182,192,84350,1,0,0:0:0:40:LR3_HiHat Normal.wav
36,192,84350,1,0,0:0:0:0:
329,192,84512,1,0,0:0:0:40:LR_Kick Hard Fast.wav
475,192,84512,1,0,0:0:0:0:
402,192,84674,1,0,0:0:0:40:LR_Snare Normal.wav
182,192,84674,1,0,0:0:0:0:
475,192,84999,1,0,0:0:0:40:LR3_HiHat Normal.wav
182,192,84999,1,0,0:0:0:0:
402,192,85161,1,0,0:0:0:40:LR_Kick Hard Fast.wav
182,192,85161,1,0,0:0:0:0:
329,192,85161,128,0,85485:0:0:0:0:
402,192,85485,128,0,85647:0:0:0:0:
475,192,85647,1,0,0:0:0:40:LR_Snare Normal.wav
36,192,85647,1,0,0:0:0:0:
256,192,85728,1,0,0:0:0:40:LR_Snare Normal.wav
182,192,85728,1,0,0:0:0:0:
109,192,85809,1,0,0:0:0:40:LR_Snare Normal.wav
329,192,85809,1,0,0:0:0:0:
182,192,85972,1,0,0:0:0:40:LR3_HiHat Normal.wav
402,192,85972,1,0,0:0:0:0:
256,192,86134,1,0,0:0:0:40:LR_Kick Hard Fast.wav
475,192,86134,1,0,0:0:0:0:
402,192,86134,1,0,0:0:0:0:
402,192,86296,1,0,0:0:0:40:LR3_HiHat Normal.wav
475,192,86296,1,0,0:0:0:0:
109,192,86458,1,0,0:0:0:40:LR_Snare Normal.wav
256,192,86458,1,0,0:0:0:0:
182,192,86620,1,0,0:0:0:40:LR3_HiHat Normal.wav
256,192,86782,1,0,0:0:0:40:LR_Kick Hard Fast.wav
402,192,86782,1,0,0:0:0:0:
182,192,87107,1,0,0:0:0:40:LR_Snare Normal.wav
329,192,87107,1,0,0:0:0:0:
256,192,87269,1,0,0:0:0:40:LR3_HiHat Normal.wav
402,192,87269,1,0,0:0:0:0:
64,192,87431,1,0,0:0:0:40:LR_Kick Hard Fast.wav
329,192,87431,1,0,0:0:0:40:LR_CymbalQST.wav
182,192,87431,1,0,0:0:0:0:
109,192,87755,1,0,0:0:0:40:LR_Kick Hard Fast.wav
402,192,87755,1,0,0:0:0:40:LR_CymbalQST.wav
256,192,87755,1,0,0:0:0:0:
192,192,88080,1,0,0:0:0:40:LR_Kick Hard Fast.wav
475,192,88080,1,0,0:0:0:40:LR_CymbalQST.wav
329,192,88080,1,0,0:0:0:0:
448,192,88728,1,0,0:0:0:40:LR_Snare Normal.wav
36,192,88728,128,0,89377:0:0:0:0:
329,192,89053,1,0,0:0:0:0:
256,192,89377,1,0,0:0:0:0:
109,192,89701,1,0,0:0:0:0:
475,192,90026,1,0,0:0:0:40:LR_Snare Normal.wav
329,192,90026,1,0,0:0:0:40:LR_CymbalQST.wav
182,192,90026,1,0,0:0:0:0:
36,192,90026,128,0,90674:0:0:0:0:
256,192,90350,1,0,0:0:0:0:
109,192,90674,1,0,0:0:0:0:
192,192,90999,1,0,0:0:0:40:Taiko 2.wav
329,192,90999,1,0,0:0:0:40:ride.wav
36,192,90999,1,0,0:0:0:0:
402,192,91323,1,0,0:0:0:40:LR_Snare Normal.wav
256,192,91323,1,0,0:0:0:40:Taiko 3.wav
475,192,91323,1,0,0:0:0:0:
329,192,91485,1,0,0:0:0:40:LR_Snare Normal.wav
182,192,91485,1,0,0:0:0:40:Taiko 3.wav
109,192,91485,1,0,0:0:0:0:
402,192,91972,1,0,0:0:0:40:LR_Snare Normal.wav
182,192,91972,1,0,0:0:0:40:Taiko 3.wav
475,192,91972,1,0,0:0:0:0:
329,192,92134,1,0,0:0:0:40:LR_Snare Normal.wav
109,192,92134,1,0,0:0:0:40:Taiko 3.wav
36,192,92134,1,0,0:0:0:0:
109,192,92620,1,0,0:0:0:40:Taiko 3.wav
36,192,92620,128,0,92945:0:0:0:0:
329,192,92620,1,0,0:0:0:0:
475,192,92620,1,0,0:0:0:0:
109,192,92945,1,0,0:0:0:0:
182,192,92945,1,0,0:0:0:0:
402,192,92945,1,0,0:0:0:0:
329,192,92945,128,0,93269:0:0:0:0:
256,192,93269,1,0,0:0:0:0:
182,192,93269,128,0,93593:0:0:0:0:
36,192,93269,1,0,0:0:0:0:
475,192,93269,1,0,0:0:0:0:
475,192,93593,1,0,0:0:0:40:Taiko 3.wav
329,192,93593,1,0,0:0:0:0:
109,192,93593,128,0,93918:0:0:0:0:
36,192,93593,1,0,0:0:0:0:
192,192,93918,1,0,0:0:0:40:LR_Snare Normal.wav
329,192,93918,1,0,0:0:0:40:Taiko 3.wav
402,192,93918,128,0,95053:0:0:0:0:
256,192,95215,128,0,95864:0:0:0:40:LR_Snare Normal.wav
329,192,95864,128,0,96512:0:0:0:40:LR_Snare Normal.wav
182,192,96512,1,0,0:0:0:40:LR3_HiHat Normal.wav
256,192,96593,1,0,0:0:0:40:R_Chm J Whistle.wav
402,192,96674,1,0,0:0:0:40:R_Chm J Whistle.wav
329,192,96755,1,0,0:0:0:40:R_Chm J Whistle.wav
256,192,96837,1,0,0:0:0:40:LR3_HiHat Normal.wav
475,192,96999,1,0,0:0:0:40:LR3_HiHat Normal.wav
329,192,97080,1,0,0:0:0:40:R_Chm J Whistle.wav
182,192,97161,1,0,0:0:0:40:R_Chm J Whistle.wav
36,192,97242,1,0,0:0:0:40:R_Chm J Whistle.wav
182,192,97323,1,0,0:0:0:40:LR3_HiHat Normal.wav
36,192,97485,128,0,97647:0:0:0:40:LR3_HiHat Normal.wav
109,192,97647,1,0,0:0:0:40:R_Chm J Whistle.wav
109,192,97809,128,0,97972:0:0:0:40:LR3_HiHat Normal.wav
182,192,97972,1,0,0:0:0:40:R_Chm J Whistle.wav
182,192,98134,128,0,98296:0:0:0:40:LR3_HiHat Normal.wav
256,192,98296,1,0,0:0:0:40:R_Chm J Whistle.wav
320,192,98458,1,0,0:0:0:40:R_Chm J Whistle.wav
475,192,98539,1,0,0:0:0:40:R_Chm J Whistle.wav
329,192,98620,1,0,0:0:0:40:R_Chm J Whistle.wav
192,192,98782,1,0,0:0:0:40:LR3_HiHat Normal.wav
36,192,98782,1,0,0:0:0:0:
36,192,99107,1,0,0:0:0:40:LR3_HiHat Normal.wav
329,192,99107,1,0,0:0:0:40:R_Chm J Whistle.wav
402,192,99188,1,0,0:0:0:40:R_Chm J Whistle.wav
475,192,99269,1,0,0:0:0:40:R_Chm J Whistle.wav
402,192,99350,1,0,0:0:0:40:R_Chm J Whistle.wav
329,192,99431,1,0,0:0:0:40:LR3_HiHat Normal.wav
182,192,99593,1,0,0:0:0:40:LR3_HiHat Normal.wav
256,192,99674,1,0,0:0:0:40:R_Chm J Whistle.wav
402,192,99755,1,0,0:0:0:40:R_Chm J Whistle.wav
329,192,99837,1,0,0:0:0:40:R_Chm J Whistle.wav
256,192,99918,1,0,0:0:0:40:LR3_HiHat Normal.wav
109,192,100080,128,0,100242:0:0:0:40:LR3_HiHat Normal.wav
182,192,100242,1,0,0:0:0:40:R_Chm J Whistle.wav
36,192,100404,128,0,100566:0:0:0:40:LR3_HiHat Normal.wav
182,192,100566,1,0,0:0:0:40:R_Chm J Whistle.wav
182,192,100728,128,0,100891:0:0:0:40:LR3_HiHat Normal.wav
329,192,100891,1,0,0:0:0:40:R_Chm J Whistle.wav
256,192,101053,1,0,0:0:0:40:LR3_HiHat Normal.wav
109,192,101053,1,0,0:0:0:0:
402,192,101053,1,0,0:0:0:0:
256,0,101296,1,0,0:0:0:40:Taiko 2.wav
256,118,101296,1,0,0:0:0:0:
36,192,101377,1,0,0:0:0:40:Taiko 2.wav
182,192,101377,1,0,0:0:0:0:
329,192,101377,1,0,0:0:0:0:
182,192,101539,1,0,0:0:0:40:LR3_HiHat Normal.wav
402,192,101539,1,0,0:0:0:40:Taiko 2.wav
475,192,101701,1,0,0:0:0:40:LR3_HiHat Normal.wav
329,192,101782,1,0,0:0:0:40:R_Chm J Whistle.wav
182,192,101864,1,0,0:0:0:40:R_Chm J Whistle.wav
36,192,101945,1,0,0:0:0:40:R_Chm J Whistle.wav
256,192,102026,1,0,0:0:0:40:LR3_HiHat Normal.wav
475,192,102188,1,0,0:0:0:40:LR3_HiHat Normal.wav
329,192,102269,1,0,0:0:0:40:R_Chm J Whistle.wav
182,192,102350,1,0,0:0:0:40:R_Chm J Whistle.wav
36,192,102431,1,0,0:0:0:40:R_Chm J Whistle.wav
109,192,102512,1,0,0:0:0:40:LR3_HiHat Normal.wav
182,192,102674,128,0,102837:0:0:0:40:LR3_HiHat Normal.wav
256,192,102837,1,0,0:0:0:40:R_Chm J Whistle.wav
256,192,102999,128,0,103161:0:0:0:40:LR3_HiHat Normal.wav
329,192,103161,1,0,0:0:0:40:R_Chm J Whistle.wav
329,192,103323,128,0,103485:0:0:0:40:LR3_HiHat Normal.wav
402,192,103485,1,0,0:0:0:40:R_Chm J Whistle.wav
109,192,103647,1,0,0:0:0:40:LR3_HiHat Normal.wav
256,192,103647,1,0,0:0:0:0:
182,192,103728,1,0,0:0:0:0:
329,192,103728,1,0,0:0:0:0:
256,192,103809,1,0,0:0:0:40:LR3_HiHat Normal.wav
109,192,103809,1,0,0:0:0:40:R_Chm J Whistle.wav
109,192,103972,1,0,0:0:0:0:
256,192,103972,1,0,0:0:0:0:
402,192,104296,1,0,0:0:0:40:LR_CymbalQST.wav
475,192,104296,1,0,0:0:0:0:
329,192,104296,1,0,0:0:0:0:
256,192,104296,1,0,0:0:0:0:
109,192,104458,1,0,0:0:0:40:R_Chm J Whistle.wav
320,192,104620,1,0,0:0:0:40:R_Chm J Whistle.wav
475,192,104620,1,0,0:0:0:0:
192,192,104782,1,0,0:0:0:40:R_Chm J Whistle.wav
448,192,104945,1,0,0:0:0:40:LR_CymbalQST.wav
329,192,104945,1,0,0:0:0:0:
402,192,104945,1,0,0:0:0:0:
256,192,104945,1,0,0:0:0:0:
36,192,105107,1,0,0:0:0:40:LR_CymbalQST.wav
182,192,105107,1,0,0:0:0:0:
109,192,105431,1,0,0:0:0:40:LR_CymbalQST.wav
256,192,105431,1,0,0:0:0:0:
320,192,105755,1,0,0:0:0:40:LR_CymbalQST.wav
182,192,105755,1,0,0:0:0:0:
448,192,105918,1,0,0:0:0:40:LR_CymbalQST.wav
256,192,105918,1,0,0:0:0:0:
329,192,106080,1,0,0:0:0:40:R_Chm J Whistle.wav
402,192,106242,1,0,0:0:0:40:R_Chm J Whistle.wav
182,192,106242,1,0,0:0:0:40:LR_CymbalQST.wav
256,192,106242,1,0,0:0:0:0:
109,192,106242,1,0,0:0:0:0:
320,192,106566,1,0,0:0:0:40:R_Chm J Whistle.wav
448,192,106566,1,0,0:0:0:40:LR_CymbalQST.wav
329,192,106891,1,0,0:0:0:40:R_Chm J Whistle.wav
475,192,106891,1,0,0:0:0:40:LR_CymbalQST.wav
329,192,107215,1,0,0:0:0:40:R_Chm J Whistle.wav
475,192,107215,1,0,0:0:0:40:LR_CymbalQST.wav
329,192,107539,1,0,0:0:0:40:R_Chm J Whistle.wav
475,192,107539,1,0,0:0:0:40:LR_CymbalQST.wav
402,192,107864,1,0,0:0:0:40:R_Chm J Whistle.wav
109,192,107864,1,0,0:0:0:0:
256,192,107864,1,0,0:0:0:0:
475,192,108026,128,0,113296:0:0:0:40:LR_CymbalQST.wav
329,192,108026,128,0,113296:0:0:0:0:
182,192,108026,128,0,113296:0:0:0:0:
36,192,108026,128,0,113296:0:0:0:0:
329,192,113377,1,0,0:0:0:40:LR_CymbalQST.wav
182,192,113377,1,0,0:0:0:0:
36,192,113377,1,0,0:0:0:0:
475,192,113377,1,0,0:0:0:0:
