osu file format v14

[General]
AudioFilename: Destroy!.mp3
AudioLeadIn: 0
PreviewTime: 79545
Countdown: 0
SampleSet: Soft
StackLeniency: 0.7
Mode: 3
LetterboxInBreaks: 0
SpecialStyle: 0
WidescreenStoryboard: 0

[Editor]
DistanceSpacing: 0.6
BeatDivisor: 12
GridSize: 8
TimelineZoom: 2.5

[Metadata]
Title:Bakunana*Testroyer
TitleUnicode:爆なな☆てすとロイヤー
Artist:ARM feat. Nanahira
ArtistUnicode:ARM feat. ななひら
Creator:Rinzler
Version:MEDIUM
Source:BeatStream
Tags:IOSYS confetto
BeatmapID:721999
BeatmapSetID:324992

[Difficulty]
HPDrainRate:7.5
CircleSize:4
OverallDifficulty:7.5
ApproachRate:5
SliderMultiplier:1.4
SliderTickRate:1

[Events]
//Background and Video events
0,0,"BG.jpg",0,0
//Break Periods
//Storyboard Layer 0 (Background)
//Storyboard Layer 1 (Fail)
//Storyboard Layer 2 (Pass)
//Storyboard Layer 3 (Foreground)
//Storyboard Sound Samples

[TimingPoints]
5745,300,4,2,1,35,1,0
80145,-100,4,2,1,35,0,1
104145,-100,4,2,1,35,0,0

[HitObjects]
320,192,5745,5,4,0:0:0:0:
448,192,6045,1,0,0:0:0:35:Clap.wav
64,192,6045,1,0,0:0:0:0:
192,192,6195,1,4,0:0:0:0:
320,192,6345,1,2,0:0:0:0:
448,192,6495,1,4,0:0:0:0:
320,192,6645,1,0,0:0:0:35:Clap.wav
64,192,6645,1,0,0:0:0:0:
448,192,6945,1,4,0:0:0:0:
192,192,7245,1,0,0:0:0:35:Clap.wav
64,192,7245,1,0,0:0:0:0:
448,192,7395,1,4,0:0:0:0:
64,192,7545,1,2,0:0:0:0:
192,192,7695,1,0,0:0:0:35:Clap.wav
320,192,7695,1,0,0:0:0:0:
448,192,7845,1,0,0:0:0:35:Clap.wav
64,192,7845,1,0,0:0:0:0:
192,192,8145,1,4,0:0:0:0:
64,192,8445,1,0,0:0:0:35:Clap.wav
448,192,8445,1,0,0:0:0:0:
320,192,8595,1,4,0:0:0:0:
192,192,8745,1,2,0:0:0:0:
64,192,8895,1,4,0:0:0:0:
192,192,9045,1,0,0:0:0:35:Clap.wav
448,192,9045,1,0,0:0:0:0:
320,192,9345,1,4,0:0:0:0:
448,192,9645,1,0,0:0:0:35:Clap.wav
64,192,9645,1,0,0:0:0:0:
192,192,9795,1,4,0:0:0:0:
448,192,9945,1,2,0:0:0:0:
320,192,10095,1,0,0:0:0:35:Clap.wav
64,192,10095,1,0,0:0:0:0:
192,192,10245,1,0,0:0:0:35:Clap.wav
448,192,10245,1,0,0:0:0:0:
320,192,10395,1,0,0:0:0:35:Clap.wav
64,192,10395,1,0,0:0:0:0:
448,192,10545,1,0,0:0:0:0:
64,192,10545,128,0,11445:0:0:0:0:
448,192,11745,1,0,0:0:0:0:
64,192,11820,1,0,0:0:0:0:
192,192,11895,1,0,0:0:0:0:
320,192,11970,1,0,0:0:0:0:
448,192,12045,1,0,0:0:0:0:
192,192,12195,1,0,0:0:0:0:
320,192,12345,1,0,0:0:0:0:
64,192,12495,1,4,0:0:0:0:
448,192,12645,1,0,0:0:0:35:Clap.wav
192,192,12645,1,8,0:0:0:0:
320,192,12795,1,0,0:0:0:0:
192,192,12945,1,4,0:0:0:0:
64,192,13095,1,0,0:0:0:0:
192,192,13170,1,0,0:0:0:0:
448,192,13245,1,8,0:0:0:0:
320,192,13245,1,0,0:0:0:0:
64,192,13395,1,0,0:0:0:0:
192,192,13470,1,0,0:0:0:0:
320,192,13545,1,4,0:0:0:0:
64,192,13695,1,0,0:0:0:0:
192,192,13770,1,0,0:0:0:0:
448,192,13845,1,8,0:0:0:0:
320,192,13845,1,0,0:0:0:0:
64,192,13995,1,0,0:0:0:0:
192,192,14070,1,0,0:0:0:0:
320,192,14145,1,4,0:0:0:0:
192,192,14295,1,0,0:0:0:0:
320,192,14370,1,0,0:0:0:0:
448,192,14445,1,8,0:0:0:0:
64,192,14445,1,0,0:0:0:0:
320,192,14595,1,0,0:0:0:0:
448,192,14670,1,0,0:0:0:0:
64,192,14745,1,4,0:0:0:0:
320,192,14895,1,0,0:0:0:0:
192,192,15045,1,8,0:0:0:0:
64,192,15045,1,0,0:0:0:0:
448,192,15195,1,0,0:0:0:0:
64,192,15345,1,4,0:0:0:0:
448,192,15495,1,0,0:0:0:0:
320,192,15570,1,0,0:0:0:0:
192,192,15645,1,8,0:0:0:0:
64,192,15645,1,0,0:0:0:0:
448,192,15795,1,0,0:0:0:0:
320,192,15870,1,0,0:0:0:0:
192,192,15945,1,4,0:0:0:0:
448,192,16095,1,0,0:0:0:0:
320,192,16170,1,0,0:0:0:0:
64,192,16245,1,8,0:0:0:0:
192,192,16245,1,0,0:0:0:0:
320,192,16395,1,0,0:0:0:0:
192,192,16470,1,0,0:0:0:0:
448,192,16545,1,4,0:0:0:0:
320,192,16620,1,0,0:0:0:0:
192,192,16695,1,0,0:0:0:0:
320,192,16770,1,0,0:0:0:0:
448,192,16845,1,8,0:0:0:0:
64,192,16845,1,0,0:0:0:0:
192,192,16920,1,0,0:0:0:0:
320,192,16995,1,0,0:0:0:0:
448,192,17070,1,0,0:0:0:0:
192,192,17145,1,4,0:0:0:0:
320,192,17220,1,0,0:0:0:0:
64,192,17295,1,0,0:0:0:0:
192,192,17370,1,0,0:0:0:0:
320,192,17445,1,8,0:0:0:0:
448,192,17445,1,0,0:0:0:0:
192,192,17520,1,0,0:0:0:0:
64,192,17595,1,0,0:0:0:0:
448,192,17670,1,0,0:0:0:0:
320,192,17745,1,4,0:0:0:0:
192,192,17895,1,0,0:0:0:0:
320,192,17970,1,0,0:0:0:0:
64,192,18045,1,8,0:0:0:0:
448,192,18045,1,0,0:0:0:0:
320,192,18195,1,0,0:0:0:0:
192,192,18345,1,4,0:0:0:0:
320,192,18495,1,0,0:0:0:0:
192,192,18570,1,0,0:0:0:0:
64,192,18645,1,8,0:0:0:0:
448,192,18645,1,0,0:0:0:0:
192,192,18795,1,0,0:0:0:0:
448,192,18945,1,4,0:0:0:0:
320,192,19020,1,0,0:0:0:0:
192,192,19095,1,0,0:0:0:0:
64,192,19170,1,0,0:0:0:0:
448,192,19245,1,8,0:0:0:0:
320,192,19245,1,0,0:0:0:0:
192,192,19320,1,0,0:0:0:0:
448,192,19395,1,0,0:0:0:0:
64,192,19470,1,0,0:0:0:0:
192,192,19545,1,4,0:0:0:0:
320,192,19620,1,4,0:0:0:0:
192,192,19695,1,4,0:0:0:0:
320,192,19770,1,4,0:0:0:0:
448,192,19845,1,4,0:0:0:0:
64,192,19920,1,4,0:0:0:0:
448,192,19995,1,4,0:0:0:0:
64,192,20070,1,4,0:0:0:0:
320,192,20145,1,4,0:0:0:0:
192,192,20145,1,0,0:0:0:0:
448,192,20745,1,4,0:0:0:0:
320,192,20745,1,0,0:0:0:0:
320,192,21345,1,4,0:0:0:0:
192,192,21345,1,0,0:0:0:0:
192,192,21945,1,4,0:0:0:0:
64,192,21945,1,0,0:0:0:0:
64,192,22545,128,0,22845:0:0:0:0:
320,192,22545,1,4,0:0:0:0:
192,192,22845,1,4,0:0:0:0:
448,192,22845,1,0,0:0:0:0:
320,192,22995,1,0,0:0:0:0:
64,192,23295,1,0,0:0:0:0:
192,192,23445,1,0,0:0:0:0:
320,192,23595,1,0,0:0:0:0:
448,192,23745,128,0,24045:0:0:0:0:
64,192,24045,1,4,0:0:0:0:
320,192,24045,1,0,0:0:0:0:
192,192,24195,1,0,0:0:0:0:
64,192,24495,1,0,0:0:0:0:
448,192,24645,1,0,0:0:0:0:
320,192,24795,1,0,0:0:0:0:
64,192,24945,128,0,25245:0:0:0:0:
448,192,25245,1,4,0:0:0:0:
192,192,25245,1,0,0:0:0:0:
320,192,25395,1,0,0:0:0:0:
64,192,25695,1,0,0:0:0:0:
320,192,25845,1,0,0:0:0:0:
192,192,25995,1,0,0:0:0:0:
448,192,26145,128,0,26445:0:0:0:0:
64,192,26220,1,0,0:0:0:0:
320,192,26220,1,4,0:0:0:0:
320,192,26445,1,0,0:0:0:0:
192,192,26445,1,4,0:0:0:0:
64,192,26745,1,0,0:0:0:0:
448,192,26745,1,4,0:0:0:0:
192,192,26895,1,0,0:0:0:0:
448,192,27045,128,0,27345:0:0:0:0:
320,192,27045,1,4,0:0:0:0:
64,192,27195,1,0,0:0:0:0:
192,192,27345,128,0,27645:0:0:0:0:
64,192,27645,1,4,0:0:0:0:
448,192,27645,1,0,0:0:0:0:
320,192,27795,1,0,0:0:0:0:
64,192,28095,1,0,0:0:0:0:
448,192,28245,1,0,0:0:0:0:
192,192,28395,1,0,0:0:0:0:
320,192,28545,128,0,28845:0:0:0:0:
64,192,28845,1,0,0:0:0:0:
448,192,28845,1,4,0:0:0:0:
192,192,28995,1,0,0:0:0:0:
64,192,29295,1,0,0:0:0:0:
192,192,29445,1,0,0:0:0:0:
320,192,29595,1,0,0:0:0:0:
448,192,29745,1,4,0:0:0:0:
320,192,29820,1,0,0:0:0:0:
192,192,29895,1,0,0:0:0:0:
64,192,29970,1,0,0:0:0:0:
448,192,30045,1,0,0:0:0:0:
320,192,30195,1,0,0:0:0:0:
64,192,30345,1,4,0:0:0:0:
192,192,30420,1,0,0:0:0:0:
320,192,30495,1,0,0:0:0:0:
448,192,30570,1,0,0:0:0:0:
64,192,30645,1,0,0:0:0:0:
192,192,30795,1,0,0:0:0:0:
448,192,30945,1,4,0:0:0:0:
320,192,31020,1,4,0:0:0:0:
192,192,31095,1,4,0:0:0:0:
64,192,31245,1,4,0:0:0:0:
192,192,31320,1,4,0:0:0:0:
320,192,31395,1,4,0:0:0:0:
448,192,31545,1,4,0:0:0:0:
320,192,31620,1,0,0:0:0:0:
192,192,31695,1,4,0:0:0:0:
64,192,31770,1,0,0:0:0:0:
320,192,31845,1,4,0:0:0:0:
192,192,31920,1,0,0:0:0:0:
448,192,31995,1,4,0:0:0:0:
320,192,32070,1,0,0:0:0:0:
192,192,32145,1,0,0:0:0:35:Finish.wav
64,192,32145,1,0,0:0:0:0:
320,192,32295,1,0,0:0:0:0:
448,192,32445,1,8,0:0:0:0:
64,192,32445,1,0,0:0:0:0:
192,192,32595,1,2,0:0:0:0:
320,192,32745,1,4,0:0:0:0:
192,192,32895,1,2,0:0:0:0:
64,192,33045,1,8,0:0:0:0:
448,192,33045,1,0,0:0:0:0:
320,192,33195,1,2,0:0:0:0:
192,192,33345,1,4,0:0:0:0:
64,192,33495,1,2,0:0:0:0:
448,192,33645,1,8,0:0:0:0:
320,192,33645,1,0,0:0:0:0:
192,192,33795,1,2,0:0:0:0:
320,192,33945,1,4,0:0:0:0:
448,192,34095,1,2,0:0:0:0:
64,192,34245,1,8,0:0:0:0:
192,192,34245,1,0,0:0:0:0:
320,192,34395,1,2,0:0:0:0:
448,192,34545,1,4,0:0:0:0:
192,192,34695,1,2,0:0:0:0:
64,192,34845,1,8,0:0:0:0:
320,192,34845,1,0,0:0:0:0:
448,192,34995,1,2,0:0:0:0:
192,192,35145,1,4,0:0:0:0:
320,192,35295,1,2,0:0:0:0:
448,192,35445,1,8,0:0:0:0:
192,192,35445,1,0,0:0:0:0:
64,192,35595,1,2,0:0:0:0:
448,192,35745,1,4,0:0:0:0:
320,192,35895,1,2,0:0:0:0:
64,192,36045,1,8,0:0:0:0:
192,192,36045,1,0,0:0:0:0:
320,192,36195,1,2,0:0:0:0:
448,192,36345,1,4,0:0:0:0:
64,192,36495,1,4,0:0:0:0:
192,192,36570,1,4,0:0:0:0:
320,192,36645,1,8,0:0:0:0:
448,192,36645,1,0,0:0:0:0:
64,192,36795,1,4,0:0:0:0:
320,192,36945,1,4,0:0:0:0:
192,192,37095,1,2,0:0:0:0:
64,192,37245,1,0,0:0:0:35:Finish.wav
320,192,37245,1,0,0:0:0:0:
448,192,37245,1,0,0:0:0:0:
192,192,37395,1,4,0:0:0:0:
448,192,37545,1,0,0:0:0:35:Finish.wav
192,192,37545,1,0,0:0:0:0:
64,192,37545,1,0,0:0:0:0:
320,192,37695,1,4,0:0:0:0:
192,192,37845,1,2,0:0:0:0:
448,192,37995,1,4,0:0:0:0:
64,192,38145,1,4,0:0:0:0:
320,192,38295,1,2,0:0:0:0:
192,192,38445,1,0,0:0:0:35:Finish.wav
64,192,38445,1,0,0:0:0:0:
448,192,38445,1,0,0:0:0:0:
192,192,38595,1,4,0:0:0:0:
64,192,38745,1,0,0:0:0:35:Finish.wav
320,192,38745,1,0,0:0:0:0:
448,192,38745,1,0,0:0:0:0:
192,192,38895,1,4,0:0:0:0:
448,192,39045,1,2,0:0:0:0:
320,192,39195,1,4,0:0:0:0:
64,192,39345,1,4,0:0:0:0:
192,192,39420,1,4,0:0:0:0:
320,192,39495,1,4,0:0:0:0:
448,192,39570,1,4,0:0:0:0:
64,192,39645,1,4,0:0:0:0:
192,192,39720,1,4,0:0:0:0:
320,192,39795,1,4,0:0:0:0:
448,192,39870,1,4,0:0:0:0:
64,192,39945,1,4,0:0:0:0:
320,192,40095,1,4,0:0:0:0:
192,192,40245,1,4,0:0:0:0:
448,192,40395,1,4,0:0:0:0:
64,192,41145,128,0,44120:0:0:0:0:
192,192,44120,1,0,0:0:0:0:
320,192,44170,1,0,0:0:0:0:
448,192,44220,128,0,45020:0:0:0:0:
64,192,44870,1,0,0:0:0:0:
192,192,44920,1,0,0:0:0:0:
320,192,44970,1,0,0:0:0:0:
64,192,45020,128,0,45345:0:0:0:0:
192,192,45195,1,0,0:0:0:0:
448,192,45345,128,2,45970:0:0:0:0:
64,192,45970,128,0,46545:0:0:0:0:
320,192,46545,128,2,47170:0:0:0:0:
192,192,47170,128,0,47745:0:0:0:0:
64,192,47745,128,2,48095:0:0:0:0:
192,192,48095,1,0,0:0:0:0:
320,192,48220,1,0,0:0:0:0:
448,192,48345,1,0,0:0:0:0:
320,192,48495,1,0,0:0:0:0:
192,192,48595,1,0,0:0:0:0:
64,192,48695,1,0,0:0:0:0:
448,192,48795,1,0,0:0:0:0:
320,192,48945,128,2,49095:0:0:0:0:
192,192,49245,128,0,49395:0:0:0:0:
448,192,49545,128,0,49695:0:0:0:0:
64,192,49845,128,0,49995:0:0:0:0:
320,192,50145,128,2,50495:0:0:0:0:
192,192,50495,1,0,0:0:0:0:
448,192,50745,128,0,51070:0:0:0:0:
64,192,51070,1,0,0:0:0:0:
192,192,51345,128,2,51670:0:0:0:0:
320,192,51670,1,0,0:0:0:0:
448,192,51945,128,0,52282:0:0:0:0:
320,192,52282,1,0,0:0:0:0:
64,192,52570,128,0,52720:0:0:0:0:
192,192,52870,128,0,53020:0:0:0:0:
320,192,53170,128,0,53320:0:0:0:0:
448,192,53470,128,0,53620:0:0:0:0:
64,192,53745,1,4,0:0:0:0:
448,192,53945,1,4,0:0:0:0:
64,192,54245,1,4,0:0:0:0:
192,192,54495,1,0,0:0:0:0:
448,192,54645,1,0,0:0:0:0:
320,192,54720,1,0,0:0:0:0:
192,192,54795,1,0,0:0:0:0:
64,192,54870,1,0,0:0:0:0:
448,192,54945,1,0,0:0:0:35:Finish.wav
320,192,54945,1,0,0:0:0:0:
192,192,55095,1,0,0:0:0:0:
64,192,55245,1,8,0:0:0:0:
448,192,55245,1,0,0:0:0:0:
320,192,55395,1,2,0:0:0:0:
192,192,55545,1,4,0:0:0:0:
448,192,55695,1,2,0:0:0:0:
320,192,55845,1,8,0:0:0:0:
64,192,55845,1,0,0:0:0:0:
192,192,55995,1,2,0:0:0:0:
320,192,56145,1,4,0:0:0:0:
192,192,56295,1,2,0:0:0:0:
448,192,56445,1,8,0:0:0:0:
64,192,56445,1,0,0:0:0:0:
320,192,56595,1,2,0:0:0:0:
192,192,56745,1,4,0:0:0:0:
320,192,56895,1,2,0:0:0:0:
448,192,57045,1,8,0:0:0:0:
64,192,57045,1,0,0:0:0:0:
192,192,57195,1,2,0:0:0:0:
320,192,57345,1,4,0:0:0:0:
64,192,57495,1,2,0:0:0:0:
448,192,57645,1,8,0:0:0:0:
192,192,57645,1,0,0:0:0:0:
320,192,57795,1,2,0:0:0:0:
192,192,57945,1,4,0:0:0:0:
64,192,58095,1,2,0:0:0:0:
448,192,58245,1,8,0:0:0:0:
320,192,58245,1,0,0:0:0:0:
192,192,58395,1,2,0:0:0:0:
64,192,58545,128,4,58845:0:0:0:0:
320,192,58695,1,0,0:0:0:0:
192,192,58845,128,8,59145:0:0:0:0:
448,192,58845,1,0,0:0:0:0:
64,192,58995,1,0,0:0:0:0:
320,192,59145,128,4,59445:0:0:0:0:
192,192,59295,1,0,0:0:0:0:
448,192,59445,128,8,59745:0:0:0:0:
64,192,59445,1,0,0:0:0:0:
192,192,59595,1,2,0:0:0:0:
320,192,59745,1,4,0:0:0:0:
192,192,59895,1,2,0:0:0:0:
64,192,60045,1,8,0:0:0:0:
448,192,60045,1,0,0:0:0:0:
192,192,60195,1,2,0:0:0:0:
320,192,60345,1,4,0:0:0:0:
448,192,60495,1,2,0:0:0:0:
192,192,60645,1,8,0:0:0:0:
64,192,60645,1,0,0:0:0:0:
320,192,60795,1,2,0:0:0:0:
448,192,60945,1,4,0:0:0:0:
320,192,61095,1,2,0:0:0:0:
64,192,61245,1,8,0:0:0:0:
192,192,61245,1,0,0:0:0:0:
448,192,61395,1,2,0:0:0:0:
64,192,61545,1,4,0:0:0:0:
192,192,61695,1,2,0:0:0:0:
320,192,61845,1,8,0:0:0:0:
448,192,61845,1,0,0:0:0:0:
64,192,61995,1,2,0:0:0:0:
448,192,62445,128,0,62745:0:0:0:35:Finish.wav
64,192,62445,1,0,0:0:0:0:
64,192,63045,128,0,63345:0:0:0:35:Finish.wav
448,192,63045,1,0,0:0:0:0:
192,192,63345,1,4,0:0:0:0:
320,192,63495,1,4,0:0:0:0:
448,192,63795,128,0,64095:0:0:0:35:Finish.wav
64,192,63795,1,0,0:0:0:0:
320,192,64095,1,4,0:0:0:0:
192,192,64245,1,4,0:0:0:0:
64,192,64395,1,4,0:0:0:0:
448,192,64545,1,4,0:0:0:0:
320,192,64695,1,2,0:0:0:0:
192,192,64845,1,8,0:0:0:0:
64,192,64845,1,0,0:0:0:0:
320,192,64995,1,2,0:0:0:0:
448,192,65145,1,4,0:0:0:0:
64,192,65295,1,2,0:0:0:0:
192,192,65445,1,8,0:0:0:0:
448,192,65445,1,0,0:0:0:0:
320,192,65595,1,2,0:0:0:0:
448,192,65745,1,4,0:0:0:0:
320,192,65895,1,2,0:0:0:0:
64,192,66045,1,8,0:0:0:0:
192,192,66045,1,0,0:0:0:0:
448,192,66195,1,2,0:0:0:0:
320,192,66345,1,0,0:0:0:35:Finish.wav
64,192,66345,1,0,0:0:0:0:
192,192,66545,1,0,0:0:0:35:Finish.wav
448,192,66545,1,0,0:0:0:0:
64,192,66745,1,0,0:0:0:0:
320,192,66745,1,0,0:0:0:35:Finish.wav
448,192,66945,1,0,0:0:0:0:
64,192,66945,1,0,0:0:0:35:Finish.wav
192,192,67095,1,2,0:0:0:0:
320,192,67245,1,8,0:0:0:0:
448,192,67245,1,0,0:0:0:0:
64,192,67395,1,2,0:0:0:0:
192,192,67545,1,4,0:0:0:0:
320,192,67695,1,2,0:0:0:0:
448,192,67845,1,8,0:0:0:0:
64,192,67845,1,0,0:0:0:0:
192,192,67995,1,2,0:0:0:0:
320,192,68145,1,4,0:0:0:0:
192,192,68245,1,4,0:0:0:0:
64,192,68345,1,4,0:0:0:0:
448,192,68445,1,8,0:0:0:0:
320,192,68445,1,0,0:0:0:0:
192,192,68545,1,4,0:0:0:0:
320,192,68645,1,4,0:0:0:0:
64,192,68745,1,4,0:0:0:0:
448,192,68845,1,4,0:0:0:0:
320,192,68945,1,4,0:0:0:0:
64,192,69045,1,8,0:0:0:0:
192,192,69045,1,0,0:0:0:0:
320,192,69145,1,4,0:0:0:0:
448,192,69245,1,4,0:0:0:0:
64,192,69345,128,0,70395:0:0:0:35:Finish.wav
192,192,69345,1,0,0:0:0:0:
448,192,70395,1,0,0:0:0:35:Finish.wav
192,192,70395,1,0,0:0:0:0:
320,192,70695,1,4,0:0:0:0:
192,192,70770,1,4,0:0:0:0:
64,192,70845,1,4,0:0:0:0:
448,192,70995,1,4,0:0:0:0:
320,192,71070,1,4,0:0:0:0:
192,192,71145,1,4,0:0:0:0:
64,192,71445,1,4,0:0:0:0:
448,192,71745,128,0,72045:0:0:0:35:Finish.wav
192,192,71745,1,0,0:0:0:0:
320,192,72045,128,0,72345:0:0:0:0:
192,192,72345,128,0,72645:0:0:0:0:
64,192,72645,128,0,72945:0:0:0:0:
448,192,72945,128,0,73245:0:0:0:0:
320,192,73245,128,0,73545:0:0:0:0:
192,192,73545,128,0,73845:0:0:0:0:
64,192,73845,128,0,74145:0:0:0:0:
448,192,74145,128,0,74445:0:0:0:0:
320,192,74445,128,0,74745:0:0:0:0:
448,192,74745,128,0,75195:0:0:0:0:
192,192,74745,128,0,75045:0:0:0:0:
64,192,75045,128,0,75345:0:0:0:0:
192,192,75345,1,0,0:0:0:35:Finish.wav
320,192,75345,128,0,76395:0:0:0:0:
448,192,75345,1,0,0:0:0:0:
64,192,76545,128,0,77595:0:0:0:35:Finish.wav
448,192,76545,1,0,0:0:0:0:
192,192,76545,1,0,0:0:0:0:
64,192,77745,1,0,0:0:0:35:Finish.wav
448,192,77745,128,0,78345:0:0:0:0:
320,192,77745,1,0,0:0:0:0:
192,192,78345,1,0,0:0:0:35:Finish.wav
64,192,78345,128,0,78645:0:0:0:0:
448,192,78645,128,0,78945:0:0:0:0:
64,192,78945,128,4,79545:0:0:0:0:
320,192,78945,1,0,0:0:0:0:
448,192,79545,1,0,0:0:0:35:Clap.wav
192,192,79695,1,4,0:0:0:0:
320,192,79770,1,4,0:0:0:0:
448,192,79845,1,0,0:0:0:35:Clap.wav
64,192,80145,1,4,0:0:0:0:
320,192,80145,1,0,0:0:0:35:Finish.wav
448,192,80145,1,0,0:0:0:0:
192,192,80295,1,2,0:0:0:0:
320,192,80445,1,8,0:0:0:0:
448,192,80445,1,0,0:0:0:0:
192,192,80595,1,2,0:0:0:0:
64,192,80745,1,4,0:0:0:0:
448,192,80895,1,2,0:0:0:0:
192,192,81045,1,8,0:0:0:0:
64,192,81045,1,0,0:0:0:0:
320,192,81195,1,2,0:0:0:0:
448,192,81345,1,4,0:0:0:0:
64,192,81495,1,2,0:0:0:0:
448,192,81645,1,8,0:0:0:0:
192,192,81645,1,0,0:0:0:0:
320,192,81795,1,2,0:0:0:0:
192,192,81945,1,4,0:0:0:0:
64,192,82095,1,2,0:0:0:0:
448,192,82245,1,8,0:0:0:0:
320,192,82245,1,0,0:0:0:0:
192,192,82395,1,2,0:0:0:0:
64,192,82545,1,4,0:0:0:0:
448,192,82695,1,2,0:0:0:0:
64,192,82845,1,8,0:0:0:0:
320,192,82845,1,0,0:0:0:0:
192,192,82995,1,2,0:0:0:0:
320,192,83145,1,4,0:0:0:0:
448,192,83295,1,2,0:0:0:0:
64,192,83445,1,8,0:0:0:0:
192,192,83445,1,0,0:0:0:0:
320,192,83595,1,2,0:0:0:0:
448,192,83745,1,4,0:0:0:0:
320,192,83895,1,2,0:0:0:0:
192,192,84045,1,8,0:0:0:0:
64,192,84045,1,0,0:0:0:0:
448,192,84195,1,4,0:0:0:0:
320,192,84270,1,4,0:0:0:0:
192,192,84345,1,4,0:0:0:0:
448,192,84495,1,4,0:0:0:0:
64,192,84645,1,8,0:0:0:0:
192,192,84645,1,0,0:0:0:0:
448,192,84795,1,4,0:0:0:0:
320,192,84945,1,0,0:0:0:35:Finish.wav
192,192,84945,1,0,0:0:0:0:
64,192,84945,1,0,0:0:0:0:
448,192,85095,1,2,0:0:0:0:
64,192,85245,1,8,0:0:0:0:
320,192,85245,1,0,0:0:0:0:
192,192,85395,1,2,0:0:0:0:
320,192,85545,1,4,0:0:0:0:
448,192,85695,1,2,0:0:0:0:
192,192,85845,1,8,0:0:0:0:
64,192,85845,1,0,0:0:0:0:
320,192,85995,1,2,0:0:0:0:
448,192,86145,1,4,0:0:0:0:
192,192,86295,1,2,0:0:0:0:
320,192,86445,1,8,0:0:0:0:
64,192,86445,1,0,0:0:0:0:
448,192,86595,1,2,0:0:0:0:
320,192,86745,1,4,0:0:0:0:
192,192,86895,1,4,0:0:0:0:
64,192,87045,1,8,0:0:0:0:
448,192,87045,1,0,0:0:0:0:
320,192,87195,1,2,0:0:0:0:
192,192,87345,1,4,0:0:0:0:
320,192,87495,1,4,0:0:0:0:
192,192,87645,1,0,0:0:0:35:Finish.wav
64,192,87645,1,0,0:0:0:0:
448,192,87645,1,0,0:0:0:0:
320,192,87795,1,4,0:0:0:0:
192,192,87945,1,2,0:0:0:0:
64,192,88095,1,4,0:0:0:0:
192,192,88245,1,8,0:0:0:0:
448,192,88245,1,0,0:0:0:0:
320,192,88395,1,4,0:0:0:0:
448,192,88545,1,4,0:0:0:0:
320,192,88620,1,0,0:0:0:0:
192,192,88695,1,0,0:0:0:0:
64,192,88770,1,0,0:0:0:0:
448,192,88845,1,8,0:0:0:0:
320,192,88920,1,0,0:0:0:0:
192,192,88995,1,0,0:0:0:0:
64,192,89070,1,0,0:0:0:0:
448,192,89145,1,4,0:0:0:0:
320,192,89220,1,0,0:0:0:0:
192,192,89295,1,0,0:0:0:0:
64,192,89370,1,0,0:0:0:0:
448,192,89445,1,8,0:0:0:0:
320,192,89520,1,0,0:0:0:0:
192,192,89595,1,0,0:0:0:0:
64,192,89670,1,0,0:0:0:0:
448,192,89745,128,0,89820:0:0:0:0:
64,192,90045,128,0,90120:0:0:0:0:
320,192,90345,128,0,90495:0:0:0:0:
192,192,90495,128,0,90645:0:0:0:0:
448,192,90795,128,0,90945:0:0:0:0:
320,192,91095,128,0,91245:0:0:0:0:
192,192,91245,128,0,91395:0:0:0:0:
64,192,91395,128,0,91545:0:0:0:0:
448,192,91695,128,0,91845:0:0:0:0:
320,192,91845,128,0,91995:0:0:0:0:
192,192,91995,128,0,92145:0:0:0:0:
64,192,92145,128,0,92295:0:0:0:0:
320,192,92295,128,0,92445:0:0:0:0:
192,192,92445,128,0,92595:0:0:0:0:
448,192,92595,128,0,92745:0:0:0:0:
320,192,92745,128,0,92895:0:0:0:0:
192,192,92895,128,0,93045:0:0:0:0:
64,192,93045,128,0,93195:0:0:0:0:
448,192,93195,128,0,93345:0:0:0:0:
192,192,93345,128,0,93495:0:0:0:0:
320,192,93495,128,0,93645:0:0:0:0:
64,192,93645,128,0,93795:0:0:0:0:
192,192,93795,128,0,93945:0:0:0:0:
448,192,93945,128,0,94545:0:0:0:0:
320,192,94095,1,4,0:0:0:0:
192,192,94245,1,4,0:0:0:0:
64,192,94395,1,4,0:0:0:0:
320,192,94545,1,0,0:0:0:35:Finish.wav
192,192,94545,1,0,0:0:0:0:
64,192,94845,1,8,0:0:0:0:
448,192,94845,1,0,0:0:0:0:
320,192,94995,1,4,0:0:0:0:
192,192,95145,1,4,0:0:0:0:
448,192,95445,1,8,0:0:0:0:
64,192,95445,1,0,0:0:0:0:
320,192,95745,1,4,0:0:0:0:
448,192,96045,1,8,0:0:0:0:
64,192,96045,1,0,0:0:0:0:
192,192,96195,1,4,0:0:0:0:
320,192,96345,1,4,0:0:0:0:
192,192,96645,1,8,0:0:0:0:
64,192,96645,1,0,0:0:0:0:
448,192,96945,1,0,0:0:0:35:Finish.wav
320,192,96945,1,0,0:0:0:0:
192,192,96945,1,0,0:0:0:0:
64,192,97245,1,8,0:0:0:0:
448,192,97245,1,0,0:0:0:0:
192,192,97395,1,4,0:0:0:0:
320,192,97695,1,4,0:0:0:0:
448,192,97845,1,8,0:0:0:0:
64,192,97845,1,0,0:0:0:0:
320,192,98145,1,4,0:0:0:0:
192,192,98295,1,4,0:0:0:0:
448,192,98595,128,4,99345:0:0:0:0:
320,192,98895,1,4,0:0:0:0:
192,192,98970,1,4,0:0:0:0:
64,192,99045,1,4,0:0:0:0:
192,192,99345,1,4,0:0:0:0:
192,192,99495,1,4,0:0:0:0:
192,192,99645,1,4,0:0:0:0:
192,192,99795,1,4,0:0:0:0:
192,192,99945,1,4,0:0:0:0:
320,192,100545,1,4,0:0:0:0:
320,192,100695,1,4,0:0:0:0:
320,192,100845,1,4,0:0:0:0:
320,192,100995,1,4,0:0:0:0:
320,192,101145,1,4,0:0:0:0:
448,192,101745,1,4,0:0:0:0:
448,192,101895,1,4,0:0:0:0:
448,192,102045,1,4,0:0:0:0:
448,192,102195,1,4,0:0:0:0:
448,192,102345,1,4,0:0:0:0:
448,192,102945,1,0,0:0:0:0:
320,192,103020,1,0,0:0:0:0:
192,192,103095,1,0,0:0:0:0:
320,192,103170,1,0,0:0:0:0:
448,192,103245,1,0,0:0:0:0:
64,192,103395,1,0,0:0:0:0:
192,192,103545,1,0,0:0:0:0:
448,192,103695,1,0,0:0:0:0:
320,192,103845,1,0,0:0:0:0:
192,192,103995,1,0,0:0:0:0:
448,192,104145,1,4,0:0:0:0:
64,192,104295,1,0,0:0:0:0:
192,192,104370,1,0,0:0:0:0:
320,192,104445,1,8,0:0:0:0:
448,192,104445,1,0,0:0:0:0:
64,192,104595,1,0,0:0:0:0:
192,192,104670,1,0,0:0:0:0:
320,192,104745,1,4,0:0:0:0:
64,192,104895,1,0,0:0:0:0:
192,192,104970,1,0,0:0:0:0:
448,192,105045,1,8,0:0:0:0:
320,192,105045,1,0,0:0:0:0:
64,192,105195,1,0,0:0:0:0:
192,192,105270,1,0,0:0:0:0:
320,192,105345,1,4,0:0:0:0:
192,192,105495,1,0,0:0:0:0:
320,192,105570,1,0,0:0:0:0:
448,192,105645,1,8,0:0:0:0:
64,192,105645,1,0,0:0:0:0:
320,192,105795,1,0,0:0:0:0:
448,192,105870,1,0,0:0:0:0:
64,192,105945,1,4,0:0:0:0:
320,192,106095,1,0,0:0:0:0:
64,192,106245,1,8,0:0:0:0:
192,192,106245,1,0,0:0:0:0:
448,192,106395,1,0,0:0:0:0:
64,192,106545,1,4,0:0:0:0:
448,192,106695,1,0,0:0:0:0:
320,192,106770,1,0,0:0:0:0:
192,192,106845,1,8,0:0:0:0:
64,192,106845,1,0,0:0:0:0:
448,192,106995,1,0,0:0:0:0:
320,192,107070,1,0,0:0:0:0:
192,192,107145,1,4,0:0:0:0:
448,192,107295,1,0,0:0:0:0:
320,192,107370,1,0,0:0:0:0:
64,192,107445,1,8,0:0:0:0:
192,192,107445,1,0,0:0:0:0:
320,192,107595,1,0,0:0:0:0:
192,192,107670,1,0,0:0:0:0:
448,192,107745,1,4,0:0:0:0:
320,192,107820,1,0,0:0:0:0:
192,192,107895,1,0,0:0:0:0:
320,192,107970,1,0,0:0:0:0:
64,192,108045,1,8,0:0:0:0:
448,192,108045,1,0,0:0:0:0:
192,192,108120,1,0,0:0:0:0:
320,192,108195,1,0,0:0:0:0:
448,192,108270,1,0,0:0:0:0:
192,192,108345,1,4,0:0:0:0:
320,192,108420,1,0,0:0:0:0:
64,192,108495,1,0,0:0:0:0:
192,192,108570,1,0,0:0:0:0:
320,192,108645,1,8,0:0:0:0:
448,192,108645,1,0,0:0:0:0:
192,192,108720,1,0,0:0:0:0:
64,192,108795,1,0,0:0:0:0:
448,192,108870,1,0,0:0:0:0:
320,192,108945,1,4,0:0:0:0:
192,192,109095,1,0,0:0:0:0:
320,192,109170,1,0,0:0:0:0:
64,192,109245,1,8,0:0:0:0:
448,192,109245,1,0,0:0:0:0:
320,192,109395,1,0,0:0:0:0:
192,192,109545,1,4,0:0:0:0:
320,192,109695,1,0,0:0:0:0:
192,192,109770,1,0,0:0:0:0:
64,192,109845,1,8,0:0:0:0:
448,192,109845,1,0,0:0:0:0:
192,192,109995,1,0,0:0:0:0:
448,192,110145,1,4,0:0:0:0:
320,192,110220,1,0,0:0:0:0:
192,192,110295,1,0,0:0:0:0:
64,192,110370,1,0,0:0:0:0:
448,192,110445,1,8,0:0:0:0:
320,192,110445,1,0,0:0:0:0:
192,192,110520,1,0,0:0:0:0:
448,192,110595,1,0,0:0:0:0:
64,192,110670,1,0,0:0:0:0:
192,192,110745,1,4,0:0:0:0:
320,192,110820,1,4,0:0:0:0:
192,192,110895,1,4,0:0:0:0:
320,192,110970,1,4,0:0:0:0:
448,192,111045,1,4,0:0:0:0:
64,192,111120,1,0,0:0:0:0:
448,192,111195,1,4,0:0:0:0:
64,192,111270,1,0,0:0:0:0:
192,192,111345,1,4,0:0:0:0:
320,192,111345,1,0,0:0:0:0:
64,192,111945,1,4,0:0:0:0:
320,192,111945,1,0,0:0:0:0:
192,192,112545,1,4,0:0:0:0:
64,192,112545,1,0,0:0:0:0:
448,192,113145,1,4,0:0:0:0:
64,192,113145,1,0,0:0:0:0:
448,192,113745,128,0,114945:0:0:0:0:
64,192,114345,128,0,114945:0:0:0:0:
192,192,114945,1,0,0:0:0:35:Finish.wav
320,192,115095,1,4,0:0:0:0:
64,192,115245,1,4,0:0:0:0:
448,192,115395,128,0,117345:0:0:0:35:Finish.wav
192,192,115395,1,0,0:0:0:0:
320,192,115395,1,0,0:0:0:0:
